  0
SECTION
  2
HEADER
  9
$ACADVER
  1
AC1027
  9
$ACADMAINTVER
 70
   105
  9
$DWGCODEPAGE
  3
ANSI_932
  9
$REQUIREDVERSIONS
160
                 0
  9
$INSBASE
 10
0.0
 20
0.0
 30
0.0
  9
$EXTMIN
 10
590.05
 20
-431.0000000001
 30
0.0
  9
$EXTMAX
 10
799.9499999999999
 20
-54.96180921408493
 30
0.0
  9
$LIMMIN
 10
0.0
 20
0.0
  9
$LIMMAX
 10
12.0
 20
9.0
  9
$ORTHOMODE
 70
     0
  9
$REGENMODE
 70
     1
  9
$FILLMODE
 70
     1
  9
$QTEXTMODE
 70
     0
  9
$MIRRTEXT
 70
     1
  9
$LTSCALE
 40
1.0
  9
$ATTMODE
 70
     1
  9
$TEXTSIZE
 40
0.2
  9
$TRACEWID
 40
0.05
  9
$TEXTSTYLE
  7
Standard
  9
$CLAYER
  8
0
  9
$CELTYPE
  6
ByLayer
  9
$CECOLOR
 62
   256
  9
$CELTSCALE
 40
1.0
  9
$DISPSILH
 70
     0
  9
$DIMSCALE
 40
1.0
  9
$DIMASZ
 40
3.0
  9
$DIMEXO
 40
0.0625
  9
$DIMDLI
 40
0.38
  9
$DIMRND
 40
0.0
  9
$DIMDLE
 40
0.0
  9
$DIMEXE
 40
1.5
  9
$DIMTP
 40
0.0
  9
$DIMTM
 40
0.0
  9
$DIMTXT
 40
3.0
  9
$DIMCEN
 40
0.09
  9
$DIMTSZ
 40
0.0
  9
$DIMTOL
 70
     0
  9
$DIMLIM
 70
     0
  9
$DIMTIH
 70
     1
  9
$DIMTOH
 70
     1
  9
$DIMSE1
 70
     0
  9
$DIMSE2
 70
     0
  9
$DIMTAD
 70
     1
  9
$DIMZIN
 70
     0
  9
$DIMBLK
  1

  9
$DIMASO
 70
     1
  9
$DIMSHO
 70
     1
  9
$DIMPOST
  1

  9
$DIMAPOST
  1

  9
$DIMALT
 70
     0
  9
$DIMALTD
 70
     2
  9
$DIMALTF
 40
25.4
  9
$DIMLFAC
 40
1.0
  9
$DIMTOFL
 70
     0
  9
$DIMTVP
 40
0.0
  9
$DIMTIX
 70
     0
  9
$DIMSOXD
 70
     0
  9
$DIMSAH
 70
     0
  9
$DIMBLK1
  1

  9
$DIMBLK2
  1

  9
$DIMSTYLE
  2
Standard
  9
$DIMCLRD
 70
     0
  9
$DIMCLRE
 70
     0
  9
$DIMCLRT
 70
     0
  9
$DIMTFAC
 40
1.0
  9
$DIMGAP
 40
1.5
  9
$DIMJUST
 70
     0
  9
$DIMSD1
 70
     0
  9
$DIMSD2
 70
     0
  9
$DIMTOLJ
 70
     1
  9
$DIMTZIN
 70
     0
  9
$DIMALTZ
 70
     0
  9
$DIMALTTZ
 70
     0
  9
$DIMUPT
 70
     0
  9
$DIMDEC
 70
     2
  9
$DIMTDEC
 70
     4
  9
$DIMALTU
 70
     2
  9
$DIMALTTD
 70
     2
  9
$DIMTXSTY
  7
ＭＳ ゴシック
  9
$DIMAUNIT
 70
     0
  9
$DIMADEC
 70
     2
  9
$DIMALTRND
 40
0.0
  9
$DIMAZIN
 70
     0
  9
$DIMDSEP
 70
    46
  9
$DIMATFIT
 70
     3
  9
$DIMFRAC
 70
     0
  9
$DIMLDRBLK
  1

  9
$DIMLUNIT
 70
     2
  9
$DIMLWD
 70
    -2
  9
$DIMLWE
 70
    -2
  9
$DIMTMOVE
 70
     0
  9
$DIMFXL
 40
1.0
  9
$DIMFXLON
 70
     0
  9
$DIMJOGANG
 40
0.7853981633974483
  9
$DIMTFILL
 70
     0
  9
$DIMTFILLCLR
 70
     0
  9
$DIMARCSYM
 70
     0
  9
$DIMLTYPE
  6

  9
$DIMLTEX1
  6

  9
$DIMLTEX2
  6

  9
$DIMTXTDIRECTION
 70
     0
  9
$LUNITS
 70
     2
  9
$LUPREC
 70
     4
  9
$SKETCHINC
 40
0.1
  9
$FILLETRAD
 40
0.5
  9
$AUNITS
 70
     0
  9
$AUPREC
 70
     0
  9
$MENU
  1
.
  9
$ELEVATION
 40
0.0
  9
$PELEVATION
 40
0.0
  9
$THICKNESS
 40
0.0
  9
$LIMCHECK
 70
     0
  9
$CHAMFERA
 40
0.0
  9
$CHAMFERB
 40
0.0
  9
$CHAMFERC
 40
0.0
  9
$CHAMFERD
 40
0.0
  9
$SKPOLY
 70
     0
  9
$TDCREATE
 40
2458960.455442095
  9
$TDUCREATE
 40
2458960.080442095
  9
$TDUPDATE
 40
2458960.455443183
  9
$TDUUPDATE
 40
2458960.080443183
  9
$TDINDWG
 40
0.0000000116
  9
$TDUSRTIMER
 40
0.0000000116
  9
$USRTIMER
 70
     1
  9
$ANGBASE
 50
0.0
  9
$ANGDIR
 70
     0
  9
$PDMODE
 70
     0
  9
$PDSIZE
 40
0.0
  9
$PLINEWID
 40
0.0
  9
$SPLFRAME
 70
     0
  9
$SPLINETYPE
 70
     6
  9
$SPLINESEGS
 70
     8
  9
$HANDSEED
  5
367
  9
$SURFTAB1
 70
     6
  9
$SURFTAB2
 70
     6
  9
$SURFTYPE
 70
     6
  9
$SURFU
 70
     6
  9
$SURFV
 70
     6
  9
$UCSBASE
  2

  9
$UCSNAME
  2

  9
$UCSORG
 10
0.0
 20
0.0
 30
0.0
  9
$UCSXDIR
 10
1.0
 20
0.0
 30
0.0
  9
$UCSYDIR
 10
0.0
 20
1.0
 30
0.0
  9
$UCSORTHOREF
  2

  9
$UCSORTHOVIEW
 70
     0
  9
$UCSORGTOP
 10
0.0
 20
0.0
 30
0.0
  9
$UCSORGBOTTOM
 10
0.0
 20
0.0
 30
0.0
  9
$UCSORGLEFT
 10
0.0
 20
0.0
 30
0.0
  9
$UCSORGRIGHT
 10
0.0
 20
0.0
 30
0.0
  9
$UCSORGFRONT
 10
0.0
 20
0.0
 30
0.0
  9
$UCSORGBACK
 10
0.0
 20
0.0
 30
0.0
  9
$PUCSBASE
  2

  9
$PUCSNAME
  2

  9
$PUCSORG
 10
0.0
 20
0.0
 30
0.0
  9
$PUCSXDIR
 10
1.0
 20
0.0
 30
0.0
  9
$PUCSYDIR
 10
0.0
 20
1.0
 30
0.0
  9
$PUCSORTHOREF
  2

  9
$PUCSORTHOVIEW
 70
     0
  9
$PUCSORGTOP
 10
0.0
 20
0.0
 30
0.0
  9
$PUCSORGBOTTOM
 10
0.0
 20
0.0
 30
0.0
  9
$PUCSORGLEFT
 10
0.0
 20
0.0
 30
0.0
  9
$PUCSORGRIGHT
 10
0.0
 20
0.0
 30
0.0
  9
$PUCSORGFRONT
 10
0.0
 20
0.0
 30
0.0
  9
$PUCSORGBACK
 10
0.0
 20
0.0
 30
0.0
  9
$USERI1
 70
     0
  9
$USERI2
 70
     0
  9
$USERI3
 70
     0
  9
$USERI4
 70
     0
  9
$USERI5
 70
     0
  9
$USERR1
 40
0.0
  9
$USERR2
 40
0.0
  9
$USERR3
 40
0.0
  9
$USERR4
 40
0.0
  9
$USERR5
 40
0.0
  9
$WORLDVIEW
 70
     1
  9
$SHADEDGE
 70
     3
  9
$SHADEDIF
 70
    70
  9
$TILEMODE
 70
     1
  9
$MAXACTVP
 70
    64
  9
$PINSBASE
 10
0.0
 20
0.0
 30
0.0
  9
$PLIMCHECK
 70
     0
  9
$PEXTMIN
 10
1.000000000000000E+20
 20
1.000000000000000E+20
 30
1.000000000000000E+20
  9
$PEXTMAX
 10
-1.000000000000000E+20
 20
-1.000000000000000E+20
 30
-1.000000000000000E+20
  9
$PLIMMIN
 10
0.0
 20
0.0
  9
$PLIMMAX
 10
12.0
 20
9.0
  9
$UNITMODE
 70
     0
  9
$VISRETAIN
 70
     1
  9
$PLINEGEN
 70
     0
  9
$PSLTSCALE
 70
     1
  9
$TREEDEPTH
 70
  3020
  9
$CMLSTYLE
  2
Standard
  9
$CMLJUST
 70
     0
  9
$CMLSCALE
 40
1.0
  9
$PROXYGRAPHICS
 70
     1
  9
$MEASUREMENT
 70
     1
  9
$CELWEIGHT
370
    -1
  9
$ENDCAPS
280
     0
  9
$JOINSTYLE
280
     0
  9
$LWDISPLAY
290
     1
  9
$INSUNITS
 70
     4
  9
$HYPERLINKBASE
  1

  9
$STYLESHEET
  1

  9
$XEDIT
290
     1
  9
$CEPSNTYPE
380
     0
  9
$PSTYLEMODE
290
     1
  9
$FINGERPRINTGUID
  2
{FE81521E-35DF-4526-A4A5-57B3EF7DAD1A}
  9
$VERSIONGUID
  2
{FAEB1C32-E019-11D5-929B-00C0DF256EC4}
  9
$EXTNAMES
290
     1
  9
$PSVPSCALE
 40
0.0
  9
$OLESTARTUP
290
     0
  9
$SORTENTS
280
   127
  9
$INDEXCTL
280
     0
  9
$HIDETEXT
280
     1
  9
$XCLIPFRAME
280
     2
  9
$HALOGAP
280
     0
  9
$OBSCOLOR
 70
   257
  9
$OBSLTYPE
280
     0
  9
$INTERSECTIONDISPLAY
280
     0
  9
$INTERSECTIONCOLOR
 70
   257
  9
$DIMASSOC
280
     2
  9
$PROJECTNAME
  1

  9
$CAMERADISPLAY
290
     0
  9
$LENSLENGTH
 40
50.0
  9
$CAMERAHEIGHT
 40
0.0
  9
$STEPSPERSEC
 40
2.0
  9
$STEPSIZE
 40
6.0
  9
$3DDWFPREC
 40
2.0
  9
$PSOLWIDTH
 40
0.25
  9
$PSOLHEIGHT
 40
4.0
  9
$LOFTANG1
 40
1.570796326794897
  9
$LOFTANG2
 40
1.570796326794897
  9
$LOFTMAG1
 40
0.0
  9
$LOFTMAG2
 40
0.0
  9
$LOFTPARAM
 70
     7
  9
$LOFTNORMALS
280
     1
  9
$LATITUDE
 40
37.795
  9
$LONGITUDE
 40
-122.394
  9
$NORTHDIRECTION
 40
0.0
  9
$TIMEZONE
 70
 -8000
  9
$LIGHTGLYPHDISPLAY
280
     1
  9
$TILEMODELIGHTSYNCH
280
     1
  9
$CMATERIAL
347
44
  9
$SOLIDHIST
280
     0
  9
$SHOWHIST
280
     1
  9
$DWFFRAME
280
     2
  9
$DGNFRAME
280
     2
  9
$REALWORLDSCALE
290
     1
  9
$INTERFERECOLOR
 62
   256
  9
$CSHADOW
280
     0
  9
$SHADOWPLANELOCATION
 40
0.0
  0
ENDSEC
  0
SECTION
  2
CLASSES
  0
CLASS
  1
ACDBDICTIONARYWDFLT
  2
AcDbDictionaryWithDefault
  3
ObjectDBX Classes
 90
        0
 91
        3
280
     0
281
     0
  0
CLASS
  1
VISUALSTYLE
  2
AcDbVisualStyle
  3
ObjectDBX Classes
 90
     4095
 91
        3
280
     0
281
     0
  0
CLASS
  1
MATERIAL
  2
AcDbMaterial
  3
ObjectDBX Classes
 90
     1153
 91
        3
280
     0
281
     0
  0
CLASS
  1
SCALE
  2
AcDbScale
  3
ObjectDBX Classes
 90
     1153
 91
        3
280
     0
281
     0
  0
CLASS
  1
TABLESTYLE
  2
AcDbTableStyle
  3
ObjectDBX Classes
 90
     4095
 91
        3
280
     0
281
     0
  0
CLASS
  1
MLEADERSTYLE
  2
AcDbMLeaderStyle
  3
ACDB_MLEADERSTYLE_CLASS
 90
     4095
 91
        3
280
     0
281
     0
  0
CLASS
  1
SUN
  2
AcDbSun
  3
SCENEOE
 90
     1153
 91
        3
280
     0
281
     0
  0
CLASS
  1
DICTIONARYVAR
  2
AcDbDictionaryVar
  3
ObjectDBX Classes
 90
        0
 91
        3
280
     0
281
     0
  0
CLASS
  1
CELLSTYLEMAP
  2
AcDbCellStyleMap
  3
ObjectDBX Classes
 90
     1152
 91
        3
280
     0
281
     0
  0
ENDSEC
  0
SECTION
  2
TABLES
  0
TABLE
  2
VPORT
  5
8
330
0
100
AcDbSymbolTable
 70
     1
  0
VPORT
  5
29
330
8
100
AcDbSymbolTableRecord
100
AcDbViewportTableRecord
  2
*Active
 70
     0
 10
0.0
 20
0.0
 11
1.0
 21
1.0
 12
695.0
 22
-242.9809046070925
 13
0.0
 23
0.0
 14
0.5
 24
0.5
 15
0.5
 25
0.5
 16
0.0
 26
0.0
 36
1.0
 17
0.0
 27
0.0
 37
0.0
 40
376.0381907860151
 41
1.6
 42
50.0
 43
0.0
 44
0.0
 50
0.0
 51
0.0
 71
     0
 72
   100
 73
     1
 74
     3
 75
     0
 76
     0
 77
     0
 78
     0
281
     0
 65
     1
110
0.0
120
0.0
130
0.0
111
1.0
121
0.0
131
0.0
112
0.0
122
1.0
132
0.0
 79
     0
146
0.0
348
2F
 60
     3
 61
     5
292
     1
282
     1
141
0.0
142
0.0
 63
   250
361
6D
  0
ENDTAB
  0
TABLE
  2
LTYPE
  5
5
330
0
100
AcDbSymbolTable
 70
     1
  0
LTYPE
  5
14
330
5
100
AcDbSymbolTableRecord
100
AcDbLinetypeTableRecord
  2
ByBlock
 70
     0
  3

 72
    65
 73
     0
 40
0.0
  0
LTYPE
  5
15
330
5
100
AcDbSymbolTableRecord
100
AcDbLinetypeTableRecord
  2
ByLayer
 70
     0
  3

 72
    65
 73
     0
 40
0.0
  0
LTYPE
  5
16
330
5
100
AcDbSymbolTableRecord
100
AcDbLinetypeTableRecord
  2
Continuous
 70
     0
  3
Solid line
 72
    65
 73
     0
 40
0.0
  0
ENDTAB
  0
TABLE
  2
LAYER
  5
2
330
0
100
AcDbSymbolTable
 70
     3
  0
LAYER
  5
10
330
2
100
AcDbSymbolTableRecord
100
AcDbLayerTableRecord
  2
0
 70
     0
 62
     7
  6
Continuous
370
    -3
390
F
347
46
348
0
  0
LAYER
  5
6E
330
2
100
AcDbSymbolTableRecord
100
AcDbLayerTableRecord
  2
1
 70
     0
 62
     7
  6
Continuous
370
    -3
390
F
347
46
348
0
  0
LAYER
  5
1A3
330
2
100
AcDbSymbolTableRecord
100
AcDbLayerTableRecord
  2
Defpoints
 70
     0
 62
     7
  6
Continuous
290
     0
370
    -3
390
F
347
46
348
0
  0
ENDTAB
  0
TABLE
  2
STYLE
  5
3
330
0
100
AcDbSymbolTable
 70
     2
  0
STYLE
  5
11
330
3
100
AcDbSymbolTableRecord
100
AcDbTextStyleTableRecord
  2
Standard
 70
     0
 40
0.0
 41
1.0
 50
0.0
 71
     0
 42
0.2
  3
txt
  4

  0
STYLE
  5
6F
330
3
100
AcDbSymbolTableRecord
100
AcDbTextStyleTableRecord
  2
ＭＳ ゴシック
 70
     0
 40
0.0
 41
1.0
 50
0.0
 71
     0
 42
0.2
  3
ＭＳ ゴシック.shx
  4

  0
ENDTAB
  0
TABLE
  2
VIEW
  5
6
330
0
100
AcDbSymbolTable
 70
     0
  0
ENDTAB
  0
TABLE
  2
UCS
  5
7
330
0
100
AcDbSymbolTable
 70
     0
  0
ENDTAB
  0
TABLE
  2
APPID
  5
9
330
0
100
AcDbSymbolTable
 70
     1
  0
APPID
  5
12
330
9
100
AcDbSymbolTableRecord
100
AcDbRegAppTableRecord
  2
ACAD
 70
     0
  0
ENDTAB
  0
TABLE
  2
DIMSTYLE
  5
A
330
0
100
AcDbSymbolTable
 70
     1
100
AcDbDimStyleTable
  0
DIMSTYLE
105
27
102
{ACAD_REACTORS
330
1A4
330
1B1
330
1C0
330
1CD
102
}
330
A
100
AcDbSymbolTableRecord
100
AcDbDimStyleTableRecord
  2
Standard
 70
     0
178
     0
340
11
  0
ENDTAB
  0
TABLE
  2
BLOCK_RECORD
  5
1
330
0
100
AcDbSymbolTable
 70
     5
  0
BLOCK_RECORD
  5
1F
330
1
100
AcDbSymbolTableRecord
100
AcDbBlockTableRecord
  2
*Model_Space
340
22
 70
     0
280
     1
281
     0
  0
BLOCK_RECORD
  5
1B
330
1
100
AcDbSymbolTableRecord
100
AcDbBlockTableRecord
  2
*Paper_Space
340
1E
 70
     0
280
     1
281
     0
  0
BLOCK_RECORD
  5
23
330
1
100
AcDbSymbolTableRecord
100
AcDbBlockTableRecord
  2
*Paper_Space0
340
26
 70
     0
280
     1
281
     0
  0
BLOCK_RECORD
  5
1A5
330
1
100
AcDbSymbolTableRecord
100
AcDbBlockTableRecord
  2
*D1
340
0
 70
     0
280
     1
281
     0
  0
BLOCK_RECORD
  5
1B2
330
1
100
AcDbSymbolTableRecord
100
AcDbBlockTableRecord
  2
*D2
340
0
 70
     0
280
     1
281
     0
  0
BLOCK_RECORD
  5
1C1
330
1
100
AcDbSymbolTableRecord
100
AcDbBlockTableRecord
  2
*D3
340
0
 70
     0
280
     1
281
     0
  0
BLOCK_RECORD
  5
1CE
330
1
100
AcDbSymbolTableRecord
100
AcDbBlockTableRecord
  2
*D4
340
0
 70
     0
280
     1
281
     0
  0
ENDTAB
  0
ENDSEC
  0
SECTION
  2
BLOCKS
  0
BLOCK
  5
20
330
1F
100
AcDbEntity
  8
0
100
AcDbBlockBegin
  2
*Model_Space
 70
     0
 10
0.0
 20
0.0
 30
0.0
  3
*Model_Space
  1

  0
ENDBLK
  5
21
330
1F
100
AcDbEntity
  8
0
100
AcDbBlockEnd
  0
BLOCK
  5
1C
330
1B
100
AcDbEntity
 67
     1
  8
0
100
AcDbBlockBegin
  2
*Paper_Space
 70
     0
 10
0.0
 20
0.0
 30
0.0
  3
*Paper_Space
  1

  0
ENDBLK
  5
1D
330
1B
100
AcDbEntity
 67
     1
  8
0
100
AcDbBlockEnd
  0
BLOCK
  5
24
330
23
100
AcDbEntity
  8
0
100
AcDbBlockBegin
  2
*Paper_Space0
 70
     0
 10
0.0
 20
0.0
 30
0.0
  3
*Paper_Space0
  1

  0
ENDBLK
  5
25
330
23
100
AcDbEntity
  8
0
100
AcDbBlockEnd
  0
BLOCK
  5
1A6
330
1A5
100
AcDbEntity
  8
0
100
AcDbBlockBegin
  2
*D1
 70
     1
 10
0.0
 20
0.0
 30
0.0
  3
*D1
  1

  0
LINE
  5
1A8
330
1A5
100
AcDbEntity
  8
1
 62
     0
370
    -2
100
AcDbLine
 10
666.9358762177658
 20
-337.9615510389
 30
0.0
 11
666.9358762177658
 21
-358.2835275133335
 31
0.0
  0
LINE
  5
1A9
330
1A5
100
AcDbEntity
  8
1
 62
     0
370
    -2
100
AcDbLine
 10
731.9358762177658
 20
-337.9615510111669
 30
0.0
 11
731.9358762177658
 21
-358.2835275133335
 31
0.0
  0
LINE
  5
1AA
330
1A5
100
AcDbEntity
  8
1
 62
     0
370
    -2
100
AcDbLine
 10
670.4358762177658
 20
-356.5335275133335
 30
0.0
 11
728.4358762177658
 21
-356.5335275133335
 31
0.0
  0
SOLID
  5
1AB
330
1A5
100
AcDbEntity
  8
1
 62
     0
100
AcDbTrace
 10
670.4358762177658
 20
-355.9501941800002
 30
0.0
 11
670.4358762177658
 21
-357.1168608466668
 31
0.0
 12
666.9358762177658
 22
-356.5335275133335
 32
0.0
 13
666.9358762177658
 23
-356.5335275133335
 33
0.0
  0
SOLID
  5
1AC
330
1A5
100
AcDbEntity
  8
1
 62
     0
100
AcDbTrace
 10
728.4358762177658
 20
-357.1168608466668
 30
0.0
 11
728.4358762177658
 21
-355.9501941800002
 31
0.0
 12
731.9358762177658
 22
-356.5335275133335
 32
0.0
 13
731.9358762177658
 23
-356.5335275133335
 33
0.0
  0
MTEXT
  5
1AD
330
1A5
100
AcDbEntity
  8
1
 62
     0
100
AcDbMText
 10
699.4358762177658
 20
-352.6570933817842
 30
0.0
 40
3.5
 41
0.0
 46
0.0
 71
     5
 72
     1
  1
\A1;開口部（φ250以下）
  7
ＭＳ ゴシック
 73
     1
 44
1.0
  0
POINT
  5
1AE
330
1A5
100
AcDbEntity
  8
Defpoints
 62
     0
100
AcDbPoint
 10
666.9358762177658
 20
-337.8990510389
 30
0.0
  0
POINT
  5
1AF
330
1A5
100
AcDbEntity
  8
Defpoints
 62
     0
100
AcDbPoint
 10
731.9358762177658
 20
-337.8990510111669
 30
0.0
  0
POINT
  5
1B0
330
1A5
100
AcDbEntity
  8
Defpoints
 62
     0
100
AcDbPoint
 10
731.9358762177658
 20
-356.5335275133335
 30
0.0
  0
ENDBLK
  5
1A7
330
1A5
100
AcDbEntity
  8
0
100
AcDbBlockEnd
  0
BLOCK
  5
1B3
330
1B2
100
AcDbEntity
  8
0
100
AcDbBlockBegin
  2
*D2
 70
     1
 10
0.0
 20
0.0
 30
0.0
  3
*D2
  1

  0
LINE
  5
1B5
330
1B2
100
AcDbEntity
  8
1
 62
     0
370
    -2
100
AcDbLine
 10
724.4144929348505
 20
-258.2500000000001
 30
0.0
 11
674.8309616106038
 21
-258.2500000000001
 31
0.0
  0
LINE
  5
1B6
330
1B2
100
AcDbEntity
  8
1
 62
     0
370
    -2
100
AcDbLine
 10
674.8309616106038
 20
-258.2500000000001
 30
0.0
 11
674.8309616106038
 21
-271.2323844388
 31
0.0
  0
LINE
  5
1B7
330
1B2
100
AcDbEntity
  8
1
 62
     0
370
    -2
100
AcDbLine
 10
742.8950584983003
 20
-304.5657176778337
 30
0.0
 11
673.0809616106038
 21
-304.5657176778337
 31
0.0
  0
LINE
  5
1B8
330
1B2
100
AcDbEntity
  8
1
 62
     0
370
    -2
100
AcDbLine
 10
727.8733762177658
 20
-271.2323844388
 30
0.0
 11
673.0809616106038
 21
-271.2323844388
 31
0.0
  0
LINE
  5
1B9
330
1B2
100
AcDbEntity
  8
1
 62
     0
370
    -2
100
AcDbLine
 10
674.8309616106038
 20
-301.0657176778337
 30
0.0
 11
674.8309616106038
 21
-274.7323844388
 31
0.0
  0
SOLID
  5
1BA
330
1B2
100
AcDbEntity
  8
1
 62
     0
100
AcDbTrace
 10
674.2476282772705
 20
-301.0657176778337
 30
0.0
 11
675.4142949439372
 21
-301.0657176778337
 31
0.0
 12
674.8309616106038
 22
-304.5657176778337
 32
0.0
 13
674.8309616106038
 23
-304.5657176778337
 33
0.0
  0
SOLID
  5
1BB
330
1B2
100
AcDbEntity
  8
1
 62
     0
100
AcDbTrace
 10
675.4142949439372
 20
-274.7323844388
 30
0.0
 11
674.2476282772705
 21
-274.7323844388
 31
0.0
 12
674.8309616106038
 22
-271.2323844388
 32
0.0
 13
674.8309616106038
 23
-271.2323844388
 33
0.0
  0
MTEXT
  5
1BC
330
1B2
100
AcDbEntity
  8
1
 62
     0
100
AcDbMText
 10
700.3727272727272
 20
-254.3636090096286
 30
0.0
 40
3.5
 41
0.0
 46
0.0
 71
     5
 72
     1
  1
\A1;スリーブ高さ：制限無し
  7
ＭＳ ゴシック
 73
     1
 44
1.0
  0
POINT
  5
1BD
330
1B2
100
AcDbEntity
  8
Defpoints
 62
     0
100
AcDbPoint
 10
742.9575584983003
 20
-304.5657176778337
 30
0.0
  0
POINT
  5
1BE
330
1B2
100
AcDbEntity
  8
Defpoints
 62
     0
100
AcDbPoint
 10
727.9358762177658
 20
-271.2323844388
 30
0.0
  0
POINT
  5
1BF
330
1B2
100
AcDbEntity
  8
Defpoints
 62
     0
100
AcDbPoint
 10
674.8309616106038
 20
-271.2323844388
 30
0.0
  0
ENDBLK
  5
1B4
330
1B2
100
AcDbEntity
  8
0
100
AcDbBlockEnd
  0
BLOCK
  5
1C2
330
1C1
100
AcDbEntity
  8
0
100
AcDbBlockBegin
  2
*D3
 70
     1
 10
0.0
 20
0.0
 30
0.0
  3
*D3
  1

  0
LINE
  5
1C4
330
1C1
100
AcDbEntity
  8
1
 62
     0
370
    -2
100
AcDbLine
 10
743.0200584983003
 20
-304.5657176778337
 30
0.0
 11
750.9575584982994
 21
-304.5657176778337
 31
0.0
  0
LINE
  5
1C5
330
1C1
100
AcDbEntity
  8
1
 62
     0
370
    -2
100
AcDbLine
 10
743.0200584983003
 20
-337.8990510111669
 30
0.0
 11
750.9575584982994
 21
-337.8990510111669
 31
0.0
  0
LINE
  5
1C6
330
1C1
100
AcDbEntity
  8
1
 62
     0
370
    -2
100
AcDbLine
 10
749.2075584982994
 20
-308.0657176778337
 30
0.0
 11
749.2075584982994
 21
-334.3990510111669
 31
0.0
  0
SOLID
  5
1C7
330
1C1
100
AcDbEntity
  8
1
 62
     0
100
AcDbTrace
 10
749.7908918316327
 20
-308.0657176778337
 30
0.0
 11
748.624225164966
 21
-308.0657176778337
 31
0.0
 12
749.2075584982994
 22
-304.5657176778337
 32
0.0
 13
749.2075584982994
 23
-304.5657176778337
 33
0.0
  0
SOLID
  5
1C8
330
1C1
100
AcDbEntity
  8
1
 62
     0
100
AcDbTrace
 10
748.624225164966
 20
-334.3990510111669
 30
0.0
 11
749.7908918316327
 21
-334.3990510111669
 31
0.0
 12
749.2075584982994
 22
-337.8990510111669
 32
0.0
 13
749.2075584982994
 23
-337.8990510111669
 33
0.0
  0
MTEXT
  5
1C9
330
1C1
100
AcDbEntity
  8
1
 62
     0
100
AcDbMText
 10
745.5491358085408
 20
-321.2323843445003
 30
0.0
 40
3.5
 41
0.0
 46
0.0
 71
     5
 72
     1
  1
\A1;100以上
  7
ＭＳ ゴシック
 11
0.0
 21
1.0
 31
0.0
 73
     1
 44
1.0
  0
POINT
  5
1CA
330
1C1
100
AcDbEntity
  8
Defpoints
 62
     0
100
AcDbPoint
 10
742.9575584983003
 20
-304.5657176778337
 30
0.0
  0
POINT
  5
1CB
330
1C1
100
AcDbEntity
  8
Defpoints
 62
     0
100
AcDbPoint
 10
742.9575584983003
 20
-337.8990510111669
 30
0.0
  0
POINT
  5
1CC
330
1C1
100
AcDbEntity
  8
Defpoints
 62
     0
100
AcDbPoint
 10
749.2075584982994
 20
-337.8990510111669
 30
0.0
  0
ENDBLK
  5
1C3
330
1C1
100
AcDbEntity
  8
0
100
AcDbBlockEnd
  0
BLOCK
  5
1CF
330
1CE
100
AcDbEntity
  8
0
100
AcDbBlockBegin
  2
*D4
 70
     1
 10
0.0
 20
0.0
 30
0.0
  3
*D4
  1

  0
LINE
  5
1D1
330
1CE
100
AcDbEntity
  8
1
 62
     0
370
    -2
100
AcDbLine
 10
667.8733762177659
 20
-288.5657174284001
 30
0.0
 11
645.3271216787327
 21
-288.5657174284001
 31
0.0
  0
LINE
  5
1D2
330
1CE
100
AcDbEntity
  8
1
 62
     0
370
    -2
100
AcDbLine
 10
670.873376217766
 20
-270.2323844665335
 30
0.0
 11
645.3271216787327
 21
-270.2323844665335
 31
0.0
  0
LINE
  5
1D3
330
1CE
100
AcDbEntity
  8
1
 62
     0
370
    -2
100
AcDbLine
 10
647.0771216787327
 20
-285.0657174284001
 30
0.0
 11
647.0771216787327
 21
-273.7323844665335
 31
0.0
  0
SOLID
  5
1D4
330
1CE
100
AcDbEntity
  8
1
 62
     0
100
AcDbTrace
 10
646.4937883453994
 20
-285.0657174284001
 30
0.0
 11
647.6604550120661
 21
-285.0657174284001
 31
0.0
 12
647.0771216787327
 22
-288.5657174284001
 32
0.0
 13
647.0771216787327
 23
-288.5657174284001
 33
0.0
  0
SOLID
  5
1D5
330
1CE
100
AcDbEntity
  8
1
 62
     0
100
AcDbTrace
 10
647.6604550120661
 20
-273.7323844665335
 30
0.0
 11
646.4937883453994
 21
-273.7323844665335
 31
0.0
 12
647.0771216787327
 22
-270.2323844665335
 32
0.0
 13
647.0771216787327
 23
-270.2323844665335
 33
0.0
  0
MTEXT
  5
1D6
330
1CE
100
AcDbEntity
  8
1
 62
     0
100
AcDbMText
 10
643.418698988974
 20
-279.3990509474668
 30
0.0
 40
3.5
 41
0.0
 46
0.0
 71
     5
 72
     1
  1
\A1;55以上
  7
ＭＳ ゴシック
 11
0.0
 21
1.0
 31
0.0
 73
     1
 44
1.0
  0
POINT
  5
1D7
330
1CE
100
AcDbEntity
  8
Defpoints
 62
     0
100
AcDbPoint
 10
667.9358762177659
 20
-288.5657174284001
 30
0.0
  0
POINT
  5
1D8
330
1CE
100
AcDbEntity
  8
Defpoints
 62
     0
100
AcDbPoint
 10
670.935876217766
 20
-270.2323844665335
 30
0.0
  0
POINT
  5
1D9
330
1CE
100
AcDbEntity
  8
Defpoints
 62
     0
100
AcDbPoint
 10
647.0771216787327
 20
-270.2323844665335
 30
0.0
  0
ENDBLK
  5
1D0
330
1CE
100
AcDbEntity
  8
0
100
AcDbBlockEnd
  0
ENDSEC
  0
SECTION
  2
ENTITIES
  0
CIRCLE
  5
70
330
1F
100
AcDbEntity
  8
1
  6
Continuous
 62
     7
370
     9
100
AcDbCircle
 10
713.7381395922325
 20
-213.9948656803669
 30
0.0
 40
7.000000000000117
  0
CIRCLE
  5
71
330
1F
100
AcDbEntity
  8
1
  6
Continuous
 62
     7
370
     9
100
AcDbCircle
 10
713.7381395922325
 20
-213.9948656803669
 30
0.0
 40
4.500000000000171
  0
CIRCLE
  5
72
330
1F
100
AcDbEntity
  8
1
  6
Continuous
 62
     7
370
     9
100
AcDbCircle
 10
699.7115963823667
 20
-199.554742223567
 30
0.0
 40
4.500000000000171
  0
CIRCLE
  5
73
330
1F
100
AcDbEntity
  8
1
  6
Continuous
 62
     7
370
     9
100
AcDbCircle
 10
685.2714729255658
 20
-213.5812854334668
 30
0.0
 40
4.500000000000171
  0
CIRCLE
  5
74
330
1F
100
AcDbEntity
  8
1
  6
Continuous
 62
     7
370
     9
100
AcDbCircle
 10
699.2980161354317
 20
-228.0214088902336
 30
0.0
 40
3.416666666666401
  0
CIRCLE
  5
75
330
1F
100
AcDbEntity
  8
1
  6
Continuous
 62
     7
370
     9
100
AcDbCircle
 10
699.7115963823667
 20
-199.554742223567
 30
0.0
 40
3.416666666666401
  0
CIRCLE
  5
76
330
1F
100
AcDbEntity
  8
1
  6
Continuous
 62
     7
370
     9
100
AcDbCircle
 10
699.2980161354317
 20
-228.0214088902336
 30
0.0
 40
6.000000000000227
  0
CIRCLE
  5
77
330
1F
100
AcDbEntity
  8
1
  6
Continuous
 62
     7
370
     9
100
AcDbCircle
 10
699.7115963823667
 20
-199.554742223567
 30
0.0
 40
8.00000000000023
  0
CIRCLE
  5
78
330
1F
100
AcDbEntity
  8
1
  6
Continuous
 62
     7
370
     9
100
AcDbCircle
 10
685.2714729255658
 20
-213.5812854334668
 30
0.0
 40
8.00000000000023
  0
CIRCLE
  5
79
330
1F
100
AcDbEntity
  8
1
  6
Continuous
 62
     7
370
     9
100
AcDbCircle
 10
713.7381395922325
 20
-213.9948656803669
 30
0.0
 40
3.416666666666401
  0
CIRCLE
  5
7A
330
1F
100
AcDbEntity
  8
1
  6
Continuous
 62
     7
370
     9
100
AcDbCircle
 10
699.2980161354317
 20
-228.0214088902336
 30
0.0
 40
7.000000000000117
  0
CIRCLE
  5
7B
330
1F
100
AcDbEntity
  8
1
  6
Continuous
 62
     7
370
     9
100
AcDbCircle
 10
713.7381395922325
 20
-213.9948656803669
 30
0.0
 40
6.000000000000227
  0
CIRCLE
  5
7C
330
1F
100
AcDbEntity
  8
1
  6
Continuous
 62
     7
370
     9
100
AcDbCircle
 10
699.2980161354317
 20
-228.0214088902336
 30
0.0
 40
4.500000000000171
  0
CIRCLE
  5
7D
330
1F
100
AcDbEntity
  8
1
  6
Continuous
 62
     7
370
     9
100
AcDbCircle
 10
685.2714729255658
 20
-213.5812854334668
 30
0.0
 40
3.416666666666401
  0
LINE
  5
7E
330
1F
100
AcDbEntity
  8
1
  6
Continuous
 62
     7
370
     9
100
AcDbLine
 10
693.6714729255986
 20
-288.5656664940337
 30
0.0
 11
707.1381395922659
 21
-288.5656664940337
 31
0.0
  0
CIRCLE
  5
7F
330
1F
100
AcDbEntity
  8
1
  6
Continuous
 62
     7
370
     9
100
AcDbCircle
 10
699.5048062588992
 20
-213.7880755569003
 30
0.0
 40
25.23333333333366
  0
LINE
  5
80
330
1F
100
AcDbEntity
  8
1
  6
Continuous
 62
     7
370
     9
100
AcDbLine
 10
707.1381395922657
 20
-270.2323335321668
 30
0.0
 11
693.6714729255983
 21
-270.2323335321668
 31
0.0
  0
LINE
  5
81
330
1F
100
AcDbEntity
  8
1
  6
Continuous
 62
     7
370
     9
100
AcDbLine
 10
608.0499999999996
 20
-150.0
 30
0.0
 11
784.9499999999995
 21
-150.0
 31
0.0
  0
LINE
  5
82
330
1F
100
AcDbEntity
  8
1
  6
Continuous
 62
     7
370
     9
100
AcDbLine
 10
799.9499999999998
 20
-135.0
 30
0.0
 11
799.9499999999998
 21
-431.0000000001
 31
0.0
  0
LINE
  5
83
330
1F
100
AcDbEntity
  8
1
  6
Continuous
 62
     7
370
     9
100
AcDbLine
 10
784.9499999999992
 20
-416.0
 30
0.0
 11
608.0499999999994
 21
-416.0
 31
0.0
  0
LINE
  5
84
330
1F
100
AcDbEntity
  8
1
  6
Continuous
 62
     7
370
     9
100
AcDbLine
 10
799.9499999999998
 20
-431.0000000000003
 30
0.0
 11
590.05
 21
-431.0000000000334
 31
0.0
  0
LINE
  5
85
330
1F
100
AcDbEntity
  8
1
  6
Continuous
 62
     7
370
     9
100
AcDbLine
 10
728.9499999999996
 20
-372.0000000000001
 30
0.0
 11
728.9499999999996
 21
-405.0000000000333
 31
0.0
  0
LINE
  5
86
330
1F
100
AcDbEntity
  8
1
  6
Continuous
 62
     7
370
     9
100
AcDbLine
 10
734.9499999999998
 20
-405.0000000000333
 30
0.0
 11
734.9499999999998
 21
-372.0000000000001
 31
0.0
  0
LINE
  5
87
330
1F
100
AcDbEntity
  8
1
  6
Continuous
 62
     7
370
     9
100
AcDbLine
 10
714.9500000006991
 20
-394.0000000001002
 30
0.0
 11
784.9499999999995
 21
-394.0000000001002
 31
0.0
  0
LINE
  5
88
330
1F
100
AcDbEntity
  8
1
  6
Continuous
 62
     7
370
     9
100
AcDbLine
 10
714.9499999997328
 20
-366.5000000000002
 30
0.0
 11
784.949999999733
 21
-366.5000000000002
 31
0.0
  0
LINE
  5
89
330
1F
100
AcDbEntity
  8
1
  6
Continuous
 62
     7
370
     9
100
AcDbLine
 10
728.9499999999996
 20
-377.5000000017666
 30
0.0
 11
714.950000000699
 21
-377.5000000021669
 31
0.0
  0
LINE
  5
8A
330
1F
100
AcDbEntity
  8
1
  6
Continuous
 62
     7
370
     9
100
AcDbLine
 10
740.4499999998993
 20
-379.9929696849002
 30
0.0
 11
779.7499999999001
 21
-379.9929696849002
 31
0.0
  0
LINE
  5
8B
330
1F
100
AcDbEntity
  8
1
  6
Continuous
 62
     7
370
     9
100
AcDbLine
 10
608.0499999999996
 20
-416.0
 30
0.0
 11
608.0499999999996
 21
-150.0
 31
0.0
  0
LINE
  5
8C
330
1F
100
AcDbEntity
  8
1
  6
Continuous
 62
     7
370
     9
100
AcDbLine
 10
784.9499999999992
 20
-150.0
 30
0.0
 11
784.9499999999992
 21
-416.0
 31
0.0
  0
LINE
  5
8D
330
1F
100
AcDbEntity
  8
1
  6
Continuous
 62
     7
370
     9
100
AcDbLine
 10
590.0500000000001
 20
-135.0
 30
0.0
 11
799.9499999999999
 21
-135.0
 31
0.0
  0
LINE
  5
8E
330
1F
100
AcDbEntity
  8
1
  6
Continuous
 62
     7
370
     9
100
AcDbLine
 10
590.0500000000001
 20
-431.0000000001
 30
0.0
 11
590.0500000000001
 21
-135.0000000000001
 31
0.0
  0
LINE
  5
8F
330
1F
100
AcDbEntity
  8
1
  6
Continuous
 62
     7
370
     9
100
AcDbLine
 10
714.949999999966
 20
-366.5000000000002
 30
0.0
 11
714.9500000002006
 21
-416.0
 31
0.0
  0
LINE
  5
90
330
1F
100
AcDbEntity
  8
1
  6
Continuous
 62
     7
370
     9
100
AcDbLine
 10
724.102542884432
 20
-270.2323844387998
 30
0.0
 11
724.102542884432
 21
-288.5657174006669
 31
0.0
  0
LINE
  5
91
330
1F
100
AcDbEntity
  8
1
  6
Continuous
 62
     7
370
     9
100
AcDbLine
 10
727.9358762177658
 20
-271.2323844388
 30
0.0
 11
727.9358762177658
 21
-270.2323844387999
 31
0.0
  0
LINE
  5
92
330
1F
100
AcDbEntity
  8
1
  6
Continuous
 62
     7
370
     9
100
AcDbLine
 10
678.7736334194
 20
-337.8990510111669
 30
0.0
 11
656.0271216787327
 21
-337.8990510111669
 31
0.0
  0
LINE
  5
93
330
1F
100
AcDbEntity
  8
1
  6
Continuous
 62
     7
370
     9
100
AcDbLine
 10
725.4358762177658
 20
-271.232384438767
 30
0.0
 11
725.4358762177658
 21
-337.8990510111335
 31
0.0
  0
LINE
  5
94
330
1F
100
AcDbEntity
  8
1
  6
Continuous
 62
     7
370
     9
100
AcDbLine
 10
725.4358762177658
 20
-304.5657176776001
 30
0.0
 11
742.9575584983005
 21
-304.5657176778337
 31
0.0
  0
LINE
  5
95
330
1F
100
AcDbEntity
  8
1
  6
Continuous
 62
     7
370
     9
100
AcDbLine
 10
727.9358762177658
 20
-270.2323844387998
 30
0.0
 11
720.6979557346651
 21
-270.2323844387998
 31
0.0
  0
LINE
  5
96
330
1F
100
AcDbEntity
  8
1
  6
Continuous
 62
     7
370
     9
100
AcDbLine
 10
725.1025428844321
 20
-288.5656629310334
 30
0.0
 11
720.6979557346654
 21
-288.565717400667
 31
0.0
  0
LINE
  5
97
330
1F
100
AcDbEntity
  8
1
  6
Continuous
 62
     7
370
     9
100
AcDbLine
 10
784.9499999999992
 20
-405.0000000000001
 30
0.0
 11
714.9500000006989
 21
-405.0000000000001
 31
0.0
  0
LINE
  5
98
330
1F
100
AcDbEntity
  8
1
  6
Continuous
 62
     7
370
     9
100
AcDbLine
 10
742.9575584983003
 20
-337.8990510111669
 30
0.0
 11
720.5091551080658
 21
-337.8990510111669
 31
0.0
  0
LINE
  5
99
330
1F
100
AcDbEntity
  8
1
  6
Continuous
 62
     7
370
     9
100
AcDbLine
 10
670.935876217766
 20
-271.2323844665335
 30
0.0
 11
670.935876217766
 21
-270.2323844665335
 31
0.0
  0
LINE
  5
9A
330
1F
100
AcDbEntity
  8
1
  6
Continuous
 62
     7
370
     9
100
AcDbLine
 10
673.4358762177662
 20
-271.2323844665335
 30
0.0
 11
673.4358762177662
 21
-337.8990510087667
 31
0.0
  0
LINE
  5
9B
330
1F
100
AcDbEntity
  8
1
  6
Continuous
 62
     7
370
     9
100
AcDbLine
 10
784.9499999999992
 20
-372.0000000000001
 30
0.0
 11
714.9500000006989
 21
-372.0000000000001
 31
0.0
  0
LINE
  5
9C
330
1F
100
AcDbEntity
  8
1
  6
Continuous
 62
     7
370
     9
100
AcDbLine
 10
674.7692095510987
 20
-288.5657174284001
 30
0.0
 11
674.7692095510987
 21
-270.2323844665336
 31
0.0
  0
LINE
  5
9D
330
1F
100
AcDbEntity
  8
1
  6
Continuous
 62
     7
370
     9
100
AcDbLine
 10
656.0271216787327
 20
-304.5657176778337
 30
0.0
 11
673.4358762496661
 21
-304.5657177183
 31
0.0
  0
LINE
  5
9E
330
1F
100
AcDbEntity
  8
1
  6
Continuous
 62
     7
370
     9
100
AcDbLine
 10
670.935876217766
 20
-271.2323844665335
 30
0.0
 11
673.7692095510987
 21
-271.2323845595998
 31
0.0
  0
LINE
  5
9F
330
1F
100
AcDbEntity
  8
1
  6
Continuous
 62
     7
370
     9
100
AcDbLine
 10
673.7692095510986
 20
-271.2323845595998
 30
0.0
 11
673.7692095510986
 21
-337.8990511319669
 31
0.0
  0
LINE
  5
A0
330
1F
100
AcDbEntity
  8
1
  6
Continuous
 62
     7
370
     9
100
AcDbLine
 10
731.9358762177658
 20
-304.5657176778337
 30
0.0
 11
731.9358762177658
 21
-337.8990510111669
 31
0.0
  0
CIRCLE
  5
A1
330
1F
100
AcDbEntity
  8
1
  6
Continuous
 62
     7
370
     9
100
AcDbCircle
 10
699.435876217766
 20
-213.7880755569003
 30
0.0
 40
32.49999999999975
  0
LINE
  5
A2
330
1F
100
AcDbEntity
  8
1
  6
Continuous
 62
     7
370
     9
100
AcDbLine
 10
644.716666666666
 20
-160.6666666666667
 30
0.0
 11
644.716666666666
 21
-153.3333333333336
 31
0.0
  0
LINE
  5
A3
330
1F
100
AcDbEntity
  8
1
  6
Continuous
 62
     7
370
     9
100
AcDbLine
 10
725.1025428844321
 20
-271.2323844388
 30
0.0
 11
725.1025428844321
 21
-337.8990510111335
 31
0.0
  0
CIRCLE
  5
A4
330
1F
100
AcDbEntity
  8
1
  6
Continuous
 62
     7
370
     9
100
AcDbCircle
 10
699.435876217766
 20
-213.7880755569003
 30
0.0
 40
28.89999999999992
  0
LINE
  5
A5
330
1F
100
AcDbEntity
  8
1
  6
Continuous
 62
     7
370
     9
100
AcDbLine
 10
725.1025428844321
 20
-271.2323844388
 30
0.0
 11
727.9358762177659
 21
-271.2323844388
 31
0.0
  0
CIRCLE
  5
A6
330
1F
100
AcDbEntity
  8
1
  6
Continuous
 62
     7
370
     9
100
AcDbCircle
 10
699.5048062588992
 20
-213.7880755569003
 30
0.0
 40
25.23333333333388
  0
LINE
  5
A7
330
1F
100
AcDbEntity
  8
1
  6
Continuous
 62
     7
370
     9
100
AcDbLine
 10
611.3833333333334
 20
-153.3333333333335
 30
0.0
 11
611.3833333333334
 21
-160.6666666666667
 31
0.0
  0
LINE
  5
A8
330
1F
100
AcDbEntity
  8
1
  6
Continuous
 62
     7
370
     9
100
AcDbLine
 10
666.9358762177658
 20
-304.5657310433335
 30
0.0
 11
666.9358762177658
 21
-337.8990510087667
 31
0.0
  0
LINE
  5
A9
330
1F
100
AcDbEntity
  8
1
  6
Continuous
 62
     7
370
     9
100
AcDbLine
 10
644.716666666666
 20
-153.3333333333335
 30
0.0
 11
611.3833333333333
 21
-153.3333333333335
 31
0.0
  0
LINE
  5
AA
330
1F
100
AcDbEntity
  8
1
  6
Continuous
 62
     7
370
     9
100
AcDbLine
 10
611.3833333333334
 20
-160.6666666666667
 30
0.0
 11
644.7166666666661
 21
-160.6666666666667
 31
0.0
  0
MTEXT
  5
AB
330
1F
100
AcDbEntity
  8
1
 62
     7
100
AcDbMText
 10
739.7977272727272
 20
-228.4318181818182
 30
0.0
 40
3.0
 41
0.0
 46
0.0
 71
     1
 72
     1
  1
{\fＭＳ ゴシック;さや管}
 73
     1
 44
1.0
  0
LINE
  5
AC
330
1F
100
AcDbEntity
  8
1
  6
Continuous
 62
     2
370
     9
100
AcDbLine
 10
740.1931818181819
 20
-232.4681818181818
 30
0.0
 11
749.8068181818181
 21
-232.4681818181818
 31
0.0
  0
HATCH
  5
AD
330
1F
100
AcDbEntity
  8
1
 62
     2
100
AcDbHatch
 10
0.0
 20
0.0
 30
0.0
210
0.0
220
0.0
230
1.0
  2
SOLID
 70
     1
 71
     1
 91
        1
 92
        3
 72
     0
 73
     1
 93
       72
 10
719.4327805528353
 20
-214.5093248541466
 10
719.3921738372953
 20
-214.560628453434
 10
719.3561930458691
 20
-214.6152759354906
 10
719.325112014105
 20
-214.6728513999808
 10
719.2991672874219
 20
-214.7329166628549
 10
719.2785563208561
 20
-214.795014591194
 10
719.2634359763082
 20
-214.8586725822677
 10
719.25392132873
 20
-214.9234061603261
 10
719.2500847903348
 20
-214.9887226637531
 10
719.2519555594964
 20
-215.0541249945184
 10
719.2595193985317
 20
-215.1191154013938
 10
719.2727187420586
 20
-215.1831992681408
 10
719.291453135103
 20
-215.2458888778385
 10
719.3155799976214
 20
-215.306707124704
 10
719.3449157096221
 20
-215.3651911451558
 10
719.3792370086232
 20
-215.4208958404845
 10
719.4182826888158
 20
-215.4733972643232
 10
719.4617555889968
 20
-215.5222958491353
 10
719.5093248541465
 20
-215.5672194471647
 10
719.5606284534339
 20
-215.6078261627046
 10
719.6152759354906
 20
-215.643806954131
 10
719.6728513999807
 20
-215.6748879858951
 10
719.7329166628548
 20
-215.700832712578
 10
719.795014591194
 20
-215.7214436791439
 10
719.8586725822677
 20
-215.7365640236918
 10
719.9234061603261
 20
-215.74607867127
 10
719.988722663753
 20
-215.7499152096652
 10
720.0541249945184
 20
-215.7480444405036
 10
720.1191154013939
 20
-215.7404806014683
 10
720.1831992681408
 20
-215.7272812579413
 10
720.2458888778384
 20
-215.708546864897
 10
720.306707124704
 20
-215.6844200023785
 10
720.3651911451557
 20
-215.6550842903779
 10
720.4208958404844
 20
-215.6207629913767
 10
720.473397264323
 20
-215.5817173111842
 10
720.5222958491352
 20
-215.5382444110031
 10
720.5672194471646
 20
-215.4906751458534
 10
720.6078261627046
 20
-215.439371546566
 10
720.6438069541309
 20
-215.3847240645094
 10
720.674887985895
 20
-215.3271486000193
 10
720.700832712578
 20
-215.2670833371452
 10
720.7214436791438
 20
-215.2049854088061
 10
720.7365640236918
 20
-215.1413274177324
 10
720.74607867127
 20
-215.0765938396739
 10
720.7499152096651
 20
-215.0112773362469
 10
720.7480444405036
 20
-214.9458750054816
 10
720.7404806014682
 20
-214.8808845986062
 10
720.7272812579413
 20
-214.8168007318592
 10
720.7085468648969
 20
-214.7541111221616
 10
720.6844200023785
 20
-214.693292875296
 10
720.6550842903778
 20
-214.6348088548443
 10
720.6207629913766
 20
-214.5791041595156
 10
720.5817173111841
 20
-214.5266027356769
 10
720.5382444110031
 20
-214.4777041508648
 10
720.4906751458534
 20
-214.4327805528354
 10
720.439371546566
 20
-214.3921738372954
 10
720.3847240645093
 20
-214.3561930458691
 10
720.3271486000192
 20
-214.325112014105
 10
720.2670833371452
 20
-214.2991672874221
 10
720.2049854088059
 20
-214.2785563208562
 10
720.1413274177323
 20
-214.2634359763082
 10
720.0765938396738
 20
-214.25392132873
 10
720.011277336247
 20
-214.2500847903348
 10
719.9458750054815
 20
-214.2519555594964
 10
719.8808845986061
 20
-214.2595193985318
 10
719.8168007318592
 20
-214.2727187420587
 10
719.7541111221615
 20
-214.291453135103
 10
719.6932928752959
 20
-214.3155799976215
 10
719.6348088548442
 20
-214.3449157096222
 10
719.5791041595155
 20
-214.3792370086233
 10
719.5266027356769
 20
-214.4182826888158
 10
719.4777041508647
 20
-214.4617555889969
 97
        0
 75
     0
 76
     1
 98
        0
  0
LINE
  5
AE
330
1F
100
AcDbEntity
  8
1
  6
Continuous
 62
    11
370
     9
100
AcDbLine
 10
720.0
 20
-215.0
 30
0.0
 11
740.1931818181819
 21
-232.4681818181818
 31
0.0
  0
LINE
  5
AF
330
1F
100
AcDbEntity
  8
1
  6
Continuous
 62
     7
370
     9
100
AcDbLine
 10
670.2917356914993
 20
-200.1757886423668
 30
0.0
 11
670.3153059175322
 21
-200.1522184163333
 31
0.0
  0
LINE
  5
B0
330
1F
100
AcDbEntity
  8
1
  6
Continuous
 62
     7
370
     9
100
AcDbLine
 10
675.9212266975335
 20
-194.5462976363335
 30
0.0
 11
675.9447969235663
 21
-194.5227274103
 31
0.0
  0
LINE
  5
B1
330
1F
100
AcDbEntity
  8
1
  6
Continuous
 62
     7
370
     9
100
AcDbLine
 10
681.8603668994995
 20
-188.6071574343667
 30
0.0
 11
681.8839371255323
 21
-188.5835872083335
 31
0.0
  0
LINE
  5
B2
330
1F
100
AcDbEntity
  8
1
  6
Continuous
 62
     7
370
     9
100
AcDbLine
 10
684.9702538956669
 20
-188.3929835196669
 30
0.0
 11
684.9938241216997
 21
-188.3694132936337
 31
0.0
  0
LINE
  5
B3
330
1F
100
AcDbEntity
  8
1
  6
Continuous
 62
     7
370
     9
100
AcDbLine
 10
690.8142917206998
 20
-182.5489456946336
 30
0.0
 11
690.8378619467326
 21
-182.5253754686002
 31
0.0
  0
LINE
  5
B4
330
1F
100
AcDbEntity
  8
1
  6
Continuous
 62
     7
370
     9
100
AcDbLine
 10
668.5942610944987
 20
-204.7689763208
 30
0.0
 11
668.6178313205328
 21
-204.7454060947669
 31
0.0
  0
LINE
  5
B5
330
1F
100
AcDbEntity
  8
1
  6
Continuous
 62
     7
370
     9
100
AcDbLine
 10
673.7453916763661
 20
-199.6178457389333
 30
0.0
 11
673.7689619023989
 21
-199.5942755129001
 31
0.0
  0
LINE
  5
B6
330
1F
100
AcDbEntity
  8
1
  6
Continuous
 62
     7
370
     9
100
AcDbLine
 10
691.7846646057327
 20
-184.7688076156668
 30
0.0
 11
691.8082348317655
 21
-184.7452373896002
 31
0.0
  0
LINE
  5
B7
330
1F
100
AcDbEntity
  8
1
  6
Continuous
 62
     7
370
     9
100
AcDbLine
 10
668.5690096707318
 20
-207.9844625506668
 30
0.0
 11
668.5925798967659
 21
-207.9608923246002
 31
0.0
  0
LINE
  5
B8
330
1F
100
AcDbEntity
  8
1
  6
Continuous
 62
     7
370
     9
100
AcDbLine
 10
694.924059856833
 20
-184.9491694003001
 30
0.0
 11
694.9476300828659
 21
-184.9255991742666
 31
0.0
  0
LINE
  5
B9
330
1F
100
AcDbEntity
  8
1
  6
Continuous
 62
     7
370
     9
100
AcDbLine
 10
667.7183617885659
 20
-212.1548674685667
 30
0.0
 11
667.7419320145988
 21
-212.1312972425333
 31
0.0
  0
LINE
  5
BA
330
1F
100
AcDbEntity
  8
1
  6
Continuous
 62
     7
370
     9
100
AcDbLine
 10
700.0371455302999
 20
-183.7977979917333
 30
0.0
 11
700.0607157563317
 21
-183.774227765667
 31
0.0
  0
LINE
  5
BB
330
1F
100
AcDbEntity
  8
1
  6
Continuous
 62
     7
370
     9
100
AcDbLine
 10
669.0355786900329
 20
-214.7993648319668
 30
0.0
 11
669.0591489161002
 21
-214.7757946059336
 31
0.0
  0
LINE
  5
BC
330
1F
100
AcDbEntity
  8
1
  6
Continuous
 62
     7
370
     9
100
AcDbLine
 10
702.9793546483321
 20
-184.5727171753
 30
0.0
 11
703.0029248743662
 21
-184.5491469492668
 31
0.0
  0
LINE
  5
BD
330
1F
100
AcDbEntity
  8
1
  6
Continuous
 62
     7
370
     9
100
AcDbLine
 10
668.8722478385332
 20
-218.6798239851001
 30
0.0
 11
668.8958180645661
 21
-218.6562537590669
 31
0.0
  0
LINE
  5
BE
330
1F
100
AcDbEntity
  8
1
  6
Continuous
 62
     7
370
     9
100
AcDbLine
 10
706.9135750647661
 20
-183.9683531621002
 30
0.0
 11
706.9371452908001
 21
-183.9447829360336
 31
0.0
  0
LINE
  5
BF
330
1F
100
AcDbEntity
  8
1
  6
Continuous
 62
     7
370
     9
100
AcDbLine
 10
669.4284539186327
 20
-221.4534743082335
 30
0.0
 11
669.4520241446668
 21
-221.4299040821669
 31
0.0
  0
LINE
  5
C0
330
1F
100
AcDbEntity
  8
1
  6
Continuous
 62
     7
370
     9
100
AcDbLine
 10
708.4978370594326
 20
-185.6546461566003
 30
0.0
 11
708.5214072854656
 21
-185.6310759305333
 31
0.0
  0
LINE
  5
C1
330
1F
100
AcDbEntity
  8
1
  6
Continuous
 62
     7
370
     9
100
AcDbLine
 10
670.8775784279325
 20
-223.2749047881003
 30
0.0
 11
670.9011486539653
 21
-223.2513345620334
 31
0.0
  0
LINE
  5
C2
330
1F
100
AcDbEntity
  8
1
  6
Continuous
 62
     7
370
     9
100
AcDbLine
 10
711.7604133213656
 20
-186.2006967391002
 30
0.0
 11
711.7839835473997
 21
-186.1771265130336
 31
0.0
  0
LINE
  5
C3
330
1F
100
AcDbEntity
  8
1
  6
Continuous
 62
     7
370
     9
100
AcDbLine
 10
670.5625766924658
 20
-227.3985333679666
 30
0.0
 11
670.5861469184998
 21
-227.3749631419334
 31
0.0
  0
LINE
  5
C4
330
1F
100
AcDbEntity
  8
1
  6
Continuous
 62
     7
370
     9
100
AcDbLine
 10
714.2449562546328
 20
-187.8687633795668
 30
0.0
 11
714.2685264807001
 21
-187.8451931535336
 31
0.0
  0
LINE
  5
C5
330
1F
100
AcDbEntity
  8
1
  6
Continuous
 62
     7
370
     9
100
AcDbLine
 10
672.5773878091651
 20
-229.5363318250332
 30
0.0
 11
672.6009580351991
 21
-229.5127615990004
 31
0.0
  0
LINE
  5
C6
330
1F
100
AcDbEntity
  8
1
  6
Continuous
 62
     7
370
     9
100
AcDbLine
 10
716.5054793831323
 20
-189.5677533717666
 30
0.0
 11
716.5290496091663
 21
-189.5441831457335
 31
0.0
  0
LINE
  5
C7
330
1F
100
AcDbEntity
  8
1
  6
Continuous
 62
     7
370
     9
100
AcDbLine
 10
675.1048634374988
 20
-230.9683693174001
 30
0.0
 11
675.1284336635329
 21
-230.9447990913669
 31
0.0
  0
LINE
  5
C8
330
1F
100
AcDbEntity
  8
1
  6
Continuous
 62
     7
370
     9
100
AcDbLine
 10
718.6950417069994
 20
-190.5726555035999
 30
0.0
 11
718.7186119330335
 21
-190.549085277567
 31
0.0
  0
LINE
  5
C9
330
1F
100
AcDbEntity
  8
1
  6
Continuous
 62
     7
370
     9
100
AcDbLine
 10
675.7083504227664
 20
-233.5593467878001
 30
0.0
 11
675.7319206487992
 21
-233.5357765617669
 31
0.0
  0
LINE
  5
CA
330
1F
100
AcDbEntity
  8
1
  6
Continuous
 62
     7
370
     9
100
AcDbLine
 10
720.1887267513998
 20
-192.7421923080002
 30
0.0
 11
720.2122969774327
 21
-192.7186220819336
 31
0.0
  0
LINE
  5
CB
330
1F
100
AcDbEntity
  8
1
  6
Continuous
 62
     7
370
     9
100
AcDbLine
 10
678.094761350266
 20
-234.8361577091001
 30
0.0
 11
678.1183315762988
 21
-234.8125874830666
 31
0.0
  0
LINE
  5
CC
330
1F
100
AcDbEntity
  8
1
  6
Continuous
 62
     7
370
     9
100
AcDbLine
 10
723.6437075808338
 20
-193.1094767850334
 30
0.0
 11
723.6672778068655
 21
-193.0859065590002
 31
0.0
  0
LINE
  5
CD
330
1F
100
AcDbEntity
  8
1
  6
Continuous
 62
     7
370
     9
100
AcDbLine
 10
678.3970399502997
 20
-238.3561444155667
 30
0.0
 11
678.4206101763326
 21
-238.3325741895332
 31
0.0
  0
LINE
  5
CE
330
1F
100
AcDbEntity
  8
1
  6
Continuous
 62
     7
370
     9
100
AcDbLine
 10
724.4220815415317
 20
-196.473008795
 30
0.0
 11
724.4456517675658
 21
-196.4494385689669
 31
0.0
  0
LINE
  5
CF
330
1F
100
AcDbEntity
  8
1
  6
Continuous
 62
     7
370
     9
100
AcDbLine
 10
681.5918090681329
 20
-239.3032812683666
 30
0.0
 11
681.6153792941657
 21
-239.2797110423335
 31
0.0
  0
LINE
  5
D0
330
1F
100
AcDbEntity
  8
1
  6
Continuous
 62
     7
370
     9
100
AcDbLine
 10
725.2400842044672
 20
-199.456813745467
 30
0.0
 11
725.2636544304988
 21
-199.4332435194001
 31
0.0
  0
LINE
  5
D1
330
1F
100
AcDbEntity
  8
1
  6
Continuous
 62
     7
370
     9
100
AcDbLine
 10
683.6486020108324
 20
-241.0482959390999
 30
0.0
 11
683.6721722368665
 21
-241.0247257130668
 31
0.0
  0
LINE
  5
D2
330
1F
100
AcDbEntity
  8
1
  6
Continuous
 62
     7
370
     9
100
AcDbLine
 10
727.2390484274327
 20
-200.7198157333332
 30
0.0
 11
727.2626186534657
 21
-200.6962455073004
 31
0.0
  0
LINE
  5
D3
330
1F
100
AcDbEntity
  8
1
  6
Continuous
 62
     7
370
     9
100
AcDbLine
 10
686.0976488329661
 20
-241.8612153278
 30
0.0
 11
686.1212190589989
 21
-241.8376451017666
 31
0.0
  0
LINE
  5
D4
330
1F
100
AcDbEntity
  8
1
  6
Continuous
 62
     7
370
     9
100
AcDbLine
 10
727.8864960215659
 20
-202.9959623804001
 30
0.0
 11
727.9100662475988
 21
-202.9723921543669
 31
0.0
  0
LINE
  5
D5
330
1F
100
AcDbEntity
  8
1
  6
Continuous
 62
     7
370
     9
100
AcDbLine
 10
687.7444690206665
 20
-243.1379893813
 30
0.0
 11
687.7680392466993
 21
-243.1144191552668
 31
0.0
  0
LINE
  5
D6
330
1F
100
AcDbEntity
  8
1
  6
Continuous
 62
     7
370
     9
100
AcDbLine
 10
728.0624319598
 20
-206.4735373607335
 30
0.0
 11
728.0860021858329
 21
-206.4499671347001
 31
0.0
  0
LINE
  5
D7
330
1F
100
AcDbEntity
  8
1
  6
Continuous
 62
     7
370
     9
100
AcDbLine
 10
689.8939265605327
 20
-244.64204276
 30
0.0
 11
689.9174967865655
 21
-244.6184725339665
 31
0.0
  0
LINE
  5
D8
330
1F
100
AcDbEntity
  8
1
  6
Continuous
 62
     7
370
     9
100
AcDbLine
 10
728.9378619189325
 20
-209.0082408282001
 30
0.0
 11
728.9614321449998
 21
-208.9846706021667
 31
0.0
  0
LINE
  5
D9
330
1F
100
AcDbEntity
  8
1
  6
Continuous
 62
     7
370
     9
100
AcDbLine
 10
693.5778528317654
 20
-244.3682499153668
 30
0.0
 11
693.6014230578327
 21
-244.3446796893336
 31
0.0
  0
LINE
  5
DA
330
1F
100
AcDbEntity
  8
1
  6
Continuous
 62
     7
370
     9
100
AcDbLine
 10
729.4350949986999
 20
-212.2854089586999
 30
0.0
 11
729.4586652247659
 21
-212.2618387326667
 31
0.0
  0
LINE
  5
DB
330
1F
100
AcDbEntity
  8
1
  6
Continuous
 62
     7
370
     9
100
AcDbLine
 10
696.2351143832669
 20
-245.4853895741336
 30
0.0
 11
696.2586846093329
 21
-245.4618193481001
 31
0.0
  0
LINE
  5
DC
330
1F
100
AcDbEntity
  8
1
  6
Continuous
 62
     7
370
     9
100
AcDbLine
 10
729.1036130159995
 20
-215.5818321656669
 30
0.0
 11
729.1271832420335
 21
-215.5582619396
 31
0.0
  0
LINE
  5
DD
330
1F
100
AcDbEntity
  8
1
  6
Continuous
 62
     7
370
     9
100
AcDbLine
 10
699.2527391449988
 20
-245.4327060366336
 30
0.0
 11
699.2763093710329
 21
-245.4091358106001
 31
0.0
  0
LINE
  5
DE
330
1F
100
AcDbEntity
  8
1
  6
Continuous
 62
     7
370
     9
100
AcDbLine
 10
728.5674292617664
 20
-219.7660455578003
 30
0.0
 11
728.5909994877992
 21
-219.7424753317669
 31
0.0
  0
LINE
  5
DF
330
1F
100
AcDbEntity
  8
1
  6
Continuous
 62
     7
370
     9
100
AcDbLine
 10
704.1573491568985
 20
-244.1761256627001
 30
0.0
 11
704.1809193829325
 21
-244.1525554366332
 31
0.0
  0
LINE
  5
E0
330
1F
100
AcDbEntity
  8
1
  6
Continuous
 62
     7
370
     9
100
AcDbLine
 10
726.0806548709326
 20
-225.2017920875666
 30
0.0
 11
726.1042250969666
 21
-225.1782218615335
 31
0.0
  0
LINE
  5
E1
330
1F
100
AcDbEntity
  8
1
  6
Continuous
 62
     7
370
     9
100
AcDbLine
 10
730.9496505592329
 20
-220.3327963992667
 30
0.0
 11
730.9732207852988
 21
-220.3092261732332
 31
0.0
  0
LINE
  5
E2
330
1F
100
AcDbEntity
  8
1
  6
Continuous
 62
     7
370
     9
100
AcDbLine
 10
706.2253366051328
 20
-245.0571103534002
 30
0.0
 11
706.2489068311669
 21
-245.0335401273333
 31
0.0
  0
LINE
  5
E3
330
1F
100
AcDbEntity
  8
1
  6
Continuous
 62
     7
370
     9
100
AcDbLine
 10
711.2797670859335
 20
-242.8664116237335
 30
0.0
 11
711.3033373119653
 21
-242.8428413977
 31
0.0
  0
LINE
  5
E4
330
1F
100
AcDbEntity
  8
1
  6
Continuous
 62
     7
370
     9
100
AcDbLine
 10
715.568696540599
 20
-238.5774821691001
 30
0.0
 11
715.5922667666318
 21
-238.5539119430331
 31
0.0
  0
LINE
  5
E5
330
1F
100
AcDbEntity
  8
1
  6
Continuous
 62
     7
370
     9
100
AcDbLine
 10
719.9136904325661
 20
-234.2324882771334
 30
0.0
 11
719.9372606585989
 21
-234.2089180510668
 31
0.0
  0
LINE
  5
E6
330
1F
100
AcDbEntity
  8
1
  6
Continuous
 62
     7
370
     9
100
AcDbLine
 10
724.9213582048322
 20
-229.2248205048335
 30
0.0
 11
724.9449284308995
 21
-229.2012502788
 31
0.0
  0
LINE
  5
E7
330
1F
100
AcDbEntity
  8
1
  6
Continuous
 62
     7
370
     9
100
AcDbLine
 10
715.0437153352328
 20
-242.0530324219004
 30
0.0
 11
715.0672855612669
 21
-242.0294621958669
 31
0.0
  0
LINE
  5
E8
330
1F
100
AcDbEntity
  8
1
  6
Continuous
 62
     7
370
     9
100
AcDbLine
 10
720.6883553924326
 20
-236.4083923647003
 30
0.0
 11
720.7119256184667
 21
-236.3848221386668
 31
0.0
  0
LINE
  5
E9
330
1F
100
AcDbEntity
  8
1
  6
Continuous
 62
     7
370
     9
100
AcDbLine
 10
725.7781128951325
 20
-231.3186348620001
 30
0.0
 11
725.8016831211665
 21
-231.2950646359669
 31
0.0
  0
LINE
  5
EA
330
1F
100
AcDbEntity
  8
1
  6
Continuous
 62
     7
370
     9
100
AcDbLine
 10
684.6113427596993
 20
-241.9567435990667
 30
0.0
 11
684.5877725336665
 21
-241.9331733730001
 31
0.0
  0
LINE
  5
EB
330
1F
100
AcDbEntity
  8
1
  6
Continuous
 62
     7
370
     9
100
AcDbLine
 10
678.4002965107326
 20
-235.7456973500667
 30
0.0
 11
678.3767262846998
 21
-235.7221271240332
 31
0.0
  0
LINE
  5
EC
330
1F
100
AcDbEntity
  8
1
  6
Continuous
 62
     7
370
     9
100
AcDbLine
 10
674.0550436606319
 20
-231.4004444999669
 30
0.0
 11
674.0314734345659
 21
-231.3768742739
 31
0.0
  0
LINE
  5
ED
330
1F
100
AcDbEntity
  8
1
  6
Continuous
 62
     7
370
     9
100
AcDbLine
 10
673.8240745497656
 20
-227.7059534259334
 30
0.0
 11
673.8005043237338
 21
-227.6823831999002
 31
0.0
  0
LINE
  5
EE
330
1F
100
AcDbEntity
  8
1
  6
Continuous
 62
     7
370
     9
100
AcDbLine
 10
668.8902098473995
 20
-222.7720887235667
 30
0.0
 11
668.8666396213655
 21
-222.7485184975336
 31
0.0
  0
LINE
  5
EF
330
1F
100
AcDbEntity
  8
1
  6
Continuous
 62
     7
370
     9
100
AcDbLine
 10
689.6464711521324
 20
-243.5283500283334
 30
0.0
 11
689.6229009260996
 21
-243.5047798022668
 31
0.0
  0
LINE
  5
F0
330
1F
100
AcDbEntity
  8
1
  6
Continuous
 62
     7
370
     9
100
AcDbLine
 10
669.8083416391987
 20
-220.3611409865668
 30
0.0
 11
669.7847714131659
 21
-220.3375707605336
 31
0.0
  0
LINE
  5
F1
330
1F
100
AcDbEntity
  8
1
  6
Continuous
 62
     7
370
     9
100
AcDbLine
 10
694.0495671370651
 20
-244.6023664844668
 30
0.0
 11
694.0259969110334
 21
-244.5787962584002
 31
0.0
  0
LINE
  5
F2
330
1F
100
AcDbEntity
  8
1
  6
Continuous
 62
     7
370
     9
100
AcDbLine
 10
669.7566295272658
 20
-216.8638181828335
 30
0.0
 11
669.733059301233
 21
-216.8402479568003
 31
0.0
  0
LINE
  5
F3
330
1F
100
AcDbEntity
  8
1
  6
Continuous
 62
     7
370
     9
100
AcDbLine
 10
698.9830057328334
 20
-246.0901943884001
 30
0.0
 11
698.9594355067993
 21
-246.0666241623669
 31
0.0
  0
LINE
  5
F4
330
1F
100
AcDbEntity
  8
1
  6
Continuous
 62
     7
370
     9
100
AcDbLine
 10
670.1555604216657
 20
-214.2996205599668
 30
0.0
 11
670.1319901955997
 21
-214.2760503339333
 31
0.0
  0
LINE
  5
F5
330
1F
100
AcDbEntity
  8
1
  6
Continuous
 62
     7
370
     9
100
AcDbLine
 10
701.1774167841004
 20
-245.3214769224333
 30
0.0
 11
701.1538465580663
 21
-245.2979066964001
 31
0.0
  0
LINE
  5
F6
330
1F
100
AcDbEntity
  8
1
  6
Continuous
 62
     7
370
     9
100
AcDbLine
 10
669.5275237953321
 20
-209.8647266365333
 30
0.0
 11
669.5039535693004
 21
-209.8411564104667
 31
0.0
  0
LINE
  5
F7
330
1F
100
AcDbEntity
  8
1
  6
Continuous
 62
     7
370
     9
100
AcDbLine
 10
704.414486112533
 20
-244.7516889537001
 30
0.0
 11
704.390915886499
 21
-244.7281187276667
 31
0.0
  0
LINE
  5
F8
330
1F
100
AcDbEntity
  8
1
  6
Continuous
 62
     7
370
     9
100
AcDbLine
 10
669.2683155750326
 20
-205.9583951317668
 30
0.0
 11
669.2447453489985
 21
-205.9348249057333
 31
0.0
  0
LINE
  5
F9
330
1F
100
AcDbEntity
  8
1
  6
Continuous
 62
     7
370
     9
100
AcDbLine
 10
707.5914048751656
 20
-244.2814844319001
 30
0.0
 11
707.5678346490995
 21
-244.2579142058335
 31
0.0
  0
LINE
  5
FA
330
1F
100
AcDbEntity
  8
1
  6
Continuous
 62
     7
370
     9
100
AcDbLine
 10
669.973406987432
 20
-202.4559778447002
 30
0.0
 11
669.9498367613992
 21
-202.432407618667
 31
0.0
  0
LINE
  5
FB
330
1F
100
AcDbEntity
  8
1
  6
Continuous
 62
     7
370
     9
100
AcDbLine
 10
709.7322269242322
 20
-242.2147977815
 30
0.0
 11
709.7086566981661
 21
-242.1912275554665
 31
0.0
  0
LINE
  5
FC
330
1F
100
AcDbEntity
  8
1
  6
Continuous
 62
     7
370
     9
100
AcDbLine
 10
672.5213889159661
 20
-201.0946845317335
 30
0.0
 11
672.4978186899333
 21
-201.0711143057
 31
0.0
  0
LINE
  5
FD
330
1F
100
AcDbEntity
  8
1
  6
Continuous
 62
     7
370
     9
100
AcDbLine
 10
713.5418130457662
 20
-242.1151086615002
 30
0.0
 11
713.5182428197
 21
-242.0915384354667
 31
0.0
  0
LINE
  5
FE
330
1F
100
AcDbEntity
  8
1
  6
Continuous
 62
     7
370
     9
100
AcDbLine
 10
672.883454577866
 20
-197.8555488193667
 30
0.0
 11
672.8598843518332
 21
-197.8319785933001
 31
0.0
  0
LINE
  5
FF
330
1F
100
AcDbEntity
  8
1
  6
Continuous
 62
     7
370
     9
100
AcDbLine
 10
715.4831220765994
 20
-240.4552163180666
 30
0.0
 11
715.4595518505654
 21
-240.4316460920335
 31
0.0
  0
LINE
  5
100
330
1F
100
AcDbEntity
  8
1
  6
Continuous
 62
     7
370
     9
100
AcDbLine
 10
674.5442409992662
 20
-196.570815877
 30
0.0
 11
674.5206707732002
 21
-196.5472456509669
 31
0.0
  0
LINE
  5
101
330
1F
100
AcDbEntity
  8
1
  6
Continuous
 62
     7
370
     9
100
AcDbLine
 10
716.1810394270652
 20
-238.2076143048336
 30
0.0
 11
716.1574692010335
 21
-238.1840440788001
 31
0.0
  0
LINE
  5
102
330
1F
100
AcDbEntity
  8
1
  6
Continuous
 62
     7
370
     9
100
AcDbLine
 10
676.3000868800332
 20
-195.4272801026668
 30
0.0
 11
676.2765166539991
 21
-195.4037098766333
 31
0.0
  0
LINE
  5
103
330
1F
100
AcDbEntity
  8
1
  6
Continuous
 62
     7
370
     9
100
AcDbLine
 10
719.0171564918998
 20
-238.1443497145335
 30
0.0
 11
718.9935862658657
 21
-238.1207794885
 31
0.0
  0
LINE
  5
104
330
1F
100
AcDbEntity
  8
1
  6
Continuous
 62
     7
370
     9
100
AcDbLine
 10
677.1056816953326
 20
-192.4117749231335
 30
0.0
 11
677.0821114692998
 21
-192.3882046970669
 31
0.0
  0
LINE
  5
105
330
1F
100
AcDbEntity
  8
1
  6
Continuous
 62
     7
370
     9
100
AcDbLine
 10
720.1519583180661
 20
-235.4580515458669
 30
0.0
 11
720.1283880920332
 21
-235.4344813198337
 31
0.0
  0
LINE
  5
106
330
1F
100
AcDbEntity
  8
1
  6
Continuous
 62
     7
370
     9
100
AcDbLine
 10
678.7974692881999
 20
-191.2638275524667
 30
0.0
 11
678.7738990621658
 21
-191.2402573264335
 31
0.0
  0
LINE
  5
107
330
1F
100
AcDbEntity
  8
1
  6
Continuous
 62
     7
370
     9
100
AcDbLine
 10
722.9127453800322
 20
-235.3791036442999
 30
0.0
 11
722.8891751540006
 21
-235.3555334182667
 31
0.0
  0
LINE
  5
108
330
1F
100
AcDbEntity
  8
1
  6
Continuous
 62
     7
370
     9
100
AcDbLine
 10
680.6366817966999
 20
-189.1834496535334
 30
0.0
 11
680.6131115706659
 21
-189.1598794275
 31
0.0
  0
LINE
  5
109
330
1F
100
AcDbEntity
  8
1
  6
Continuous
 62
     7
370
     9
100
AcDbLine
 10
723.7683354366321
 20
-232.3151032934665
 30
0.0
 11
723.7447652106003
 21
-232.2915330674337
 31
0.0
  0
LINE
  5
10A
330
1F
100
AcDbEntity
  8
1
  6
Continuous
 62
     7
370
     9
100
AcDbLine
 10
682.2745951083994
 20
-187.7521479299334
 30
0.0
 11
682.2510248823666
 21
-187.7285777038999
 31
0.0
  0
LINE
  5
10B
330
1F
100
AcDbEntity
  8
1
  6
Continuous
 62
     7
370
     9
100
AcDbLine
 10
724.582909338867
 20
-230.0604621604336
 30
0.0
 11
724.559339112833
 21
-230.0368919344002
 31
0.0
  0
LINE
  5
10C
330
1F
100
AcDbEntity
  8
1
  6
Continuous
 62
     7
370
     9
100
AcDbLine
 10
683.9250022026334
 20
-186.1515513745999
 30
0.0
 11
683.9014319765662
 21
-186.1279811485335
 31
0.0
  0
LINE
  5
10D
330
1F
100
AcDbEntity
  8
1
  6
Continuous
 62
     7
370
     9
100
AcDbLine
 10
725.8006171829666
 20
-228.0271663549336
 30
0.0
 11
725.7770469569325
 21
-228.0035961289001
 31
0.0
  0
LINE
  5
10E
330
1F
100
AcDbEntity
  8
1
  6
Continuous
 62
     7
370
     9
100
AcDbLine
 10
686.7488837617003
 20
-185.4501062944334
 30
0.0
 11
686.7253135356663
 21
-185.4265360683667
 31
0.0
  0
LINE
  5
10F
330
1F
100
AcDbEntity
  8
1
  6
Continuous
 62
     7
370
     9
100
AcDbLine
 10
727.1161036103989
 20
-225.8173261431333
 30
0.0
 11
727.0925333843661
 21
-225.7937559171002
 31
0.0
  0
LINE
  5
110
330
1F
100
AcDbEntity
  8
1
  6
Continuous
 62
     7
370
     9
100
AcDbLine
 10
690.0671273524657
 20
-185.5946884001001
 30
0.0
 11
690.0435571264329
 21
-185.571118174067
 31
0.0
  0
LINE
  5
111
330
1F
100
AcDbEntity
  8
1
  6
Continuous
 62
     7
370
     9
100
AcDbLine
 10
727.9600096885669
 20
-223.4875707362003
 30
0.0
 11
727.9364394625328
 21
-223.4640005101334
 31
0.0
  0
LINE
  5
112
330
1F
100
AcDbEntity
  8
1
  6
Continuous
 62
     7
370
     9
100
AcDbLine
 10
693.1475203118334
 20
-185.4407805099
 30
0.0
 11
693.1239500857994
 21
-185.4172102838666
 31
0.0
  0
LINE
  5
113
330
1F
100
AcDbEntity
  8
1
  6
Continuous
 62
     7
370
     9
100
AcDbLine
 10
729.6985495798328
 20
-221.9918097779001
 30
0.0
 11
729.6749793537988
 21
-221.9682395518666
 31
0.0
  0
LINE
  5
114
330
1F
100
AcDbEntity
  8
1
  6
Continuous
 62
     7
370
     9
100
AcDbLine
 10
695.4989747340327
 20
-184.6708398316003
 30
0.0
 11
695.4754045079998
 21
-184.6472696055668
 31
0.0
  0
LINE
  5
115
330
1F
100
AcDbEntity
  8
1
  6
Continuous
 62
     7
370
     9
100
AcDbLine
 10
730.2496423435983
 20
-219.4215074412003
 30
0.0
 11
730.2260721175666
 21
-219.3979372151668
 31
0.0
  0
LINE
  5
116
330
1F
100
AcDbEntity
  8
1
  6
Continuous
 62
     7
370
     9
100
AcDbLine
 10
698.345020011699
 20
-184.1338559679668
 30
0.0
 11
698.3214497856662
 21
-184.1102857419336
 31
0.0
  0
LINE
  5
117
330
1F
100
AcDbEntity
  8
1
  6
Continuous
 62
     7
370
     9
100
AcDbLine
 10
731.0229045398661
 20
-216.8117404961336
 30
0.0
 11
730.9993343138332
 21
-216.7881702701001
 31
0.0
  0
LINE
  5
118
330
1F
100
AcDbEntity
  8
1
  6
Continuous
 62
     7
370
     9
100
AcDbLine
 10
701.8347808923987
 20
-184.3718363246668
 30
0.0
 11
701.811210666367
 21
-184.3482660986337
 31
0.0
  0
LINE
  5
119
330
1F
100
AcDbEntity
  8
1
  6
Continuous
 62
     7
370
     9
100
AcDbLine
 10
731.3546328799995
 20
-213.891688312267
 30
0.0
 11
731.3310626539334
 21
-213.8681180862335
 31
0.0
  0
LINE
  5
11A
330
1F
100
AcDbEntity
  8
1
  6
Continuous
 62
     7
370
     9
100
AcDbLine
 10
704.587562678533
 20
-184.0746091376002
 30
0.0
 11
704.563992452499
 21
-184.0510389115668
 31
0.0
  0
LINE
  5
11B
330
1F
100
AcDbEntity
  8
1
  6
Continuous
 62
     7
370
     9
100
AcDbLine
 10
731.3147576513658
 20
-210.8018041104333
 30
0.0
 11
731.2911874253317
 21
-210.7782338844002
 31
0.0
  0
LINE
  5
11C
330
1F
100
AcDbEntity
  8
1
  6
Continuous
 62
     7
370
     9
100
AcDbLine
 10
709.5505165440329
 20
-186.0582064424001
 30
0.0
 11
709.5269463179668
 21
-186.0346362163334
 31
0.0
  0
LINE
  5
11D
330
1F
100
AcDbEntity
  8
1
  6
Continuous
 62
     7
370
     9
100
AcDbLine
 10
729.6900922602653
 20
-206.1977821586336
 30
0.0
 11
729.6665220342335
 21
-206.1742119326001
 31
0.0
  0
LINE
  5
11E
330
1F
100
AcDbEntity
  8
1
  6
Continuous
 62
     7
370
     9
100
AcDbLine
 10
729.4393788312326
 20
-202.0992960463333
 30
0.0
 11
729.4158086051985
 21
-202.0757258203001
 31
0.0
  0
LINE
  5
11F
330
1F
100
AcDbEntity
  8
1
  6
Continuous
 62
     7
370
     9
100
AcDbLine
 10
725.1710365487319
 20
-197.8309537638335
 30
0.0
 11
725.1474663227002
 21
-197.8073835377669
 31
0.0
  0
LINE
  5
120
330
1F
100
AcDbEntity
  8
1
  6
Continuous
 62
     7
370
     9
100
AcDbLine
 10
719.2191426583662
 20
-191.8790598734668
 30
0.0
 11
719.1955724323321
 21
-191.8554896474333
 31
0.0
  0
LINE
  5
121
330
1F
100
AcDbEntity
  8
1
  6
Continuous
 62
     7
370
     9
100
AcDbLine
 10
714.473411044699
 20
-187.1333282598002
 30
0.0
 11
714.4498408186661
 21
-187.1097580337668
 31
0.0
  0
LINE
  5
122
330
1F
100
AcDbEntity
  8
1
  6
Continuous
 62
     7
370
     9
100
AcDbLine
 10
725.1924519981659
 20
-194.9361984387334
 30
0.0
 11
725.1688817721331
 21
-194.9126282127
 31
0.0
  0
LINE
  5
123
330
1F
100
AcDbEntity
  8
1
  6
Continuous
 62
     7
370
     9
100
AcDbLine
 10
718.8947842513328
 20
-188.6385306919002
 30
0.0
 11
718.8712140252987
 21
-188.6149604658667
 31
0.0
  0
LINE
  5
124
330
1F
100
AcDbEntity
  8
1
  6
Continuous
 62
     7
370
     9
100
AcDbLine
 10
670.3970761141323
 20
-226.1522373265668
 30
0.0
 11
672.0701087215996
 21
-225.7039495905003
 31
0.0
  0
LINE
  5
125
330
1F
100
AcDbEntity
  8
1
  6
Continuous
 62
     7
370
     9
100
AcDbLine
 10
672.0701087215996
 20
-225.7039495905003
 30
0.0
 11
670.8453638501989
 21
-224.4792047191002
 31
0.0
  0
LINE
  5
126
330
1F
100
AcDbEntity
  8
1
  6
Continuous
 62
     7
370
     9
100
AcDbLine
 10
670.8453638501989
 20
-224.4792047191002
 30
0.0
 11
670.3970761141323
 21
-226.1522373265668
 31
0.0
  0
LINE
  5
127
330
1F
100
AcDbEntity
  8
1
  6
Continuous
 62
     7
370
     9
100
AcDbLine
 10
670.3970761141323
 20
-226.1522373265668
 30
0.0
 11
672.0701087215996
 21
-225.7039495905003
 31
0.0
  0
LINE
  5
128
330
1F
100
AcDbEntity
  8
1
  6
Continuous
 62
     7
370
     9
100
AcDbLine
 10
672.0701087215996
 20
-225.7039495905003
 30
0.0
 11
670.8453638501989
 21
-224.4792047191002
 31
0.0
  0
LINE
  5
129
330
1F
100
AcDbEntity
  8
1
  6
Continuous
 62
     7
370
     9
100
AcDbLine
 10
670.8453638501989
 20
-224.4792047191002
 30
0.0
 11
670.3970761141323
 21
-226.1522373265668
 31
0.0
  0
LINE
  5
12A
330
1F
100
AcDbEntity
  8
1
  6
Continuous
 62
     7
370
     9
100
AcDbLine
 10
709.4947507503327
 20
-242.8305023596334
 30
0.0
 11
711.1677833578
 21
-242.3822146235335
 31
0.0
  0
LINE
  5
12B
330
1F
100
AcDbEntity
  8
1
  6
Continuous
 62
     7
370
     9
100
AcDbLine
 10
711.1677833578
 20
-242.3822146235335
 30
0.0
 11
709.9430384864324
 21
-241.1574697521334
 31
0.0
  0
LINE
  5
12C
330
1F
100
AcDbEntity
  8
1
  6
Continuous
 62
     7
370
     9
100
AcDbLine
 10
709.9430384864326
 20
-241.1574697521334
 30
0.0
 11
709.4947507503329
 21
-242.8305023596334
 31
0.0
  0
LINE
  5
12D
330
1F
100
AcDbEntity
  8
1
  6
Continuous
 62
     7
370
     9
100
AcDbLine
 10
709.4947507503327
 20
-242.8305023596334
 30
0.0
 11
711.1677833578
 21
-242.3822146235335
 31
0.0
  0
LINE
  5
12E
330
1F
100
AcDbEntity
  8
1
  6
Continuous
 62
     7
370
     9
100
AcDbLine
 10
711.1677833578
 20
-242.3822146235335
 30
0.0
 11
709.9430384864324
 21
-241.1574697521334
 31
0.0
  0
LINE
  5
12F
330
1F
100
AcDbEntity
  8
1
  6
Continuous
 62
     7
370
     9
100
AcDbLine
 10
709.9430384864326
 20
-241.1574697521334
 30
0.0
 11
709.4947507503329
 21
-242.8305023596334
 31
0.0
  0
CIRCLE
  5
130
330
1F
100
AcDbEntity
  8
1
  6
Continuous
 62
     7
370
     9
100
AcDbCircle
 10
669.0230372341662
 20
-336.1304241848334
 30
0.0
 40
0.4999999999999449
  0
MTEXT
  5
131
330
1F
100
AcDbEntity
  8
1
 62
     7
100
AcDbMText
 10
628.9583468624357
 20
-338.342656153479
 30
0.0
 40
3.499999999999999
 41
0.0
 46
0.0
 71
     1
 72
     1
  1
{\fＭＳ ゴシック;\W0.845758;モルタル}
 73
     1
 44
1.0
  0
MTEXT
  5
132
330
1F
100
AcDbEntity
  8
1
 62
     7
100
AcDbMText
 10
628.9546133965267
 20
-342.7949288807516
 30
0.0
 40
3.499999999999999
 41
0.0
 46
0.0
 71
     1
 72
     1
  1
{\fＭＳ ゴシック;\W0.830113;（あり又はなし）}
 73
     1
 44
1.0
  0
LINE
  5
133
330
1F
100
AcDbEntity
  8
1
  6
Continuous
 62
     7
370
     9
100
AcDbLine
 10
628.7565181046325
 20
-347.0881108202667
 30
0.0
 11
655.4571118281331
 21
-347.0881108202667
 31
0.0
  0
LINE
  5
134
330
1F
100
AcDbEntity
  8
1
  6
Continuous
 62
     7
370
     9
100
AcDbLine
 10
669.0230372341662
 20
-336.1304241848334
 30
0.0
 11
655.4571118281332
 21
-342.5881108202668
 31
0.0
  0
LINE
  5
135
330
1F
100
AcDbEntity
  8
1
  6
Continuous
 62
     7
370
     9
100
AcDbLine
 10
655.4571118281331
 20
-342.5881108202668
 30
0.0
 11
628.7565181046325
 21
-342.5881108202668
 31
0.0
  0
LINE
  5
136
330
1F
100
AcDbEntity
  8
1
  6
Continuous
 62
     7
370
     9
100
AcDbLine
 10
673.4358762177662
 20
-272.3259628726
 30
0.0
 11
673.7692095510987
 21
-271.9926295392669
 31
0.0
  0
LINE
  5
137
330
1F
100
AcDbEntity
  8
1
  6
Continuous
 62
     7
370
     9
100
AcDbLine
 10
673.4358762177662
 20
-273.7401764350003
 30
0.0
 11
673.7692095510987
 21
-273.4068431016668
 31
0.0
  0
LINE
  5
138
330
1F
100
AcDbEntity
  8
1
  6
Continuous
 62
     7
370
     9
100
AcDbLine
 10
673.4358762177662
 20
-275.1543899973668
 30
0.0
 11
673.7692095510987
 21
-274.8210566640336
 31
0.0
  0
LINE
  5
139
330
1F
100
AcDbEntity
  8
1
  6
Continuous
 62
     7
370
     9
100
AcDbLine
 10
673.4358762177662
 20
-276.5686035597336
 30
0.0
 11
673.7692095510987
 21
-276.2352702264001
 31
0.0
  0
LINE
  5
13A
330
1F
100
AcDbEntity
  8
1
  6
Continuous
 62
     7
370
     9
100
AcDbLine
 10
673.4358762177662
 20
-277.9828171221002
 30
0.0
 11
673.7692095510987
 21
-277.6494837887668
 31
0.0
  0
LINE
  5
13B
330
1F
100
AcDbEntity
  8
1
  6
Continuous
 62
     7
370
     9
100
AcDbLine
 10
673.4358762177662
 20
-279.3970306844668
 30
0.0
 11
673.7692095510987
 21
-279.0636973511336
 31
0.0
  0
LINE
  5
13C
330
1F
100
AcDbEntity
  8
1
  6
Continuous
 62
     7
370
     9
100
AcDbLine
 10
673.4358762177662
 20
-280.8112442468336
 30
0.0
 11
673.7692095510987
 21
-280.4779109135001
 31
0.0
  0
LINE
  5
13D
330
1F
100
AcDbEntity
  8
1
  6
Continuous
 62
     7
370
     9
100
AcDbLine
 10
673.4358762177662
 20
-282.2254578092335
 30
0.0
 11
673.7692095510987
 21
-281.8921244759
 31
0.0
  0
LINE
  5
13E
330
1F
100
AcDbEntity
  8
1
  6
Continuous
 62
     7
370
     9
100
AcDbLine
 10
673.4358762177662
 20
-283.6396713716003
 30
0.0
 11
673.7692095510987
 21
-283.3063380382668
 31
0.0
  0
LINE
  5
13F
330
1F
100
AcDbEntity
  8
1
  6
Continuous
 62
     7
370
     9
100
AcDbLine
 10
673.4358762177662
 20
-285.0538849339667
 30
0.0
 11
673.7692095510987
 21
-284.7205516006337
 31
0.0
  0
LINE
  5
140
330
1F
100
AcDbEntity
  8
1
  6
Continuous
 62
     7
370
     9
100
AcDbLine
 10
673.4358762177662
 20
-286.4680984963336
 30
0.0
 11
673.7692095510987
 21
-286.1347651630001
 31
0.0
  0
LINE
  5
141
330
1F
100
AcDbEntity
  8
1
  6
Continuous
 62
     7
370
     9
100
AcDbLine
 10
673.4358762177662
 20
-287.8823120587001
 30
0.0
 11
673.7692095510987
 21
-287.548978725367
 31
0.0
  0
LINE
  5
142
330
1F
100
AcDbEntity
  8
1
  6
Continuous
 62
     7
370
     9
100
AcDbLine
 10
673.4358762177662
 20
-289.2965256211003
 30
0.0
 11
673.7692095510987
 21
-288.9631922877668
 31
0.0
  0
LINE
  5
143
330
1F
100
AcDbEntity
  8
1
  6
Continuous
 62
     7
370
     9
100
AcDbLine
 10
673.4358762177662
 20
-290.7107391834668
 30
0.0
 11
673.7692095510987
 21
-290.3774058501336
 31
0.0
  0
LINE
  5
144
330
1F
100
AcDbEntity
  8
1
  6
Continuous
 62
     7
370
     9
100
AcDbLine
 10
673.4358762177662
 20
-292.1249527458335
 30
0.0
 11
673.7692095510987
 21
-291.7916194125
 31
0.0
  0
LINE
  5
145
330
1F
100
AcDbEntity
  8
1
  6
Continuous
 62
     7
370
     9
100
AcDbLine
 10
673.4358762177662
 20
-293.5391663082
 30
0.0
 11
673.7692095510987
 21
-293.2058329748668
 31
0.0
  0
LINE
  5
146
330
1F
100
AcDbEntity
  8
1
  6
Continuous
 62
     7
370
     9
100
AcDbLine
 10
673.4358762177662
 20
-294.9533798705668
 30
0.0
 11
673.7692095510987
 21
-294.6200465372333
 31
0.0
  0
LINE
  5
147
330
1F
100
AcDbEntity
  8
1
  6
Continuous
 62
     7
370
     9
100
AcDbLine
 10
673.4358762177662
 20
-296.3675934329667
 30
0.0
 11
673.7692095510987
 21
-296.0342600996336
 31
0.0
  0
LINE
  5
148
330
1F
100
AcDbEntity
  8
1
  6
Continuous
 62
     7
370
     9
100
AcDbLine
 10
673.4358762177662
 20
-297.7818069953335
 30
0.0
 11
673.7692095510987
 21
-297.448473662
 31
0.0
  0
LINE
  5
149
330
1F
100
AcDbEntity
  8
1
  6
Continuous
 62
     7
370
     9
100
AcDbLine
 10
673.4358762177662
 20
-299.1960205577003
 30
0.0
 11
673.7692095510987
 21
-298.8626872243669
 31
0.0
  0
LINE
  5
14A
330
1F
100
AcDbEntity
  8
1
  6
Continuous
 62
     7
370
     9
100
AcDbLine
 10
673.4358762177662
 20
-300.6102341200668
 30
0.0
 11
673.7692095510987
 21
-300.2769007867337
 31
0.0
  0
LINE
  5
14B
330
1F
100
AcDbEntity
  8
1
  6
Continuous
 62
     7
370
     9
100
AcDbLine
 10
673.4358762177662
 20
-302.0244476824335
 30
0.0
 11
673.7692095510987
 21
-301.6911143491001
 31
0.0
  0
LINE
  5
14C
330
1F
100
AcDbEntity
  8
1
  6
Continuous
 62
     7
370
     9
100
AcDbLine
 10
673.4358762177662
 20
-303.4386612448336
 30
0.0
 11
673.7692095510987
 21
-303.1053279115001
 31
0.0
  0
LINE
  5
14D
330
1F
100
AcDbEntity
  8
1
  6
Continuous
 62
     7
370
     9
100
AcDbLine
 10
673.4358762177662
 20
-304.8528748072002
 30
0.0
 11
673.7692095510987
 21
-304.5195414738668
 31
0.0
  0
LINE
  5
14E
330
1F
100
AcDbEntity
  8
1
  6
Continuous
 62
     7
370
     9
100
AcDbLine
 10
673.4358762177662
 20
-306.2670883695667
 30
0.0
 11
673.7692095510987
 21
-305.9337550362336
 31
0.0
  0
LINE
  5
14F
330
1F
100
AcDbEntity
  8
1
  6
Continuous
 62
     7
370
     9
100
AcDbLine
 10
673.4358762177662
 20
-307.6813019319335
 30
0.0
 11
673.7692095510987
 21
-307.3479685986001
 31
0.0
  0
LINE
  5
150
330
1F
100
AcDbEntity
  8
1
  6
Continuous
 62
     7
370
     9
100
AcDbLine
 10
673.4358762177662
 20
-309.0955154943
 30
0.0
 11
673.7692095510987
 21
-308.7621821609669
 31
0.0
  0
LINE
  5
151
330
1F
100
AcDbEntity
  8
1
  6
Continuous
 62
     7
370
     9
100
AcDbLine
 10
673.4358762177662
 20
-310.5097290567003
 30
0.0
 11
673.7692095510987
 21
-310.1763957233668
 31
0.0
  0
LINE
  5
152
330
1F
100
AcDbEntity
  8
1
  6
Continuous
 62
     7
370
     9
100
AcDbLine
 10
673.4358762177662
 20
-311.9239426190667
 30
0.0
 11
673.7692095510987
 21
-311.5906092857336
 31
0.0
  0
LINE
  5
153
330
1F
100
AcDbEntity
  8
1
  6
Continuous
 62
     7
370
     9
100
AcDbLine
 10
673.4358762177662
 20
-313.3381561814336
 30
0.0
 11
673.7692095510987
 21
-313.0048228481001
 31
0.0
  0
LINE
  5
154
330
1F
100
AcDbEntity
  8
1
  6
Continuous
 62
     7
370
     9
100
AcDbLine
 10
673.4358762177662
 20
-314.7523697438003
 30
0.0
 11
673.7692095510987
 21
-314.4190364104668
 31
0.0
  0
LINE
  5
155
330
1F
100
AcDbEntity
  8
1
  6
Continuous
 62
     7
370
     9
100
AcDbLine
 10
673.4358762177662
 20
-316.1665833061667
 30
0.0
 11
673.7692095510987
 21
-315.8332499728336
 31
0.0
  0
LINE
  5
156
330
1F
100
AcDbEntity
  8
1
  6
Continuous
 62
     7
370
     9
100
AcDbLine
 10
673.4358762177662
 20
-317.5807968685668
 30
0.0
 11
673.7692095510987
 21
-317.2474635352336
 31
0.0
  0
LINE
  5
157
330
1F
100
AcDbEntity
  8
1
  6
Continuous
 62
     7
370
     9
100
AcDbLine
 10
673.4358762177662
 20
-318.9950104309335
 30
0.0
 11
673.7692095510987
 21
-318.6616770976
 31
0.0
  0
LINE
  5
158
330
1F
100
AcDbEntity
  8
1
  6
Continuous
 62
     7
370
     9
100
AcDbLine
 10
673.4358762177662
 20
-320.4092239933003
 30
0.0
 11
673.7692095510987
 21
-320.0758906599668
 31
0.0
  0
LINE
  5
159
330
1F
100
AcDbEntity
  8
1
  6
Continuous
 62
     7
370
     9
100
AcDbLine
 10
673.4358762177662
 20
-321.8234375556668
 30
0.0
 11
673.7692095510987
 21
-321.4901042223336
 31
0.0
  0
LINE
  5
15A
330
1F
100
AcDbEntity
  8
1
  6
Continuous
 62
     7
370
     9
100
AcDbLine
 10
725.1025428844321
 20
-271.5709844513668
 30
0.0
 11
725.4358762177658
 21
-271.2376511180334
 31
0.0
  0
LINE
  5
15B
330
1F
100
AcDbEntity
  8
1
  6
Continuous
 62
     7
370
     9
100
AcDbLine
 10
673.4358762177662
 20
-323.2376511180336
 30
0.0
 11
673.7692095510987
 21
-322.9043177847001
 31
0.0
  0
LINE
  5
15C
330
1F
100
AcDbEntity
  8
1
  6
Continuous
 62
     7
370
     9
100
AcDbLine
 10
725.1025428844321
 20
-272.9851980137336
 30
0.0
 11
725.4358762177658
 21
-272.6518646804001
 31
0.0
  0
LINE
  5
15D
330
1F
100
AcDbEntity
  8
1
  6
Continuous
 62
     7
370
     9
100
AcDbLine
 10
673.4358762177662
 20
-324.6518646804001
 30
0.0
 11
673.7692095510987
 21
-324.3185313470669
 31
0.0
  0
LINE
  5
15E
330
1F
100
AcDbEntity
  8
1
  6
Continuous
 62
     7
370
     9
100
AcDbLine
 10
725.1025428844321
 20
-274.3994115761336
 30
0.0
 11
725.4358762177658
 21
-274.0660782428001
 31
0.0
  0
LINE
  5
15F
330
1F
100
AcDbEntity
  8
1
  6
Continuous
 62
     7
370
     9
100
AcDbLine
 10
673.4358762177662
 20
-326.0660782428003
 30
0.0
 11
673.7692095510987
 21
-325.7327449094669
 31
0.0
  0
LINE
  5
160
330
1F
100
AcDbEntity
  8
1
  6
Continuous
 62
     7
370
     9
100
AcDbLine
 10
725.1025428844321
 20
-275.8136251385002
 30
0.0
 11
725.4358762177658
 21
-275.4802918051668
 31
0.0
  0
LINE
  5
161
330
1F
100
AcDbEntity
  8
1
  6
Continuous
 62
     7
370
     9
100
AcDbLine
 10
673.4358762177662
 20
-327.4802918051668
 30
0.0
 11
673.7692095510987
 21
-327.1469584718337
 31
0.0
  0
LINE
  5
162
330
1F
100
AcDbEntity
  8
1
  6
Continuous
 62
     7
370
     9
100
AcDbLine
 10
725.1025428844321
 20
-277.2278387008668
 30
0.0
 11
725.4358762177658
 21
-276.8945053675336
 31
0.0
  0
LINE
  5
163
330
1F
100
AcDbEntity
  8
1
  6
Continuous
 62
     7
370
     9
100
AcDbLine
 10
673.4358762177662
 20
-328.8945053675335
 30
0.0
 11
673.7692095510987
 21
-328.5611720342
 31
0.0
  0
LINE
  5
164
330
1F
100
AcDbEntity
  8
1
  6
Continuous
 62
     7
370
     9
100
AcDbLine
 10
725.1025428844321
 20
-278.6420522632336
 30
0.0
 11
725.4358762177658
 21
-278.3087189299001
 31
0.0
  0
LINE
  5
165
330
1F
100
AcDbEntity
  8
1
  6
Continuous
 62
     7
370
     9
100
AcDbLine
 10
673.4358762177662
 20
-330.3087189299
 30
0.0
 11
673.7692095510987
 21
-329.9753855965669
 31
0.0
  0
LINE
  5
166
330
1F
100
AcDbEntity
  8
1
  6
Continuous
 62
     7
370
     9
100
AcDbLine
 10
725.1025428844321
 20
-280.0562658256001
 30
0.0
 11
725.4358762177658
 21
-279.7229324922669
 31
0.0
  0
LINE
  5
167
330
1F
100
AcDbEntity
  8
1
  6
Continuous
 62
     7
370
     9
100
AcDbLine
 10
673.4358762177662
 20
-331.7229324922668
 30
0.0
 11
673.7692095510987
 21
-331.3895991589333
 31
0.0
  0
LINE
  5
168
330
1F
100
AcDbEntity
  8
1
  6
Continuous
 62
     7
370
     9
100
AcDbLine
 10
725.1025428844321
 20
-281.4704793880003
 30
0.0
 11
725.4358762177658
 21
-281.1371460546668
 31
0.0
  0
LINE
  5
169
330
1F
100
AcDbEntity
  8
1
  6
Continuous
 62
     7
370
     9
100
AcDbLine
 10
673.4358762177662
 20
-333.1371460546667
 30
0.0
 11
673.7692095510987
 21
-332.8038127213336
 31
0.0
  0
LINE
  5
16A
330
1F
100
AcDbEntity
  8
1
  6
Continuous
 62
     7
370
     9
100
AcDbLine
 10
725.1025428844321
 20
-282.8846929503668
 30
0.0
 11
725.4358762177658
 21
-282.5513596170337
 31
0.0
  0
LINE
  5
16B
330
1F
100
AcDbEntity
  8
1
  6
Continuous
 62
     7
370
     9
100
AcDbLine
 10
673.4358762177662
 20
-334.5513596170335
 30
0.0
 11
673.7692095510987
 21
-334.2180262837001
 31
0.0
  0
LINE
  5
16C
330
1F
100
AcDbEntity
  8
1
  6
Continuous
 62
     7
370
     9
100
AcDbLine
 10
725.1025428844321
 20
-284.2989065127336
 30
0.0
 11
725.4358762177658
 21
-283.9655731794001
 31
0.0
  0
LINE
  5
16D
330
1F
100
AcDbEntity
  8
1
  6
Continuous
 62
     7
370
     9
100
AcDbLine
 10
673.4358762177662
 20
-335.9655731794003
 30
0.0
 11
673.7692095510987
 21
-335.6322398460669
 31
0.0
  0
LINE
  5
16E
330
1F
100
AcDbEntity
  8
1
  6
Continuous
 62
     7
370
     9
100
AcDbLine
 10
725.1025428844321
 20
-285.7131200751001
 30
0.0
 11
725.4358762177658
 21
-285.379786741767
 31
0.0
  0
LINE
  5
16F
330
1F
100
AcDbEntity
  8
1
  6
Continuous
 62
     7
370
     9
100
AcDbLine
 10
673.4358762177662
 20
-337.3797867417668
 30
0.0
 11
673.7692095510987
 21
-337.0464534084337
 31
0.0
  0
LINE
  5
170
330
1F
100
AcDbEntity
  8
1
  6
Continuous
 62
     7
370
     9
100
AcDbLine
 10
725.1025428844321
 20
-287.1273336374668
 30
0.0
 11
725.4358762177658
 21
-286.7940003041333
 31
0.0
  0
LINE
  5
171
330
1F
100
AcDbEntity
  8
1
  6
Continuous
 62
     7
370
     9
100
AcDbLine
 10
725.1025428844321
 20
-288.5415471998668
 30
0.0
 11
725.4358762177658
 21
-288.2082138665336
 31
0.0
  0
LINE
  5
172
330
1F
100
AcDbEntity
  8
1
  6
Continuous
 62
     7
370
     9
100
AcDbLine
 10
725.1025428844321
 20
-289.9557607622335
 30
0.0
 11
725.4358762177658
 21
-289.6224274289
 31
0.0
  0
LINE
  5
173
330
1F
100
AcDbEntity
  8
1
  6
Continuous
 62
     7
370
     9
100
AcDbLine
 10
725.1025428844321
 20
-291.3699743246003
 30
0.0
 11
725.4358762177658
 21
-291.0366409912668
 31
0.0
  0
LINE
  5
174
330
1F
100
AcDbEntity
  8
1
  6
Continuous
 62
     7
370
     9
100
AcDbLine
 10
725.1025428844321
 20
-292.7841878869668
 30
0.0
 11
725.4358762177658
 21
-292.4508545536337
 31
0.0
  0
LINE
  5
175
330
1F
100
AcDbEntity
  8
1
  6
Continuous
 62
     7
370
     9
100
AcDbLine
 10
725.1025428844321
 20
-294.1984014493336
 30
0.0
 11
725.4358762177658
 21
-293.8650681160001
 31
0.0
  0
LINE
  5
176
330
1F
100
AcDbEntity
  8
1
  6
Continuous
 62
     7
370
     9
100
AcDbLine
 10
725.1025428844321
 20
-295.6126150117335
 30
0.0
 11
725.4358762177658
 21
-295.2792816784001
 31
0.0
  0
LINE
  5
177
330
1F
100
AcDbEntity
  8
1
  6
Continuous
 62
     7
370
     9
100
AcDbLine
 10
725.1025428844321
 20
-297.0268285741004
 30
0.0
 11
725.4358762177658
 21
-296.6934952407669
 31
0.0
  0
LINE
  5
178
330
1F
100
AcDbEntity
  8
1
  6
Continuous
 62
     7
370
     9
100
AcDbLine
 10
725.1025428844321
 20
-298.4410421364668
 30
0.0
 11
725.4358762177658
 21
-298.1077088031337
 31
0.0
  0
LINE
  5
179
330
1F
100
AcDbEntity
  8
1
  6
Continuous
 62
     7
370
     9
100
AcDbLine
 10
725.1025428844321
 20
-299.8552556988335
 30
0.0
 11
725.4358762177658
 21
-299.5219223655001
 31
0.0
  0
LINE
  5
17A
330
1F
100
AcDbEntity
  8
1
  6
Continuous
 62
     7
370
     9
100
AcDbLine
 10
725.1025428844321
 20
-301.2694692612
 30
0.0
 11
725.4358762177658
 21
-300.9361359278669
 31
0.0
  0
LINE
  5
17B
330
1F
100
AcDbEntity
  8
1
  6
Continuous
 62
     7
370
     9
100
AcDbLine
 10
725.1025428844321
 20
-302.6836828236002
 30
0.0
 11
725.4358762177658
 21
-302.3503494902668
 31
0.0
  0
LINE
  5
17C
330
1F
100
AcDbEntity
  8
1
  6
Continuous
 62
     7
370
     9
100
AcDbLine
 10
725.1025428844321
 20
-304.0978963859667
 30
0.0
 11
725.4358762177658
 21
-303.7645630526336
 31
0.0
  0
LINE
  5
17D
330
1F
100
AcDbEntity
  8
1
  6
Continuous
 62
     7
370
     9
100
AcDbLine
 10
725.1025428844321
 20
-305.5121099483335
 30
0.0
 11
725.4358762177658
 21
-305.1787766150001
 31
0.0
  0
LINE
  5
17E
330
1F
100
AcDbEntity
  8
1
  6
Continuous
 62
     7
370
     9
100
AcDbLine
 10
725.1025428844321
 20
-306.9263235107001
 30
0.0
 11
725.4358762177658
 21
-306.5929901773669
 31
0.0
  0
LINE
  5
17F
330
1F
100
AcDbEntity
  8
1
  6
Continuous
 62
     7
370
     9
100
AcDbLine
 10
725.1025428844321
 20
-308.3405370730669
 30
0.0
 11
725.4358762177658
 21
-308.0072037397334
 31
0.0
  0
LINE
  5
180
330
1F
100
AcDbEntity
  8
1
  6
Continuous
 62
     7
370
     9
100
AcDbLine
 10
725.1025428844321
 20
-309.7547506354335
 30
0.0
 11
725.4358762177658
 21
-309.4214173021001
 31
0.0
  0
LINE
  5
181
330
1F
100
AcDbEntity
  8
1
  6
Continuous
 62
     7
370
     9
100
AcDbLine
 10
725.1025428844321
 20
-311.1689641978336
 30
0.0
 11
725.4358762177658
 21
-310.8356308645001
 31
0.0
  0
LINE
  5
182
330
1F
100
AcDbEntity
  8
1
  6
Continuous
 62
     7
370
     9
100
AcDbLine
 10
725.1025428844321
 20
-312.5831777602003
 30
0.0
 11
725.4358762177658
 21
-312.2498444268668
 31
0.0
  0
LINE
  5
183
330
1F
100
AcDbEntity
  8
1
  6
Continuous
 62
     7
370
     9
100
AcDbLine
 10
725.1025428844321
 20
-313.9973913225668
 30
0.0
 11
725.4358762177658
 21
-313.6640579892336
 31
0.0
  0
LINE
  5
184
330
1F
100
AcDbEntity
  8
1
  6
Continuous
 62
     7
370
     9
100
AcDbLine
 10
725.1025428844321
 20
-315.4116048849336
 30
0.0
 11
725.4358762177658
 21
-315.0782715516001
 31
0.0
  0
LINE
  5
185
330
1F
100
AcDbEntity
  8
1
  6
Continuous
 62
     7
370
     9
100
AcDbLine
 10
725.1025428844321
 20
-316.8258184473
 30
0.0
 11
725.4358762177658
 21
-316.4924851139669
 31
0.0
  0
LINE
  5
186
330
1F
100
AcDbEntity
  8
1
  6
Continuous
 62
     7
370
     9
100
AcDbLine
 10
725.1025428844321
 20
-318.2400320097003
 30
0.0
 11
725.4358762177658
 21
-317.9066986763668
 31
0.0
  0
LINE
  5
187
330
1F
100
AcDbEntity
  8
1
  6
Continuous
 62
     7
370
     9
100
AcDbLine
 10
725.1025428844321
 20
-319.6542455720668
 30
0.0
 11
725.4358762177658
 21
-319.3209122387336
 31
0.0
  0
LINE
  5
188
330
1F
100
AcDbEntity
  8
1
  6
Continuous
 62
     7
370
     9
100
AcDbLine
 10
725.1025428844321
 20
-321.0684591344336
 30
0.0
 11
725.4358762177658
 21
-320.7351258011001
 31
0.0
  0
LINE
  5
189
330
1F
100
AcDbEntity
  8
1
  6
Continuous
 62
     7
370
     9
100
AcDbLine
 10
725.1025428844321
 20
-322.4826726968001
 30
0.0
 11
725.4358762177658
 21
-322.1493393634669
 31
0.0
  0
LINE
  5
18A
330
1F
100
AcDbEntity
  8
1
  6
Continuous
 62
     7
370
     9
100
AcDbLine
 10
725.1025428844321
 20
-323.8968862591668
 30
0.0
 11
725.4358762177658
 21
-323.5635529258333
 31
0.0
  0
LINE
  5
18B
330
1F
100
AcDbEntity
  8
1
  6
Continuous
 62
     7
370
     9
100
AcDbLine
 10
725.1025428844321
 20
-325.3110998215668
 30
0.0
 11
725.4358762177658
 21
-324.9777664882337
 31
0.0
  0
LINE
  5
18C
330
1F
100
AcDbEntity
  8
1
  6
Continuous
 62
     7
370
     9
100
AcDbLine
 10
725.1025428844321
 20
-326.7253133839335
 30
0.0
 11
725.4358762177658
 21
-326.3919800506001
 31
0.0
  0
LINE
  5
18D
330
1F
100
AcDbEntity
  8
1
  6
Continuous
 62
     7
370
     9
100
AcDbLine
 10
725.1025428844321
 20
-328.1395269463004
 30
0.0
 11
725.4358762177658
 21
-327.8061936129669
 31
0.0
  0
LINE
  5
18E
330
1F
100
AcDbEntity
  8
1
  6
Continuous
 62
     7
370
     9
100
AcDbLine
 10
725.1025428844321
 20
-329.5537405086668
 30
0.0
 11
725.4358762177658
 21
-329.2204071753337
 31
0.0
  0
LINE
  5
18F
330
1F
100
AcDbEntity
  8
1
  6
Continuous
 62
     7
370
     9
100
AcDbLine
 10
725.1025428844321
 20
-330.9679540710336
 30
0.0
 11
725.4358762177658
 21
-330.6346207377002
 31
0.0
  0
LINE
  5
190
330
1F
100
AcDbEntity
  8
1
  6
Continuous
 62
     7
370
     9
100
AcDbLine
 10
725.1025428844321
 20
-332.3821676334335
 30
0.0
 11
725.4358762177658
 21
-332.0488343001001
 31
0.0
  0
LINE
  5
191
330
1F
100
AcDbEntity
  8
1
  6
Continuous
 62
     7
370
     9
100
AcDbLine
 10
725.1025428844321
 20
-333.7963811958003
 30
0.0
 11
725.4358762177658
 21
-333.4630478624669
 31
0.0
  0
LINE
  5
192
330
1F
100
AcDbEntity
  8
1
  6
Continuous
 62
     7
370
     9
100
AcDbLine
 10
725.1025428844321
 20
-335.2105947581668
 30
0.0
 11
725.4358762177658
 21
-334.8772614248337
 31
0.0
  0
LINE
  5
193
330
1F
100
AcDbEntity
  8
1
  6
Continuous
 62
     7
370
     9
100
AcDbLine
 10
725.1025428844321
 20
-336.6248083205335
 30
0.0
 11
725.4358762177658
 21
-336.2914749872
 31
0.0
  0
LINE
  5
194
330
1F
100
AcDbEntity
  8
1
  6
Continuous
 62
     7
370
     9
100
AcDbLine
 10
725.2425137561665
 20
-337.8990510111669
 30
0.0
 11
725.4358762177657
 21
-337.7056885495669
 31
0.0
  0
CIRCLE
  5
195
330
1F
100
AcDbEntity
  8
1
  6
Continuous
 62
     7
370
     9
100
AcDbCircle
 10
672.8330723490997
 20
-337.3908689466335
 30
0.0
 40
0.4999999999999449
  0
MTEXT
  5
196
330
1F
100
AcDbEntity
  8
1
 62
     7
100
AcDbMText
 10
626.5586311957685
 20
-351.2610863049943
 30
0.0
 40
3.499999999999999
 41
0.0
 46
0.0
 71
     1
 72
     1
  1
{\fＭＳ ゴシック;\W0.845758;スリーブ}
 73
     1
 44
1.0
  0
MTEXT
  5
197
330
1F
100
AcDbEntity
  8
1
 62
     7
100
AcDbMText
 10
626.5512998094048
 20
-355.9042681231759
 30
0.0
 40
3.499999999999999
 41
0.0
 46
0.0
 71
     1
 72
     1
  1
{\fＭＳ ゴシック;\W0.815036;ステンレス管 又は 鋼管}
 73
     1
 44
1.0
  0
LINE
  5
198
330
1F
100
AcDbEntity
  8
1
  6
Continuous
 62
     7
370
     9
100
AcDbLine
 10
626.356802593399
 20
-360.2133589068667
 30
0.0
 11
663.0701189632332
 21
-360.2133589068667
 31
0.0
  0
MTEXT
  5
199
330
1F
100
AcDbEntity
  8
1
 62
     7
100
AcDbMText
 10
626.5491501730412
 20
-360.5474499413579
 30
0.0
 40
3.499999999999999
 41
0.0
 46
0.0
 71
     1
 72
     1
  1
{\fＭＳ ゴシック;\W0.806028;（φ210以下）}
 73
     1
 44
1.0
  0
LINE
  5
19A
330
1F
100
AcDbEntity
  8
1
  6
Continuous
 62
     7
370
     9
100
AcDbLine
 10
626.356802593399
 20
-364.7133589068666
 30
0.0
 11
648.0510349937666
 21
-364.7133589068666
 31
0.0
  0
LINE
  5
19B
330
1F
100
AcDbEntity
  8
1
  6
Continuous
 62
     7
370
     9
100
AcDbLine
 10
672.8330723490997
 20
-337.3908689466335
 30
0.0
 11
663.0701189632332
 21
-355.7133589068666
 31
0.0
  0
LINE
  5
19C
330
1F
100
AcDbEntity
  8
1
  6
Continuous
 62
     7
370
     9
100
AcDbLine
 10
663.0701189632332
 20
-355.7133589068665
 30
0.0
 11
626.356802593399
 21
-355.7133589068665
 31
0.0
  0
CIRCLE
  5
19D
330
1F
100
AcDbEntity
  8
1
  6
Continuous
 62
     7
370
     9
100
AcDbCircle
 10
671.4605875439662
 20
-203.722320123
 30
0.0
 40
0.4999999999999449
  0
MTEXT
  5
19E
330
1F
100
AcDbEntity
  8
1
 62
     7
100
AcDbMText
 10
631.3958968624356
 20
-205.9345521534788
 30
0.0
 40
3.499999999999999
 41
0.0
 46
0.0
 71
     1
 72
     1
  1
{\fＭＳ ゴシック;\W0.845758;モルタル}
 73
     1
 44
1.0
  0
MTEXT
  5
19F
330
1F
100
AcDbEntity
  8
1
 62
     7
100
AcDbMText
 10
631.3921633965265
 20
-210.3868248807515
 30
0.0
 40
3.499999999999999
 41
0.0
 46
0.0
 71
     1
 72
     1
  1
{\fＭＳ ゴシック;\W0.830113;（あり又はなし）}
 73
     1
 44
1.0
  0
LINE
  5
1A0
330
1F
100
AcDbEntity
  8
1
  6
Continuous
 62
     7
370
     9
100
AcDbLine
 10
631.1940684144324
 20
-214.6800067584667
 30
0.0
 11
657.894662137933
 21
-214.6800067584667
 31
0.0
  0
LINE
  5
1A1
330
1F
100
AcDbEntity
  8
1
  6
Continuous
 62
     7
370
     9
100
AcDbLine
 10
671.4605875439662
 20
-203.722320123
 30
0.0
 11
657.8946621379331
 21
-210.1800067584669
 31
0.0
  0
LINE
  5
1A2
330
1F
100
AcDbEntity
  8
1
  6
Continuous
 62
     7
370
     9
100
AcDbLine
 10
657.894662137933
 20
-210.1800067584669
 30
0.0
 11
631.1940684144324
 21
-210.1800067584669
 31
0.0
  0
DIMENSION
  5
1A4
330
1F
100
AcDbEntity
  8
1
 62
     2
100
AcDbDimension
280
     0
  2
*D1
 10
731.9358762177658
 20
-356.5335275133335
 30
0.0
 11
699.4358762177658
 21
-356.5335275133335
 31
0.0
 70
   160
  1
開口部（φ250以下）
 71
     5
 42
65.0
 73
     0
 74
     0
 75
     0
  3
Standard
100
AcDbAlignedDimension
 13
666.9358762177658
 23
-337.8990510389
 33
0.0
 14
731.9358762177658
 24
-337.8990510111669
 34
0.0
100
AcDbRotatedDimension
1001
ACAD
1000
DSTYLE
1002
{
1070
    73
1070
     0
1070
    74
1070
     0
1070
   280
1070
     0
1070
    76
1070
     0
1070
    75
1070
     0
1070
   282
1070
     0
1070
   281
1070
     0
1070
   173
1070
     1
1070
   284
1070
     8
1070
    78
1070
     8
1070
    79
1070
     2
1070
   144
1040
1.0
1070
   146
1040
0.5
1070
   179
1070
     2
1070
    41
1040
3.5
1070
   271
1070
     2
1070
    44
1040
1.75
1070
   147
1040
1.5
1070
    77
1070
     1
1070
   340
1005
6F
1070
   140
1040
3.5
1002
}
  0
DIMENSION
  5
1B1
330
1F
100
AcDbEntity
  8
1
 62
     2
100
AcDbDimension
280
     0
  2
*D2
 10
674.8309616106038
 20
-271.2323844388
 30
0.0
 11
700.3727272727272
 21
-258.2500000000001
 31
0.0
 70
   160
  1
スリーブ高さ：制限無し
 71
     5
 42
33.33333323903372
 73
     0
 74
     0
 75
     0
  3
Standard
100
AcDbAlignedDimension
 13
742.9575584983003
 23
-304.5657176778337
 33
0.0
 14
727.9358762177658
 24
-271.2323844388
 34
0.0
 50
90.0
100
AcDbRotatedDimension
1001
ACAD
1000
DSTYLE
1002
{
1070
    73
1070
     1
1070
    74
1070
     1
1070
   280
1070
     0
1070
    76
1070
     0
1070
    75
1070
     0
1070
   282
1070
     0
1070
   281
1070
     0
1070
   173
1070
     1
1070
   284
1070
     8
1070
    78
1070
     8
1070
    79
1070
     2
1070
   144
1040
1.0
1070
   146
1040
0.5
1070
   179
1070
     2
1070
    41
1040
3.5
1070
   271
1070
     2
1070
    44
1040
1.75
1070
   147
1040
1.5
1070
    77
1070
     1
1070
   340
1005
6F
1070
   140
1040
3.5
1002
}
  0
DIMENSION
  5
1C0
330
1F
100
AcDbEntity
  8
1
 62
     2
100
AcDbDimension
280
     0
  2
*D3
 10
749.2075584982994
 20
-337.8990510111669
 30
0.0
 11
749.2075584982994
 21
-321.2323843445003
 31
0.0
 70
   160
  1
100以上
 71
     5
 42
33.3333333333332
 73
     0
 74
     0
 75
     0
  3
Standard
100
AcDbAlignedDimension
 13
742.9575584983003
 23
-304.5657176778337
 33
0.0
 14
742.9575584983003
 24
-337.8990510111669
 34
0.0
 50
270.0
100
AcDbRotatedDimension
1001
ACAD
1000
DSTYLE
1002
{
1070
    73
1070
     0
1070
    74
1070
     0
1070
   280
1070
     0
1070
    76
1070
     0
1070
    75
1070
     0
1070
   282
1070
     0
1070
   281
1070
     0
1070
   173
1070
     1
1070
   284
1070
     8
1070
    78
1070
     8
1070
    79
1070
     2
1070
   144
1040
1.0
1070
   146
1040
0.5
1070
   179
1070
     2
1070
    41
1040
3.5
1070
   271
1070
     2
1070
    44
1040
1.75
1070
   147
1040
1.5
1070
    77
1070
     1
1070
   340
1005
6F
1070
   140
1040
3.5
1002
}
  0
DIMENSION
  5
1CD
330
1F
100
AcDbEntity
  8
1
 62
     2
100
AcDbDimension
280
     0
  2
*D4
 10
647.0771216787327
 20
-270.2323844665335
 30
0.0
 11
647.0771216787327
 21
-279.3990509474668
 31
0.0
 70
   160
  1
55以上
 71
     5
 42
18.33333296186657
 73
     0
 74
     0
 75
     0
  3
Standard
100
AcDbAlignedDimension
 13
667.9358762177659
 23
-288.5657174284001
 33
0.0
 14
670.935876217766
 24
-270.2323844665335
 34
0.0
 50
90.0
100
AcDbRotatedDimension
1001
ACAD
1000
DSTYLE
1002
{
1070
    73
1070
     0
1070
    74
1070
     0
1070
   280
1070
     0
1070
    76
1070
     0
1070
    75
1070
     0
1070
   282
1070
     0
1070
   281
1070
     0
1070
   173
1070
     1
1070
   284
1070
     8
1070
    78
1070
     8
1070
    79
1070
     2
1070
   144
1040
1.0
1070
   146
1040
0.5
1070
   179
1070
     2
1070
    41
1040
3.5
1070
   271
1070
     2
1070
    44
1040
1.75
1070
   147
1040
1.5
1070
    77
1070
     1
1070
   340
1005
6F
1070
   140
1040
3.5
1002
}
  0
LINE
  5
1DA
330
1F
100
AcDbEntity
  8
1
  6
Continuous
 62
     7
370
     9
100
AcDbLine
 10
670.935876217766
 20
-270.2323844665335
 30
0.0
 11
677.6714729255978
 21
-270.2323844426998
 31
0.0
  0
LINE
  5
1DB
330
1F
100
AcDbEntity
  8
1
  6
Continuous
 62
     7
370
     9
100
AcDbLine
 10
693.6714729255986
 20
-265.0
 30
0.0
 11
693.6714729255986
 21
-349.9999999999999
 31
0.0
  0
LINE
  5
1DC
330
1F
100
AcDbEntity
  8
1
  6
Continuous
 62
     7
370
     9
100
AcDbLine
 10
720.6264523494326
 20
-265.0
 30
0.0
 11
720.6264523494326
 21
-349.9999999999999
 31
0.0
  0
LINE
  5
1DD
330
1F
100
AcDbEntity
  8
1
  6
Continuous
 62
     7
370
     9
100
AcDbLine
 10
673.7692095510986
 20
-288.5657175181001
 30
0.0
 11
677.6714729255978
 21
-288.5657177161858
 31
0.0
  0
LINE
  5
1DE
330
1F
100
AcDbEntity
  8
1
  6
Continuous
 62
     7
370
     9
100
AcDbLine
 10
677.6714729255978
 20
-265.0
 30
0.0
 11
677.6714729255978
 21
-349.9999999999999
 31
0.0
  0
LINE
  5
1DF
330
1F
100
AcDbEntity
  8
1
  6
Continuous
 62
     7
370
     9
100
AcDbLine
 10
707.1381395922657
 20
-349.9999999999999
 30
0.0
 11
707.1381395922657
 21
-265.0
 31
0.0
  0
POINT
  5
1E0
330
1F
100
AcDbEntity
  8
1
 62
     7
100
AcDbPoint
 10
720.6264523494326
 20
-377.1301701629003
 30
0.0
  0
POINT
  5
1E1
330
1F
100
AcDbEntity
  8
1
 62
     7
100
AcDbPoint
 10
720.6264523494326
 20
-260.0566646561671
 30
0.0
  0
POINT
  5
1E2
330
1F
100
AcDbEntity
  8
1
 62
     7
100
AcDbPoint
 10
720.6264523494326
 20
-260.0566646561671
 30
0.0
  0
POINT
  5
1E3
330
1F
100
AcDbEntity
  8
1
 62
     7
100
AcDbPoint
 10
720.6264523494326
 20
-377.1301701629003
 30
0.0
  0
POINT
  5
1E4
330
1F
100
AcDbEntity
  8
1
 62
     7
100
AcDbPoint
 10
720.6264523494326
 20
-260.0566646561671
 30
0.0
  0
POINT
  5
1E5
330
1F
100
AcDbEntity
  8
1
 62
     7
100
AcDbPoint
 10
720.6264523494326
 20
-377.1301701629003
 30
0.0
  0
MTEXT
  5
1E6
330
1F
100
AcDbEntity
  8
1
 62
     7
100
AcDbMText
 10
715.4766802639504
 20
-398.1363636686306
 30
0.0
 40
3.0
 41
0.0
 46
0.0
 71
     1
 72
     1
  1
{\fＭＳ ゴシック;\W0.986718;第三角法}
 73
     1
 44
1.0
  0
MTEXT
  5
1E7
330
1F
100
AcDbEntity
  8
1
 62
     7
100
AcDbMText
 10
611.8455903359207
 20
-405.9613636686307
 30
0.0
 40
3.499999999999999
 41
0.0
 46
0.0
 71
     1
 72
     1
  1
{\fＭＳ ゴシック;\W0.819617;　２）製品のご使用は、所轄行政機関にご確認ください。}
 73
     1
 44
1.0
  0
MTEXT
  5
1E8
330
1F
100
AcDbEntity
  8
1
 62
     7
100
AcDbMText
 10
651.208807885164
 20
-55.50726375953947
 30
0.0
 40
40.0
 41
0.0
 46
0.0
 71
     1
 72
     1
  1
{\fＭＳ ゴシック;\W0.866277;\L給水\l}
 73
     1
 44
1.0
  0
MTEXT
  5
1E9
330
1F
100
AcDbEntity
  8
1
 62
     7
100
AcDbMText
 10
719.6323315783457
 20
-384.1431818504485
 30
0.0
 40
3.499999999999999
 41
0.0
 46
0.0
 71
     1
 72
     1
  1
{\fＭＳ ゴシック;\W0.777385;1/3}
 73
     1
 44
1.0
  0
MTEXT
  5
1EA
330
1F
100
AcDbEntity
  8
1
 62
     7
100
AcDbMText
 10
746.4027333541685
 20
-398.3136363959033
 30
0.0
 40
3.0
 41
0.0
 46
0.0
 71
     1
 72
     1
  1
{\fＭＳ ゴシック;\W0.968465;\Q14.999825;Ｂ０８４８４０Ａ－２}
 73
     1
 44
1.0
  0
MTEXT
  5
1EB
330
1F
100
AcDbEntity
  8
1
 62
     7
100
AcDbMText
 10
730.5087748472835
 20
-400.3478440625697
 30
0.0
 40
3.0
 41
0.0
 46
0.0
 71
     1
 72
     1
  1
{\fＭＳ ゴシック;\W1.112525;番}
 73
     1
 44
1.0
  0
MTEXT
  5
1EC
330
1F
100
AcDbEntity
  8
1
 62
     7
100
AcDbMText
 10
741.3925275709174
 20
-374.6702424262062
 30
0.0
 40
3.0
 41
0.0
 46
0.0
 71
     1
 72
     1
  1
{\fＭＳ ゴシック;\W0.950876;\Q14.999825;パテエース(丸穴キット)}
 73
     1
 44
1.0
  0
MTEXT
  5
1ED
330
1F
100
AcDbEntity
  8
1
 62
     7
100
AcDbMText
 10
614.0839485215275
 20
-163.0163546686305
 30
0.0
 40
4.0
 41
0.0
 46
0.0
 71
     1
 72
     1
  1
{\fＭＳ ゴシック;\W0.871619;\L国土交通大臣認定\l}
 73
     1
 44
1.0
  0
MTEXT
  5
1EE
330
1F
100
AcDbEntity
  8
1
 62
     7
100
AcDbMText
 10
730.5087748472835
 20
-387.8159623959029
 30
0.0
 40
3.0
 41
0.0
 46
0.0
 71
     1
 72
     1
  1
{\fＭＳ ゴシック;\W1.112525;名}
 73
     1
 44
1.0
  0
MTEXT
  5
1EF
330
1F
100
AcDbEntity
  8
1
 62
     7
100
AcDbMText
 10
611.8455118245571
 20
-411.4818182140849
 30
0.0
 40
3.499999999999999
 41
0.0
 46
0.0
 71
     1
 72
     1
  1
{\fＭＳ ゴシック;\W0.819288;注１）「認定書」の仕様に基づき、正しく施工してください。}
 73
     1
 44
1.0
  0
MTEXT
  5
1F0
330
1F
100
AcDbEntity
  8
1
 62
     7
100
AcDbMText
 10
614.0824916124368
 20
-169.1981728504486
 30
0.0
 40
4.0
 41
0.0
 46
0.0
 71
     1
 72
     1
  1
{\fＭＳ ゴシック;\W0.866277;\LＰＳ０６０ＦＬ－０８４８\l}
 73
     1
 44
1.0
  0
MTEXT
  5
1F1
330
1F
100
AcDbEntity
  8
1
 62
     7
100
AcDbMText
 10
730.5087748472835
 20
-396.1478440625697
 30
0.0
 40
3.0
 41
0.0
 46
0.0
 71
     1
 72
     1
  1
{\fＭＳ ゴシック;\W1.112525;図}
 73
     1
 44
1.0
  0
MTEXT
  5
1F2
330
1F
100
AcDbEntity
  8
1
 62
     7
100
AcDbMText
 10
718.8221602791016
 20
-373.4272727595397
 30
0.0
 40
3.0
 41
0.0
 46
0.0
 71
     1
 72
     1
  1
{\fＭＳ ゴシック;\W1.025368;尺度}
 73
     1
 44
1.0
  0
MTEXT
  5
1F3
330
1F
100
AcDbEntity
  8
1
 62
     7
100
AcDbMText
 10
730.5087748472835
 20
-377.0159623959032
 30
0.0
 40
3.0
 41
0.0
 46
0.0
 71
     1
 72
     1
  1
{\fＭＳ ゴシック;\W1.112525;品}
 73
     1
 44
1.0
  0
MTEXT
  5
1F4
330
1F
100
AcDbEntity
  8
1
 62
     7
100
AcDbMText
 10
744.7335120451982
 20
-385.8136363959031
 30
0.0
 40
3.0
 41
0.0
 46
0.0
 71
     1
 72
     1
  1
{\fＭＳ ゴシック;\W0.966479;\Q14.999825;ＭＴＫＢ－ＡＣ＿＿}
 73
     1
 44
1.0
  0
MTEXT
  5
1F5
330
1F
100
AcDbEntity
  8
1
 62
     7
100
AcDbMText
 10
731.6358058663066
 20
-367.450000032267
 30
0.0
 40
4.0
 41
0.0
 46
0.0
 71
     1
 72
     1
  1
{\fＭＳ ゴシック;\W0.869831;\Q14.999825;製　品　仕　様　図}
 73
     1
 44
1.0
  0
MTEXT
  5
1F6
330
1F
100
AcDbEntity
  8
1
 62
     7
100
AcDbMText
 10
612.5989963940212
 20
-154.3272727595397
 30
0.0
 40
6.0
 41
0.0
 46
0.0
 71
     1
 72
     1
  1
{\fＭＳ ゴシック;\W0.881402;\Q15;標準施工図}
 73
     1
 44
1.0
  0
LINE
  5
1F7
330
1F
100
AcDbEntity
  8
1
  6
Continuous
 62
     7
370
     9
100
AcDbLine
 10
667.6018518143663
 20
-307.1052687830668
 30
0.0
 11
667.6254220404004
 21
-307.0816985570001
 31
0.0
  0
LINE
  5
1F8
330
1F
100
AcDbEntity
  8
1
  6
Continuous
 62
     7
370
     9
100
AcDbLine
 10
667.5234522374654
 20
-310.0886176150669
 30
0.0
 11
667.5470224634995
 21
-310.0650473890335
 31
0.0
  0
LINE
  5
1F9
330
1F
100
AcDbEntity
  8
1
  6
Continuous
 62
     7
370
     9
100
AcDbLine
 10
672.2644578650661
 20
-305.3476119874668
 30
0.0
 11
672.288028091099
 21
-305.3240417614334
 31
0.0
  0
LINE
  5
1FA
330
1F
100
AcDbEntity
  8
1
  6
Continuous
 62
     7
370
     9
100
AcDbLine
 10
666.9987383062333
 20
-314.0621360551668
 30
0.0
 11
667.0223085322993
 21
-314.0385658291334
 31
0.0
  0
LINE
  5
1FB
330
1F
100
AcDbEntity
  8
1
  6
Continuous
 62
     7
370
     9
100
AcDbLine
 10
671.4359212960669
 20
-309.6249530653668
 30
0.0
 11
671.4594915220986
 21
-309.6013828393001
 31
0.0
  0
LINE
  5
1FC
330
1F
100
AcDbEntity
  8
1
  6
Continuous
 62
     7
370
     9
100
AcDbLine
 10
667.0515657667997
 20
-318.0907478395668
 30
0.0
 11
667.0751359928659
 21
-318.0671776135002
 31
0.0
  0
LINE
  5
1FD
330
1F
100
AcDbEntity
  8
1
  6
Continuous
 62
     7
370
     9
100
AcDbLine
 10
672.1556307067317
 20
-312.9866828996335
 30
0.0
 11
672.1792009327658
 21
-312.9631126736001
 31
0.0
  0
LINE
  5
1FE
330
1F
100
AcDbEntity
  8
1
  6
Continuous
 62
     7
370
     9
100
AcDbLine
 10
668.6810598629321
 20
-320.6772217421336
 30
0.0
 11
668.7046300889662
 21
-320.6536515161001
 31
0.0
  0
LINE
  5
1FF
330
1F
100
AcDbEntity
  8
1
  6
Continuous
 62
     7
370
     9
100
AcDbLine
 10
667.6728710842659
 20
-325.7774670495002
 30
0.0
 11
667.6964413102988
 21
-325.7538968234335
 31
0.0
  0
LINE
  5
200
330
1F
100
AcDbEntity
  8
1
  6
Continuous
 62
     7
370
     9
100
AcDbLine
 10
667.7069240796654
 20
-329.6316273668668
 30
0.0
 11
667.7304943057327
 21
-329.6080571408334
 31
0.0
  0
LINE
  5
201
330
1F
100
AcDbEntity
  8
1
  6
Continuous
 62
     7
370
     9
100
AcDbLine
 10
672.8986463500003
 20
-324.4399050965667
 30
0.0
 11
672.9222165760331
 21
-324.4163348705335
 31
0.0
  0
LINE
  5
202
330
1F
100
AcDbEntity
  8
1
  6
Continuous
 62
     7
370
     9
100
AcDbLine
 10
668.6501143651993
 20
-332.1914501608669
 30
0.0
 11
668.6736845912322
 21
-332.1678799348335
 31
0.0
  0
LINE
  5
203
330
1F
100
AcDbEntity
  8
1
  6
Continuous
 62
     7
370
     9
100
AcDbLine
 10
673.2832639274671
 20
-327.5583005986002
 30
0.0
 11
673.3068341534989
 21
-327.5347303725668
 31
0.0
  0
LINE
  5
204
330
1F
100
AcDbEntity
  8
1
  6
Continuous
 62
     7
370
     9
100
AcDbLine
 10
667.7708867402653
 20
-336.2547839158666
 30
0.0
 11
667.7944569662993
 21
-336.2312136898335
 31
0.0
  0
LINE
  5
205
330
1F
100
AcDbEntity
  8
1
  6
Continuous
 62
     7
370
     9
100
AcDbLine
 10
672.4918878515658
 20
-331.5337828046003
 30
0.0
 11
672.5154580775987
 21
-331.5102125785669
 31
0.0
  0
LINE
  5
206
330
1F
100
AcDbEntity
  8
1
  6
Continuous
 62
     7
370
     9
100
AcDbLine
 10
669.5609225004325
 20
-337.5310714917667
 30
0.0
 11
669.5844927264666
 21
-337.5075012657336
 31
0.0
  0
LINE
  5
207
330
1F
100
AcDbEntity
  8
1
  6
Continuous
 62
     7
370
     9
100
AcDbLine
 10
672.9233860494331
 20
-337.0378209745669
 30
0.0
 11
672.9469562754659
 21
-337.0142507485335
 31
0.0
  0
LINE
  5
208
330
1F
100
AcDbEntity
  8
1
  6
Continuous
 62
     7
370
     9
100
AcDbLine
 10
726.0990680143669
 20
-306.2898129622668
 30
0.0
 11
726.1226382403997
 21
-306.2662427362333
 31
0.0
  0
LINE
  5
209
330
1F
100
AcDbEntity
  8
1
  6
Continuous
 62
     7
370
     9
100
AcDbLine
 10
727.3225157468995
 20
-308.8282069701667
 30
0.0
 11
727.3460859729655
 21
-308.8046367441335
 31
0.0
  0
LINE
  5
20A
330
1F
100
AcDbEntity
  8
1
  6
Continuous
 62
     7
370
     9
100
AcDbLine
 10
726.4348719824326
 20
-313.5244775791002
 30
0.0
 11
726.4584422084666
 21
-313.5009073530667
 31
0.0
  0
LINE
  5
20B
330
1F
100
AcDbEntity
  8
1
  6
Continuous
 62
     7
370
     9
100
AcDbLine
 10
731.8201007228989
 20
-308.1392488386335
 30
0.0
 11
731.843670948933
 21
-308.1156786126001
 31
0.0
  0
LINE
  5
20C
330
1F
100
AcDbEntity
  8
1
  6
Continuous
 62
     7
370
     9
100
AcDbLine
 10
726.4848509034664
 20
-316.4050416093668
 30
0.0
 11
726.5084211294992
 21
-316.3814713833333
 31
0.0
  0
LINE
  5
20D
330
1F
100
AcDbEntity
  8
1
  6
Continuous
 62
     7
370
     9
100
AcDbLine
 10
725.6351445064989
 20
-321.422981387867
 30
0.0
 11
725.658714732533
 21
-321.3994111618335
 31
0.0
  0
LINE
  5
20E
330
1F
100
AcDbEntity
  8
1
  6
Continuous
 62
     7
370
     9
100
AcDbLine
 10
730.8752919489983
 20
-316.1828339453667
 30
0.0
 11
730.8988621750324
 21
-316.1592637193336
 31
0.0
  0
LINE
  5
20F
330
1F
100
AcDbEntity
  8
1
  6
Continuous
 62
     7
370
     9
100
AcDbLine
 10
727.1325052116672
 20
-322.7785193517001
 30
0.0
 11
727.1560754376989
 21
-322.7549491256335
 31
0.0
  0
LINE
  5
210
330
1F
100
AcDbEntity
  8
1
  6
Continuous
 62
     7
370
     9
100
AcDbLine
 10
731.3990995267328
 20
-318.5119250366001
 30
0.0
 11
731.4226697527657
 21
-318.4883548105666
 31
0.0
  0
LINE
  5
211
330
1F
100
AcDbEntity
  8
1
  6
Continuous
 62
     7
370
     9
100
AcDbLine
 10
725.6067238506317
 20
-327.4558644365334
 30
0.0
 11
725.6302940766658
 21
-327.4322942105002
 31
0.0
  0
LINE
  5
212
330
1F
100
AcDbEntity
  8
1
  6
Continuous
 62
     7
370
     9
100
AcDbLine
 10
730.7386915301322
 20
-322.3238967570335
 30
0.0
 11
730.7622617561663
 21
-322.3003265310001
 31
0.0
  0
LINE
  5
213
330
1F
100
AcDbEntity
  8
1
  6
Continuous
 62
     7
370
     9
100
AcDbLine
 10
726.5369014895987
 20
-329.7201944129337
 30
0.0
 11
726.5604717156659
 21
-329.6966241868668
 31
0.0
  0
LINE
  5
214
330
1F
100
AcDbEntity
  8
1
  6
Continuous
 62
     7
370
     9
100
AcDbLine
 10
725.5059243946318
 20
-333.8892694084337
 30
0.0
 11
725.5294946206659
 21
-333.8656991824002
 31
0.0
  0
LINE
  5
215
330
1F
100
AcDbEntity
  8
1
  6
Continuous
 62
     7
370
     9
100
AcDbLine
 10
731.0765024237987
 20
-328.3186913792667
 30
0.0
 11
731.1000726498328
 21
-328.2951211532001
 31
0.0
  0
LINE
  5
216
330
1F
100
AcDbEntity
  8
1
  6
Continuous
 62
     7
370
     9
100
AcDbLine
 10
726.3819150427992
 20
-336.9073186312003
 30
0.0
 11
726.4054852688332
 21
-336.8837484051668
 31
0.0
  0
LINE
  5
217
330
1F
100
AcDbEntity
  8
1
  6
Continuous
 62
     7
370
     9
100
AcDbLine
 10
731.0884792377653
 20
-332.2007544362336
 30
0.0
 11
731.1120494638326
 21
-332.1771842102002
 31
0.0
  0
LINE
  5
218
330
1F
100
AcDbEntity
  8
1
  6
Continuous
 62
     7
370
     9
100
AcDbLine
 10
728.532553372699
 20
-337.7893822388668
 30
0.0
 11
728.5561235987319
 21
-337.7658120128002
 31
0.0
  0
LINE
  5
219
330
1F
100
AcDbEntity
  8
1
  6
Continuous
 62
     7
370
     9
100
AcDbLine
 10
670.3390177746002
 20
-337.7548113247667
 30
0.0
 11
670.3154475485661
 21
-337.7312410987335
 31
0.0
  0
LINE
  5
21A
330
1F
100
AcDbEntity
  8
1
  6
Continuous
 62
     7
370
     9
100
AcDbLine
 10
672.399007825099
 20
-336.5599996729334
 30
0.0
 11
672.3754375990662
 21
-336.5364294469002
 31
0.0
  0
LINE
  5
21B
330
1F
100
AcDbEntity
  8
1
  6
Continuous
 62
     7
370
     9
100
AcDbLine
 10
672.7513203745988
 20
-333.8301492801666
 30
0.0
 11
672.727750148566
 21
-333.8065790541335
 31
0.0
  0
LINE
  5
21C
330
1F
100
AcDbEntity
  8
1
  6
Continuous
 62
     7
370
     9
100
AcDbLine
 10
667.8860795793325
 20
-328.9649084849003
 30
0.0
 11
667.8625093532665
 21
-328.9413382588669
 31
0.0
  0
LINE
  5
21D
330
1F
100
AcDbEntity
  8
1
  6
Continuous
 62
     7
370
     9
100
AcDbLine
 10
673.2384206359988
 20
-330.1520804980001
 30
0.0
 11
673.2148504099328
 21
-330.1285102719667
 31
0.0
  0
LINE
  5
21E
330
1F
100
AcDbEntity
  8
1
  6
Continuous
 62
     7
370
     9
100
AcDbLine
 10
668.3454713197331
 20
-325.2591311817332
 30
0.0
 11
668.321901093699
 21
-325.2355609557004
 31
0.0
  0
LINE
  5
21F
330
1F
100
AcDbEntity
  8
1
  6
Continuous
 62
     7
370
     9
100
AcDbLine
 10
671.6482881771667
 20
-325.0253135611335
 30
0.0
 11
671.6247179510995
 21
-325.0017433351001
 31
0.0
  0
LINE
  5
220
330
1F
100
AcDbEntity
  8
1
  6
Continuous
 62
     7
370
     9
100
AcDbLine
 10
672.2700466713668
 20
-322.0241181973
 30
0.0
 11
672.2464764453327
 21
-322.0005479712669
 31
0.0
  0
LINE
  5
221
330
1F
100
AcDbEntity
  8
1
  6
Continuous
 62
     7
370
     9
100
AcDbLine
 10
666.9962994101993
 20
-316.7503709361334
 30
0.0
 11
666.9727291841333
 21
-316.7268007101
 31
0.0
  0
LINE
  5
222
330
1F
100
AcDbEntity
  8
1
  6
Continuous
 62
     7
370
     9
100
AcDbLine
 10
672.5582023416666
 20
-318.2920350631001
 30
0.0
 11
672.5346321156326
 21
-318.2684648370667
 31
0.0
  0
LINE
  5
223
330
1F
100
AcDbEntity
  8
1
  6
Continuous
 62
     7
370
     9
100
AcDbLine
 10
673.1603447567663
 20
-314.972817523467
 30
0.0
 11
673.1367745307335
 21
-314.9492472974335
 31
0.0
  0
LINE
  5
224
330
1F
100
AcDbEntity
  8
1
  6
Continuous
 62
     7
370
     9
100
AcDbLine
 10
668.7641418925995
 20
-310.5766146593002
 30
0.0
 11
668.7405716665667
 21
-310.553044433267
 31
0.0
  0
LINE
  5
225
330
1F
100
AcDbEntity
  8
1
  6
Continuous
 62
     7
370
     9
100
AcDbLine
 10
672.5679132719321
 20
-310.9702526120002
 30
0.0
 11
672.5443430458661
 21
-310.9466823859667
 31
0.0
  0
LINE
  5
226
330
1F
100
AcDbEntity
  8
1
  6
Continuous
 62
     7
370
     9
100
AcDbLine
 10
672.4019858436988
 20
-307.2063607862335
 30
0.0
 11
672.3784156176671
 21
-307.1827905602001
 31
0.0
  0
LINE
  5
227
330
1F
100
AcDbEntity
  8
1
  6
Continuous
 62
     7
370
     9
100
AcDbLine
 10
727.4460421442665
 20
-336.8569387161667
 30
0.0
 11
727.4224719182324
 21
-336.8333684901001
 31
0.0
  0
LINE
  5
228
330
1F
100
AcDbEntity
  8
1
  6
Continuous
 62
     7
370
     9
100
AcDbLine
 10
730.7816997876661
 20
-336.0162921159667
 30
0.0
 11
730.7581295616332
 21
-335.9927218899333
 31
0.0
  0
LINE
  5
229
330
1F
100
AcDbEntity
  8
1
  6
Continuous
 62
     7
370
     9
100
AcDbLine
 10
730.7064724479662
 20
-332.0504776805336
 30
0.0
 11
730.6829022219334
 21
-332.0269074545002
 31
0.0
  0
LINE
  5
22A
330
1F
100
AcDbEntity
  8
1
  6
Continuous
 62
     7
370
     9
100
AcDbLine
 10
729.9382731255982
 20
-327.1865100961003
 30
0.0
 11
729.9147028995665
 21
-327.1629398700669
 31
0.0
  0
LINE
  5
22B
330
1F
100
AcDbEntity
  8
1
  6
Continuous
 62
     7
370
     9
100
AcDbLine
 10
731.7696898313986
 20
-326.0689546629669
 30
0.0
 11
731.7461196053658
 21
-326.0453844369335
 31
0.0
  0
LINE
  5
22C
330
1F
100
AcDbEntity
  8
1
  6
Continuous
 62
     7
370
     9
100
AcDbLine
 10
726.9006941430994
 20
-321.199958974667
 30
0.0
 11
726.8771239170321
 21
-321.1763887486336
 31
0.0
  0
LINE
  5
22D
330
1F
100
AcDbEntity
  8
1
  6
Continuous
 62
     7
370
     9
100
AcDbLine
 10
730.5463715778998
 20
-321.5873387723003
 30
0.0
 11
730.5228013518657
 21
-321.5637685462668
 31
0.0
  0
LINE
  5
22E
330
1F
100
AcDbEntity
  8
1
  6
Continuous
 62
     7
370
     9
100
AcDbLine
 10
731.4375112772669
 20
-318.4197412236668
 30
0.0
 11
731.4139410512329
 21
-318.3961709976334
 31
0.0
  0
LINE
  5
22F
330
1F
100
AcDbEntity
  8
1
  6
Continuous
 62
     7
370
     9
100
AcDbLine
 10
725.5592909777323
 20
-312.5415209241335
 30
0.0
 11
725.5357207516995
 21
-312.5179506981
 31
0.0
  0
LINE
  5
230
330
1F
100
AcDbEntity
  8
1
  6
Continuous
 62
     7
370
     9
100
AcDbLine
 10
731.6226016078658
 20
-314.9361284248002
 30
0.0
 11
731.599031381833
 21
-314.9125581987668
 31
0.0
  0
LINE
  5
231
330
1F
100
AcDbEntity
  8
1
  6
Continuous
 62
     7
370
     9
100
AcDbLine
 10
730.5786766058656
 20
-310.7812529673002
 30
0.0
 11
730.5551063798328
 21
-310.757682741267
 31
0.0
  0
LINE
  5
232
330
1F
100
AcDbEntity
  8
1
  6
Continuous
 62
     7
370
     9
100
AcDbLine
 10
725.4889191031991
 20
-305.6914954646335
 30
0.0
 11
725.4653488771663
 21
-305.6679252386
 31
0.0
  0
LINE
  5
233
330
1F
100
AcDbEntity
  8
1
  6
Continuous
 62
     7
370
     9
100
AcDbLine
 10
730.4826031359322
 20
-307.7164402204003
 30
0.0
 11
730.4590329098994
 21
-307.6928699943669
 31
0.0
  0
LINE
  5
234
330
1F
100
AcDbEntity
  8
1
  6
Continuous
 62
     7
370
     9
100
AcDbLine
 10
669.5762130398996
 20
-307.6839443360003
 30
0.0
 11
671.2492456473656
 21
-307.2356565999003
 31
0.0
  0
LINE
  5
235
330
1F
100
AcDbEntity
  8
1
  6
Continuous
 62
     7
370
     9
100
AcDbLine
 10
671.2492456473655
 20
-307.2356565999004
 30
0.0
 11
670.024500775966
 21
-306.0109117285003
 31
0.0
  0
LINE
  5
236
330
1F
100
AcDbEntity
  8
1
  6
Continuous
 62
     7
370
     9
100
AcDbLine
 10
670.0245007759661
 20
-306.0109117285003
 30
0.0
 11
669.5762130398996
 21
-307.6839443360003
 31
0.0
  0
LINE
  5
237
330
1F
100
AcDbEntity
  8
1
  6
Continuous
 62
     7
370
     9
100
AcDbLine
 10
669.5762130398996
 20
-307.6839443360003
 30
0.0
 11
671.2492456473656
 21
-307.2356565999003
 31
0.0
  0
LINE
  5
238
330
1F
100
AcDbEntity
  8
1
  6
Continuous
 62
     7
370
     9
100
AcDbLine
 10
671.2492456473655
 20
-307.2356565999004
 30
0.0
 11
670.024500775966
 21
-306.0109117285003
 31
0.0
  0
LINE
  5
239
330
1F
100
AcDbEntity
  8
1
  6
Continuous
 62
     7
370
     9
100
AcDbLine
 10
670.0245007759661
 20
-306.0109117285003
 30
0.0
 11
669.5762130398996
 21
-307.6839443360003
 31
0.0
  0
LINE
  5
23A
330
1F
100
AcDbEntity
  8
1
  6
Continuous
 62
     7
370
     9
100
AcDbLine
 10
728.0246513451004
 20
-407.5266845229003
 30
0.0
 11
728.8031685577996
 21
-407.5266845229003
 31
0.0
  0
LINE
  5
23B
330
1F
100
AcDbEntity
  8
1
  6
Continuous
 62
     7
370
     9
100
AcDbLine
 10
727.972065000467
 20
-407.8600178562335
 30
0.0
 11
728.855754902433
 21
-407.8600178562335
 31
0.0
  0
LINE
  5
23C
330
1F
100
AcDbEntity
  8
1
  6
Continuous
 62
     7
370
     9
100
AcDbLine
 10
726.1995273191658
 20
-408.1933511895669
 30
0.0
 11
730.6282925837318
 21
-408.1933511895669
 31
0.0
  0
LINE
  5
23D
330
1F
100
AcDbEntity
  8
1
  6
Continuous
 62
     7
370
     9
100
AcDbLine
 10
727.8858238680995
 20
-408.5266845229004
 30
0.0
 11
728.9419960347996
 21
-408.5266845229004
 31
0.0
  0
LINE
  5
23E
330
1F
100
AcDbEntity
  8
1
  6
Continuous
 62
     7
370
     9
100
AcDbLine
 10
727.9846513450997
 20
-408.8600178562335
 30
0.0
 11
728.8431685577993
 21
-408.8600178562335
 31
0.0
  0
LINE
  5
23F
330
1F
100
AcDbEntity
  8
1
  6
Continuous
 62
     7
370
     9
100
AcDbLine
 10
727.9746513451
 20
-409.193351189567
 30
0.0
 11
728.8531685578001
 21
-409.193351189567
 31
0.0
  0
LINE
  5
240
330
1F
100
AcDbEntity
  8
1
  6
Continuous
 62
     7
370
     9
100
AcDbLine
 10
725.772118906666
 20
-409.5266845229001
 30
0.0
 11
731.0557009962329
 21
-409.5266845229001
 31
0.0
  0
LINE
  5
241
330
1F
100
AcDbEntity
  8
1
  6
Continuous
 62
     7
370
     9
100
AcDbLine
 10
725.772118906666
 20
-409.8600178562336
 30
0.0
 11
731.0557009962329
 21
-409.8600178562336
 31
0.0
  0
LINE
  5
242
330
1F
100
AcDbEntity
  8
1
  6
Continuous
 62
     7
370
     9
100
AcDbLine
 10
727.5495914943991
 20
-410.193351189567
 30
0.0
 11
729.2782284084998
 21
-410.193351189567
 31
0.0
  0
LINE
  5
243
330
1F
100
AcDbEntity
  8
1
  6
Continuous
 62
     7
370
     9
100
AcDbLine
 10
727.4922551620334
 20
-410.5266845229002
 30
0.0
 11
729.3355647408657
 21
-410.5266845229002
 31
0.0
  0
LINE
  5
244
330
1F
100
AcDbEntity
  8
1
  6
Continuous
 62
     7
370
     9
100
AcDbLine
 10
727.2710816431668
 20
-410.8600178562336
 30
0.0
 11
729.5567382597666
 21
-410.8600178562336
 31
0.0
  0
LINE
  5
245
330
1F
100
AcDbEntity
  8
1
  6
Continuous
 62
     7
370
     9
100
AcDbLine
 10
727.0222920175335
 20
-411.193351189567
 30
0.0
 11
729.8055278853657
 21
-411.193351189567
 31
0.0
  0
LINE
  5
246
330
1F
100
AcDbEntity
  8
1
  6
Continuous
 62
     7
370
     9
100
AcDbLine
 10
726.7421405084654
 20
-411.5266845229002
 30
0.0
 11
730.0856793944321
 21
-411.5266845229002
 31
0.0
  0
LINE
  5
247
330
1F
100
AcDbEntity
  8
1
  6
Continuous
 62
     7
370
     9
100
AcDbLine
 10
729.3760804915997
 20
-411.8600178562336
 30
0.0
 11
730.4022746268671
 21
-411.8600178562336
 31
0.0
  0
LINE
  5
248
330
1F
100
AcDbEntity
  8
1
  6
Continuous
 62
     7
370
     9
100
AcDbLine
 10
727.8945597781653
 20
-411.8600178562336
 30
0.0
 11
728.9332601247324
 21
-411.8600178562336
 31
0.0
  0
LINE
  5
249
330
1F
100
AcDbEntity
  8
1
  6
Continuous
 62
     7
370
     9
100
AcDbLine
 10
726.425545276033
 20
-411.8600178562336
 30
0.0
 11
727.4517394112992
 21
-411.8600178562336
 31
0.0
  0
LINE
  5
24A
330
1F
100
AcDbEntity
  8
1
  6
Continuous
 62
     7
370
     9
100
AcDbLine
 10
729.5992232055667
 20
-412.1933511895668
 30
0.0
 11
730.762483569633
 21
-412.1933511895668
 31
0.0
  0
LINE
  5
24B
330
1F
100
AcDbEntity
  8
1
  6
Continuous
 62
     7
370
     9
100
AcDbLine
 10
727.8846513450999
 20
-412.1933511895668
 30
0.0
 11
728.9431685578003
 21
-412.1933511895668
 31
0.0
  0
LINE
  5
24C
330
1F
100
AcDbEntity
  8
1
  6
Continuous
 62
     7
370
     9
100
AcDbLine
 10
726.0653363332657
 20
-412.1933511895668
 30
0.0
 11
727.2285966973664
 21
-412.1933511895668
 31
0.0
  0
LINE
  5
24D
330
1F
100
AcDbEntity
  8
1
  6
Continuous
 62
     7
370
     9
100
AcDbLine
 10
729.8505930155991
 20
-412.5266845229002
 30
0.0
 11
731.1769816130662
 21
-412.5266845229002
 31
0.0
  0
LINE
  5
24E
330
1F
100
AcDbEntity
  8
1
  6
Continuous
 62
     7
370
     9
100
AcDbLine
 10
727.8746513451003
 20
-412.5266845229002
 30
0.0
 11
728.9531685577999
 21
-412.5266845229002
 31
0.0
  0
LINE
  5
24F
330
1F
100
AcDbEntity
  8
1
  6
Continuous
 62
     7
370
     9
100
AcDbLine
 10
725.6508382898324
 20
-412.5266845229002
 30
0.0
 11
726.9772268872983
 21
-412.5266845229002
 31
0.0
  0
LINE
  5
250
330
1F
100
AcDbEntity
  8
1
  6
Continuous
 62
     7
370
     9
100
AcDbLine
 10
730.1341284405652
 20
-412.8600178562337
 30
0.0
 11
731.0915476022326
 21
-412.8600178562337
 31
0.0
  0
LINE
  5
251
330
1F
100
AcDbEntity
  8
1
  6
Continuous
 62
     7
370
     9
100
AcDbLine
 10
727.8646513450993
 20
-412.8600178562337
 30
0.0
 11
728.9631685577993
 21
-412.8600178562337
 31
0.0
  0
LINE
  5
252
330
1F
100
AcDbEntity
  8
1
  6
Continuous
 62
     7
370
     9
100
AcDbLine
 10
726.0571437756325
 20
-412.8600178562337
 30
0.0
 11
726.6936914623334
 21
-412.8600178562337
 31
0.0
  0
LINE
  5
253
330
1F
100
AcDbEntity
  8
1
  6
Continuous
 62
     7
370
     9
100
AcDbLine
 10
730.4552108166334
 20
-413.1933511895668
 30
0.0
 11
730.5582142688993
 21
-413.1933511895668
 31
0.0
  0
LINE
  5
254
330
1F
100
AcDbEntity
  8
1
  6
Continuous
 62
     7
370
     9
100
AcDbLine
 10
727.8546513450997
 20
-413.1933511895668
 30
0.0
 11
728.9731685578002
 21
-413.1933511895668
 31
0.0
  0
LINE
  5
255
330
1F
100
AcDbEntity
  8
1
  6
Continuous
 62
     7
370
     9
100
AcDbLine
 10
738.5234631754325
 20
-407.7883316778002
 30
0.0
 11
742.9522284399985
 21
-407.7883316778002
 31
0.0
  0
LINE
  5
256
330
1F
100
AcDbEntity
  8
1
  6
Continuous
 62
     7
370
     9
100
AcDbLine
 10
738.5234631754325
 20
-408.1216650111335
 30
0.0
 11
742.9522284399985
 21
-408.1216650111335
 31
0.0
  0
LINE
  5
257
330
1F
100
AcDbEntity
  8
1
  6
Continuous
 62
     7
370
     9
100
AcDbLine
 10
740.128826524132
 20
-408.4549983444667
 30
0.0
 11
741.3468650913002
 21
-408.4549983444667
 31
0.0
  0
LINE
  5
258
330
1F
100
AcDbEntity
  8
1
  6
Continuous
 62
     7
370
     9
100
AcDbLine
 10
740.2732211407322
 20
-408.7883316778002
 30
0.0
 11
741.2024704747001
 21
-408.7883316778002
 31
0.0
  0
LINE
  5
259
330
1F
100
AcDbEntity
  8
1
  6
Continuous
 62
     7
370
     9
100
AcDbLine
 10
740.2552893931656
 20
-409.1216650111336
 30
0.0
 11
741.2204022222666
 21
-409.1216650111336
 31
0.0
  0
LINE
  5
25A
330
1F
100
AcDbEntity
  8
1
  6
Continuous
 62
     7
370
     9
100
AcDbLine
 10
740.2373576455992
 20
-409.4549983444667
 30
0.0
 11
741.2383339698332
 21
-409.4549983444667
 31
0.0
  0
LINE
  5
25B
330
1F
100
AcDbEntity
  8
1
  6
Continuous
 62
     7
370
     9
100
AcDbLine
 10
740.2194258980327
 20
-409.7883316778003
 30
0.0
 11
741.2562657173984
 21
-409.7883316778003
 31
0.0
  0
LINE
  5
25C
330
1F
100
AcDbEntity
  8
1
  6
Continuous
 62
     7
370
     9
100
AcDbLine
 10
740.201494150465
 20
-410.1216650111336
 30
0.0
 11
741.274197464965
 21
-410.1216650111336
 31
0.0
  0
LINE
  5
25D
330
1F
100
AcDbEntity
  8
1
  6
Continuous
 62
     7
370
     9
100
AcDbLine
 10
740.1835624028984
 20
-410.4549983444668
 30
0.0
 11
741.2921292125326
 21
-410.4549983444668
 31
0.0
  0
LINE
  5
25E
330
1F
100
AcDbEntity
  8
1
  6
Continuous
 62
     7
370
     9
100
AcDbLine
 10
740.1656306553331
 20
-410.7883316778003
 30
0.0
 11
741.3100609600992
 21
-410.7883316778003
 31
0.0
  0
LINE
  5
25F
330
1F
100
AcDbEntity
  8
1
  6
Continuous
 62
     7
370
     9
100
AcDbLine
 10
740.1476989077665
 20
-411.1216650111334
 30
0.0
 11
741.3279927076657
 21
-411.1216650111334
 31
0.0
  0
LINE
  5
260
330
1F
100
AcDbEntity
  8
1
  6
Continuous
 62
     7
370
     9
100
AcDbLine
 10
740.1297671602001
 20
-411.4549983444668
 30
0.0
 11
741.3459244552323
 21
-411.4549983444668
 31
0.0
  0
LINE
  5
261
330
1F
100
AcDbEntity
  8
1
  6
Continuous
 62
     7
370
     9
100
AcDbLine
 10
740.1118354126324
 20
-411.7883316778003
 30
0.0
 11
741.3638562028
 21
-411.7883316778003
 31
0.0
  0
LINE
  5
262
330
1F
100
AcDbEntity
  8
1
  6
Continuous
 62
     7
370
     9
100
AcDbLine
 10
740.0325147741328
 20
-412.1216650111335
 30
0.0
 11
741.4431768413325
 21
-412.1216650111335
 31
0.0
  0
LINE
  5
263
330
1F
100
AcDbEntity
  8
1
  6
Continuous
 62
     7
370
     9
100
AcDbLine
 10
738.2181714522326
 20
-412.4549983444668
 30
0.0
 11
743.2575201631996
 21
-412.4549983444668
 31
0.0
  0
LINE
  5
264
330
1F
100
AcDbEntity
  8
1
  6
Continuous
 62
     7
370
     9
100
AcDbLine
 10
738.2181714522326
 20
-412.7883316778
 30
0.0
 11
743.2575201631996
 21
-412.7883316778
 31
0.0
  0
CIRCLE
  5
265
330
1F
100
AcDbEntity
  8
1
  6
Continuous
 62
     7
370
     9
100
AcDbCircle
 10
688.9468460719995
 20
-230.4374263810666
 30
0.0
 40
0.4999999999999449
  0
MTEXT
  5
266
330
1F
100
AcDbEntity
  8
1
 62
     7
100
AcDbMText
 10
661.3502267715271
 20
-246.076336123176
 30
0.0
 40
3.499999999999999
 41
0.0
 46
0.0
 71
     1
 72
     1
  1
{\fＭＳ ゴシック;\W0.83943;パテエース}
 73
     1
 44
1.0
  0
LINE
  5
267
330
1F
100
AcDbEntity
  8
1
  6
Continuous
 62
     7
370
     9
100
AcDbLine
 10
688.9468460719995
 20
-230.4374263810666
 30
0.0
 11
677.8377794915671
 21
-250.2104268975001
 31
0.0
  0
LINE
  5
268
330
1F
100
AcDbEntity
  8
1
  6
Continuous
 62
     7
370
     9
100
AcDbLine
 10
677.837779491567
 20
-250.2104268975001
 30
0.0
 11
661.1499084144
 21
-250.2104268975001
 31
0.0
  0
LINE
  5
269
330
1F
100
AcDbEntity
  8
1
  6
Continuous
 62
     7
370
     9
100
AcDbLine
 10
764.5788112444997
 20
-407.5447169940335
 30
0.0
 11
765.4197365719992
 21
-407.5447169940335
 31
0.0
  0
LINE
  5
26A
330
1F
100
AcDbEntity
  8
1
  6
Continuous
 62
     7
370
     9
100
AcDbLine
 10
764.3128965583003
 20
-407.878050327367
 30
0.0
 11
765.6856512581998
 21
-407.878050327367
 31
0.0
  0
LINE
  5
26B
330
1F
100
AcDbEntity
  8
1
  6
Continuous
 62
     7
370
     9
100
AcDbLine
 10
765.1245016224991
 20
-408.2113836607004
 30
0.0
 11
765.993024600432
 21
-408.2113836607004
 31
0.0
  0
LINE
  5
26C
330
1F
100
AcDbEntity
  8
1
  6
Continuous
 62
     7
370
     9
100
AcDbLine
 10
764.0055232160655
 20
-408.2113836607004
 30
0.0
 11
764.8740461939984
 21
-408.2113836607004
 31
0.0
  0
LINE
  5
26D
330
1F
100
AcDbEntity
  8
1
  6
Continuous
 62
     7
370
     9
100
AcDbLine
 10
765.3631221075652
 20
-408.5447169940336
 30
0.0
 11
766.3513871651323
 21
-408.5447169940336
 31
0.0
  0
LINE
  5
26E
330
1F
100
AcDbEntity
  8
1
  6
Continuous
 62
     7
370
     9
100
AcDbLine
 10
763.6471606513662
 20
-408.5447169940336
 30
0.0
 11
764.6354257089323
 21
-408.5447169940336
 31
0.0
  0
LINE
  5
26F
330
1F
100
AcDbEntity
  8
1
  6
Continuous
 62
     7
370
     9
100
AcDbLine
 10
765.6088458497333
 20
-408.878050327367
 30
0.0
 11
766.7760105313325
 21
-408.878050327367
 31
0.0
  0
LINE
  5
270
330
1F
100
AcDbEntity
  8
1
  6
Continuous
 62
     7
370
     9
100
AcDbLine
 10
763.222537285166
 20
-408.878050327367
 30
0.0
 11
764.3897019667666
 21
-408.878050327367
 31
0.0
  0
LINE
  5
271
330
1F
100
AcDbEntity
  8
1
  6
Continuous
 62
     7
370
     9
100
AcDbLine
 10
762.7042240051654
 20
-409.2113836607002
 30
0.0
 11
767.2943238113321
 21
-409.2113836607002
 31
0.0
  0
LINE
  5
272
330
1F
100
AcDbEntity
  8
1
  6
Continuous
 62
     7
370
     9
100
AcDbLine
 10
762.0320589283998
 20
-409.5447169940336
 30
0.0
 11
767.966488888099
 21
-409.5447169940336
 31
0.0
  0
LINE
  5
273
330
1F
100
AcDbEntity
  8
1
  6
Continuous
 62
     7
370
     9
100
AcDbLine
 10
766.6673502679323
 20
-409.878050327367
 30
0.0
 11
768.0856865679984
 21
-409.878050327367
 31
0.0
  0
LINE
  5
274
330
1F
100
AcDbEntity
  8
1
  6
Continuous
 62
     7
370
     9
100
AcDbLine
 10
761.9128612484992
 20
-409.878050327367
 30
0.0
 11
763.3311975485653
 21
-409.878050327367
 31
0.0
  0
LINE
  5
275
330
1F
100
AcDbEntity
  8
1
  6
Continuous
 62
     7
370
     9
100
AcDbLine
 10
766.843252407466
 20
-410.2113836607002
 30
0.0
 11
767.8773532346652
 21
-410.2113836607002
 31
0.0
  0
LINE
  5
276
330
1F
100
AcDbEntity
  8
1
  6
Continuous
 62
     7
370
     9
100
AcDbLine
 10
762.1211945818324
 20
-410.2113836607002
 30
0.0
 11
763.1552954090325
 21
-410.2113836607002
 31
0.0
  0
LINE
  5
277
330
1F
100
AcDbEntity
  8
1
  6
Continuous
 62
     7
370
     9
100
AcDbLine
 10
762.5220440625991
 20
-410.5447169940336
 30
0.0
 11
767.4765037538995
 21
-410.5447169940336
 31
0.0
  0
LINE
  5
278
330
1F
100
AcDbEntity
  8
1
  6
Continuous
 62
     7
370
     9
100
AcDbLine
 10
765.4175602918983
 20
-410.8780503273668
 30
0.0
 11
766.2000527587322
 21
-410.8780503273668
 31
0.0
  0
LINE
  5
279
330
1F
100
AcDbEntity
  8
1
  6
Continuous
 62
     7
370
     9
100
AcDbLine
 10
763.7718982155989
 20
-410.8780503273668
 30
0.0
 11
764.5767170746984
 21
-410.8780503273668
 31
0.0
  0
LINE
  5
27A
330
1F
100
AcDbEntity
  8
1
  6
Continuous
 62
     7
370
     9
100
AcDbLine
 10
765.493733139667
 20
-411.2113836607002
 30
0.0
 11
766.2858803504326
 21
-411.2113836607002
 31
0.0
  0
LINE
  5
27B
330
1F
100
AcDbEntity
  8
1
  6
Continuous
 62
     7
370
     9
100
AcDbLine
 10
763.6114062458653
 20
-411.2113836607002
 30
0.0
 11
764.4767170746986
 21
-411.2113836607002
 31
0.0
  0
LINE
  5
27C
330
1F
100
AcDbEntity
  8
1
  6
Continuous
 62
     7
370
     9
100
AcDbLine
 10
765.5820774136657
 20
-411.5447169940337
 30
0.0
 11
766.4040083070319
 21
-411.5447169940337
 31
0.0
  0
LINE
  5
27D
330
1F
100
AcDbEntity
  8
1
  6
Continuous
 62
     7
370
     9
100
AcDbLine
 10
763.4114062458658
 20
-411.5447169940337
 30
0.0
 11
764.3767170746988
 21
-411.5447169940337
 31
0.0
  0
LINE
  5
27E
330
1F
100
AcDbEntity
  8
1
  6
Continuous
 62
     7
370
     9
100
AcDbLine
 10
765.6832641153986
 20
-411.8780503273668
 30
0.0
 11
766.5379421487665
 21
-411.8780503273668
 31
0.0
  0
LINE
  5
27F
330
1F
100
AcDbEntity
  8
1
  6
Continuous
 62
     7
370
     9
100
AcDbLine
 10
763.2114062458651
 20
-411.8780503273668
 30
0.0
 11
764.2767170746991
 21
-411.8780503273668
 31
0.0
  0
LINE
  5
280
330
1F
100
AcDbEntity
  8
1
  6
Continuous
 62
     7
370
     9
100
AcDbLine
 10
762.4795995527663
 20
-412.2113836607003
 30
0.0
 11
766.6885008588997
 21
-412.2113836607003
 31
0.0
  0
LINE
  5
281
330
1F
100
AcDbEntity
  8
1
  6
Continuous
 62
     7
370
     9
100
AcDbLine
 10
762.4795995527663
 20
-412.5447169940337
 30
0.0
 11
766.856674237266
 21
-412.5447169940337
 31
0.0
  0
LINE
  5
282
330
1F
100
AcDbEntity
  8
1
  6
Continuous
 62
     7
370
     9
100
AcDbLine
 10
766.0685526668655
 20
-412.8780503273669
 30
0.0
 11
767.0436632956994
 21
-412.8780503273669
 31
0.0
  0
LINE
  5
283
330
1F
100
AcDbEntity
  8
1
  6
Continuous
 62
     7
370
     9
100
AcDbLine
 10
762.4795995527663
 20
-412.8780503273669
 30
0.0
 11
764.5052784117653
 21
-412.8780503273669
 31
0.0
  0
LINE
  5
284
330
1F
100
AcDbEntity
  8
1
  6
Continuous
 62
     7
370
     9
100
AcDbLine
 10
766.2262332036328
 20
-413.2113836607003
 30
0.0
 11
766.8152893134663
 21
-413.2113836607003
 31
0.0
  0
CIRCLE
  5
285
330
1F
100
AcDbEntity
  8
1
  6
Continuous
 62
     7
370
     9
100
AcDbCircle
 10
713.2904791202662
 20
-237.0367461611669
 30
0.0
 40
0.500000000000167
  0
MTEXT
  5
286
330
1F
100
AcDbEntity
  8
1
 62
     7
100
AcDbMText
 10
723.3681045025869
 20
-244.7735922140849
 30
0.0
 40
3.499999999999999
 41
0.0
 46
0.0
 71
     1
 72
     1
  1
{\fＭＳ ゴシック;\W0.827053;バックアップスリーブ}
 73
     1
 44
1.0
  0
LINE
  5
287
330
1F
100
AcDbEntity
  8
1
  6
Continuous
 62
     7
370
     9
100
AcDbLine
 10
713.2904791202662
 20
-237.0367461611669
 30
0.0
 11
723.1707396725324
 21
-249.2417739021668
 31
0.0
  0
LINE
  5
288
330
1F
100
AcDbEntity
  8
1
  6
Continuous
 62
     7
370
     9
100
AcDbLine
 10
723.1707396725325
 20
-249.2417739021667
 30
0.0
 11
765.0310443578
 21
-249.2417739021667
 31
0.0
  0
CIRCLE
  5
289
330
1F
100
AcDbEntity
  8
1
  6
Continuous
 62
     7
370
     9
100
AcDbCircle
 10
703.8284688103334
 20
-192.9158415114002
 30
0.0
 40
0.4999999999999449
  0
MTEXT
  5
28A
330
1F
100
AcDbEntity
  8
1
 62
     7
100
AcDbMText
 10
718.140332104859
 20
-176.9332427898428
 30
0.0
 40
3.499999999999999
 41
0.0
 46
0.0
 71
     1
 72
     1
  1
{\fＭＳ ゴシック;\W0.83943;被覆付き配管}
 73
     1
 44
1.0
  0
LINE
  5
28B
330
1F
100
AcDbEntity
  8
1
  6
Continuous
 62
     7
370
     9
100
AcDbLine
 10
703.8284688103334
 20
-192.9158415114002
 30
0.0
 11
717.9400134977986
 21
-181.2423336307666
 31
0.0
  0
LINE
  5
28C
330
1F
100
AcDbEntity
  8
1
  6
Continuous
 62
     7
370
     9
100
AcDbLine
 10
717.9400134977988
 20
-181.2423336307666
 30
0.0
 11
738.8701658404337
 21
-181.2423336307666
 31
0.0
  0
CIRCLE
  5
28D
330
1F
100
AcDbEntity
  8
1
  6
Continuous
 62
     7
370
     9
100
AcDbCircle
 10
671.9358762177661
 20
-270.2323659169334
 30
0.0
 40
0.4999999999999449
  0
MTEXT
  5
28E
330
1F
100
AcDbEntity
  8
1
 62
     7
100
AcDbMText
 10
620.3397268359204
 20
-254.6270825474183
 30
0.0
 40
3.499999999999999
 41
0.0
 46
0.0
 71
     1
 72
     1
  1
{\fＭＳ ゴシック;\W0.827053;バックアップスリーブ}
 73
     1
 44
1.0
  0
LINE
  5
28F
330
1F
100
AcDbEntity
  8
1
  6
Continuous
 62
     7
370
     9
100
AcDbLine
 10
671.9358762177661
 20
-270.2323659169334
 30
0.0
 11
653.5181041218672
 21
-259.0952642917002
 31
0.0
  0
LINE
  5
290
330
1F
100
AcDbEntity
  8
1
  6
Continuous
 62
     7
370
     9
100
AcDbLine
 10
653.518104121867
 20
-259.0952642917002
 30
0.0
 11
620.1423619674999
 21
-259.0952642917002
 31
0.0
  0
LINE
  5
291
330
1F
100
AcDbEntity
  8
1
  6
Continuous
 62
     7
370
     9
100
AcDbLine
 10
734.1283676018
 20
-407.5266845229003
 30
0.0
 11
734.9068848144992
 21
-407.5266845229003
 31
0.0
  0
LINE
  5
292
330
1F
100
AcDbEntity
  8
1
  6
Continuous
 62
     7
370
     9
100
AcDbLine
 10
734.0757812571667
 20
-407.8600178562335
 30
0.0
 11
734.9594711591327
 21
-407.8600178562335
 31
0.0
  0
LINE
  5
293
330
1F
100
AcDbEntity
  8
1
  6
Continuous
 62
     7
370
     9
100
AcDbLine
 10
732.3032435758666
 20
-408.1933511895669
 30
0.0
 11
736.7320088404325
 21
-408.1933511895669
 31
0.0
  0
LINE
  5
294
330
1F
100
AcDbEntity
  8
1
  6
Continuous
 62
     7
370
     9
100
AcDbLine
 10
735.808795050933
 20
-408.5266845229004
 30
0.0
 11
736.131284328666
 21
-408.5266845229004
 31
0.0
  0
LINE
  5
295
330
1F
100
AcDbEntity
  8
1
  6
Continuous
 62
     7
370
     9
100
AcDbLine
 10
733.9895401248001
 20
-408.5266845229004
 30
0.0
 11
735.0457122915002
 21
-408.5266845229004
 31
0.0
  0
LINE
  5
296
330
1F
100
AcDbEntity
  8
1
  6
Continuous
 62
     7
370
     9
100
AcDbLine
 10
732.9039680876331
 20
-408.5266845229004
 30
0.0
 11
733.2264573653662
 21
-408.5266845229004
 31
0.0
  0
LINE
  5
297
330
1F
100
AcDbEntity
  8
1
  6
Continuous
 62
     7
370
     9
100
AcDbLine
 10
735.6667945074659
 20
-408.8600178562335
 30
0.0
 11
736.3668857201656
 21
-408.8600178562335
 31
0.0
  0
LINE
  5
298
330
1F
100
AcDbEntity
  8
1
  6
Continuous
 62
     7
370
     9
100
AcDbLine
 10
734.0883676018003
 20
-408.8600178562335
 30
0.0
 11
734.9468848145
 21
-408.8600178562335
 31
0.0
  0
LINE
  5
299
330
1F
100
AcDbEntity
  8
1
  6
Continuous
 62
     7
370
     9
100
AcDbLine
 10
732.6683666961324
 20
-408.8600178562335
 30
0.0
 11
733.368457908832
 21
-408.8600178562335
 31
0.0
  0
LINE
  5
29A
330
1F
100
AcDbEntity
  8
1
  6
Continuous
 62
     7
370
     9
100
AcDbLine
 10
735.4434611741326
 20
-409.193351189567
 30
0.0
 11
736.2710828601998
 21
-409.193351189567
 31
0.0
  0
LINE
  5
29B
330
1F
100
AcDbEntity
  8
1
  6
Continuous
 62
     7
370
     9
100
AcDbLine
 10
734.0783676017995
 20
-409.193351189567
 30
0.0
 11
734.9568848144996
 21
-409.193351189567
 31
0.0
  0
LINE
  5
29C
330
1F
100
AcDbEntity
  8
1
  6
Continuous
 62
     7
370
     9
100
AcDbLine
 10
732.7641695560992
 20
-409.193351189567
 30
0.0
 11
733.5917912421664
 21
-409.193351189567
 31
0.0
  0
LINE
  5
29D
330
1F
100
AcDbEntity
  8
1
  6
Continuous
 62
     7
370
     9
100
AcDbLine
 10
735.2201278407996
 20
-409.5266845229001
 30
0.0
 11
736.1044161935325
 21
-409.5266845229001
 31
0.0
  0
LINE
  5
29E
330
1F
100
AcDbEntity
  8
1
  6
Continuous
 62
     7
370
     9
100
AcDbLine
 10
734.0683676017999
 20
-409.5266845229001
 30
0.0
 11
734.9668848144992
 21
-409.5266845229001
 31
0.0
  0
LINE
  5
29F
330
1F
100
AcDbEntity
  8
1
  6
Continuous
 62
     7
370
     9
100
AcDbLine
 10
732.9308362227656
 20
-409.5266845229001
 30
0.0
 11
733.8151245754985
 21
-409.5266845229001
 31
0.0
  0
LINE
  5
2A0
330
1F
100
AcDbEntity
  8
1
  6
Continuous
 62
     7
370
     9
100
AcDbLine
 10
731.8758351633668
 20
-409.8600178562336
 30
0.0
 11
737.1594172529325
 21
-409.8600178562336
 31
0.0
  0
LINE
  5
2A1
330
1F
100
AcDbEntity
  8
1
  6
Continuous
 62
     7
370
     9
100
AcDbLine
 10
731.8758351633668
 20
-410.193351189567
 30
0.0
 11
737.1594172529325
 21
-410.193351189567
 31
0.0
  0
LINE
  5
2A2
330
1F
100
AcDbEntity
  8
1
  6
Continuous
 62
     7
370
     9
100
AcDbLine
 10
733.4710238743994
 20
-410.5266845229002
 30
0.0
 11
735.5642285419
 21
-410.5266845229002
 31
0.0
  0
LINE
  5
2A3
330
1F
100
AcDbEntity
  8
1
  6
Continuous
 62
     7
370
     9
100
AcDbLine
 10
733.3747978998332
 20
-410.8600178562336
 30
0.0
 11
735.6604545164649
 21
-410.8600178562336
 31
0.0
  0
LINE
  5
2A4
330
1F
100
AcDbEntity
  8
1
  6
Continuous
 62
     7
370
     9
100
AcDbLine
 10
733.1260082742328
 20
-411.193351189567
 30
0.0
 11
735.9092441420652
 21
-411.193351189567
 31
0.0
  0
LINE
  5
2A5
330
1F
100
AcDbEntity
  8
1
  6
Continuous
 62
     7
370
     9
100
AcDbLine
 10
732.8458567651662
 20
-411.5266845229002
 30
0.0
 11
736.1893956511329
 21
-411.5266845229002
 31
0.0
  0
LINE
  5
2A6
330
1F
100
AcDbEntity
  8
1
  6
Continuous
 62
     7
370
     9
100
AcDbLine
 10
735.4797967482995
 20
-411.8600178562336
 30
0.0
 11
736.5059908835668
 21
-411.8600178562336
 31
0.0
  0
LINE
  5
2A7
330
1F
100
AcDbEntity
  8
1
  6
Continuous
 62
     7
370
     9
100
AcDbLine
 10
733.9982760348661
 20
-411.8600178562336
 30
0.0
 11
735.036976381432
 21
-411.8600178562336
 31
0.0
  0
LINE
  5
2A8
330
1F
100
AcDbEntity
  8
1
  6
Continuous
 62
     7
370
     9
100
AcDbLine
 10
732.5292615327324
 20
-411.8600178562336
 30
0.0
 11
733.5554556679986
 21
-411.8600178562336
 31
0.0
  0
LINE
  5
2A9
330
1F
100
AcDbEntity
  8
1
  6
Continuous
 62
     7
370
     9
100
AcDbLine
 10
735.7029394622319
 20
-412.1933511895668
 30
0.0
 11
736.8661998263326
 21
-412.1933511895668
 31
0.0
  0
LINE
  5
2AA
330
1F
100
AcDbEntity
  8
1
  6
Continuous
 62
     7
370
     9
100
AcDbLine
 10
733.9883676017994
 20
-412.1933511895668
 30
0.0
 11
735.0468848144998
 21
-412.1933511895668
 31
0.0
  0
LINE
  5
2AB
330
1F
100
AcDbEntity
  8
1
  6
Continuous
 62
     7
370
     9
100
AcDbLine
 10
732.1690525899666
 20
-412.1933511895668
 30
0.0
 11
733.3323129540316
 21
-412.1933511895668
 31
0.0
  0
LINE
  5
2AC
330
1F
100
AcDbEntity
  8
1
  6
Continuous
 62
     7
370
     9
100
AcDbLine
 10
735.9543092722987
 20
-412.5266845229002
 30
0.0
 11
737.280697869767
 21
-412.5266845229002
 31
0.0
  0
LINE
  5
2AD
330
1F
100
AcDbEntity
  8
1
  6
Continuous
 62
     7
370
     9
100
AcDbLine
 10
733.9783676017997
 20
-412.5266845229002
 30
0.0
 11
735.0568848144993
 21
-412.5266845229002
 31
0.0
  0
LINE
  5
2AE
330
1F
100
AcDbEntity
  8
1
  6
Continuous
 62
     7
370
     9
100
AcDbLine
 10
731.7545545465332
 20
-412.5266845229002
 30
0.0
 11
733.0809431439992
 21
-412.5266845229002
 31
0.0
  0
LINE
  5
2AF
330
1F
100
AcDbEntity
  8
1
  6
Continuous
 62
     7
370
     9
100
AcDbLine
 10
736.2378446972649
 20
-412.8600178562337
 30
0.0
 11
737.1952638589323
 21
-412.8600178562337
 31
0.0
  0
LINE
  5
2B0
330
1F
100
AcDbEntity
  8
1
  6
Continuous
 62
     7
370
     9
100
AcDbLine
 10
733.9683676018002
 20
-412.8600178562337
 30
0.0
 11
735.066884814499
 21
-412.8600178562337
 31
0.0
  0
LINE
  5
2B1
330
1F
100
AcDbEntity
  8
1
  6
Continuous
 62
     7
370
     9
100
AcDbLine
 10
732.1608600323323
 20
-412.8600178562337
 30
0.0
 11
732.7974077190331
 21
-412.8600178562337
 31
0.0
  0
LINE
  5
2B2
330
1F
100
AcDbEntity
  8
1
  6
Continuous
 62
     7
370
     9
100
AcDbLine
 10
736.5589270733332
 20
-413.1933511895668
 30
0.0
 11
736.661930525599
 21
-413.1933511895668
 31
0.0
  0
LINE
  5
2B3
330
1F
100
AcDbEntity
  8
1
  6
Continuous
 62
     7
370
     9
100
AcDbLine
 10
733.9583676017994
 20
-413.1933511895668
 30
0.0
 11
735.0768848145
 21
-413.1933511895668
 31
0.0
  0
LINE
  5
2B4
330
1F
100
AcDbEntity
  8
1
  6
Continuous
 62
     7
370
     9
100
AcDbLine
 10
753.797931598266
 20
-407.3661942674335
 30
0.0
 11
754.4447027063652
 21
-407.3661942674335
 31
0.0
  0
LINE
  5
2B5
330
1F
100
AcDbEntity
  8
1
  6
Continuous
 62
     7
370
     9
100
AcDbLine
 10
751.173022171766
 20
-407.3661942674335
 30
0.0
 11
751.6964778044992
 21
-407.3661942674335
 31
0.0
  0
LINE
  5
2B6
330
1F
100
AcDbEntity
  8
1
  6
Continuous
 62
     7
370
     9
100
AcDbLine
 10
753.7879315982664
 20
-407.6995276007669
 30
0.0
 11
754.4547027063659
 21
-407.6995276007669
 31
0.0
  0
LINE
  5
2B7
330
1F
100
AcDbEntity
  8
1
  6
Continuous
 62
     7
370
     9
100
AcDbLine
 10
751.1663555050994
 20
-407.6995276007669
 30
0.0
 11
751.7031444711656
 21
-407.6995276007669
 31
0.0
  0
LINE
  5
2B8
330
1F
100
AcDbEntity
  8
1
  6
Continuous
 62
     7
370
     9
100
AcDbLine
 10
753.7779315982324
 20
-408.0328609341003
 30
0.0
 11
754.4647027063655
 21
-408.0328609341003
 31
0.0
  0
LINE
  5
2B9
330
1F
100
AcDbEntity
  8
1
  6
Continuous
 62
     7
370
     9
100
AcDbLine
 10
752.8305115895325
 20
-408.0328609341003
 30
0.0
 11
753.4271036402993
 21
-408.0328609341003
 31
0.0
  0
LINE
  5
2BA
330
1F
100
AcDbEntity
  8
1
  6
Continuous
 62
     7
370
     9
100
AcDbLine
 10
751.1596888384332
 20
-408.0328609341003
 30
0.0
 11
751.7098111378333
 21
-408.0328609341003
 31
0.0
  0
LINE
  5
2BB
330
1F
100
AcDbEntity
  8
1
  6
Continuous
 62
     7
370
     9
100
AcDbLine
 10
752.6553333870321
 20
-408.3661942674335
 30
0.0
 11
755.3587662703665
 21
-408.3661942674335
 31
0.0
  0
LINE
  5
2BC
330
1F
100
AcDbEntity
  8
1
  6
Continuous
 62
     7
370
     9
100
AcDbLine
 10
750.2583592147328
 20
-408.3661942674335
 30
0.0
 11
752.3669073829657
 21
-408.3661942674335
 31
0.0
  0
LINE
  5
2BD
330
1F
100
AcDbEntity
  8
1
  6
Continuous
 62
     7
370
     9
100
AcDbLine
 10
750.2583592147328
 20
-408.6995276007669
 30
0.0
 11
755.3587662703665
 21
-408.6995276007669
 31
0.0
  0
LINE
  5
2BE
330
1F
100
AcDbEntity
  8
1
  6
Continuous
 62
     7
370
     9
100
AcDbLine
 10
753.7479315982324
 20
-409.0328609341004
 30
0.0
 11
754.4947027063656
 21
-409.0328609341004
 31
0.0
  0
LINE
  5
2BF
330
1F
100
AcDbEntity
  8
1
  6
Continuous
 62
     7
370
     9
100
AcDbLine
 10
752.1118349707664
 20
-409.0328609341004
 30
0.0
 11
753.0831713814983
 21
-409.0328609341004
 31
0.0
  0
LINE
  5
2C0
330
1F
100
AcDbEntity
  8
1
  6
Continuous
 62
     7
370
     9
100
AcDbLine
 10
751.1032933334988
 20
-409.0328609341004
 30
0.0
 11
751.7794014625989
 21
-409.0328609341004
 31
0.0
  0
LINE
  5
2C1
330
1F
100
AcDbEntity
  8
1
  6
Continuous
 62
     7
370
     9
100
AcDbLine
 10
753.7379315982328
 20
-409.3661942674335
 30
0.0
 11
754.5047027063653
 21
-409.3661942674335
 31
0.0
  0
LINE
  5
2C2
330
1F
100
AcDbEntity
  8
1
  6
Continuous
 62
     7
370
     9
100
AcDbLine
 10
752.2683288861667
 20
-409.3661942674335
 30
0.0
 11
752.8872626865999
 21
-409.3661942674335
 31
0.0
  0
LINE
  5
2C3
330
1F
100
AcDbEntity
  8
1
  6
Continuous
 62
     7
370
     9
100
AcDbLine
 10
750.9991046471991
 20
-409.3661942674335
 30
0.0
 11
751.921446401566
 21
-409.3661942674335
 31
0.0
  0
LINE
  5
2C4
330
1F
100
AcDbEntity
  8
1
  6
Continuous
 62
     7
370
     9
100
AcDbLine
 10
752.4564596217658
 20
-409.699527600767
 30
0.0
 11
755.6640579935652
 21
-409.699527600767
 31
0.0
  0
LINE
  5
2C5
330
1F
100
AcDbEntity
  8
1
  6
Continuous
 62
     7
370
     9
100
AcDbLine
 10
750.8683242265988
 20
-409.699527600767
 30
0.0
 11
752.1209572166003
 21
-409.699527600767
 31
0.0
  0
LINE
  5
2C6
330
1F
100
AcDbEntity
  8
1
  6
Continuous
 62
     7
370
     9
100
AcDbLine
 10
750.7116181150998
 20
-410.0328609341001
 30
0.0
 11
755.6640579935653
 21
-410.0328609341001
 31
0.0
  0
LINE
  5
2C7
330
1F
100
AcDbEntity
  8
1
  6
Continuous
 62
     7
370
     9
100
AcDbLine
 10
753.6064989695327
 20
-410.3661942674336
 30
0.0
 11
754.6361353350982
 21
-410.3661942674336
 31
0.0
  0
LINE
  5
2C8
330
1F
100
AcDbEntity
  8
1
  6
Continuous
 62
     7
370
     9
100
AcDbLine
 10
750.5264196249989
 20
-410.3661942674336
 30
0.0
 11
752.4943692283334
 21
-410.3661942674336
 31
0.0
  0
LINE
  5
2C9
330
1F
100
AcDbEntity
  8
1
  6
Continuous
 62
     7
370
     9
100
AcDbLine
 10
753.4263009530658
 20
-410.699527600767
 30
0.0
 11
754.8163333515664
 21
-410.699527600767
 31
0.0
  0
LINE
  5
2CA
330
1F
100
AcDbEntity
  8
1
  6
Continuous
 62
     7
370
     9
100
AcDbLine
 10
752.0752866792989
 20
-410.699527600767
 30
0.0
 11
752.2277025616661
 21
-410.699527600767
 31
0.0
  0
LINE
  5
2CB
330
1F
100
AcDbEntity
  8
1
  6
Continuous
 62
     7
370
     9
100
AcDbLine
 10
750.3092356629651
 20
-410.699527600767
 30
0.0
 11
751.7631444711657
 21
-410.699527600767
 31
0.0
  0
LINE
  5
2CC
330
1F
100
AcDbEntity
  8
1
  6
Continuous
 62
     7
370
     9
100
AcDbLine
 10
753.2051356409667
 20
-411.0328609341002
 30
0.0
 11
755.0374986636325
 21
-411.0328609341002
 31
0.0
  0
LINE
  5
2CD
330
1F
100
AcDbEntity
  8
1
  6
Continuous
 62
     7
370
     9
100
AcDbLine
 10
750.0551953358322
 20
-411.0328609341002
 30
0.0
 11
751.7698111378334
 21
-411.0328609341002
 31
0.0
  0
LINE
  5
2CE
330
1F
100
AcDbEntity
  8
1
  6
Continuous
 62
     7
370
     9
100
AcDbLine
 10
752.9345561980322
 20
-411.3661942674336
 30
0.0
 11
755.3080781065655
 21
-411.3661942674336
 31
0.0
  0
LINE
  5
2CF
330
1F
100
AcDbEntity
  8
1
  6
Continuous
 62
     7
370
     9
100
AcDbLine
 10
751.0930221717654
 20
-411.3661942674336
 30
0.0
 11
751.7764778044987
 21
-411.3661942674336
 31
0.0
  0
LINE
  5
2D0
330
1F
100
AcDbEntity
  8
1
  6
Continuous
 62
     7
370
     9
100
AcDbLine
 10
749.7572440399986
 20
-411.3661942674336
 30
0.0
 11
750.7977741641988
 21
-411.3661942674336
 31
0.0
  0
LINE
  5
2D1
330
1F
100
AcDbEntity
  8
1
  6
Continuous
 62
     7
370
     9
100
AcDbLine
 10
752.6006678922322
 20
-411.699527600767
 30
0.0
 11
755.6419664123998
 21
-411.699527600767
 31
0.0
  0
LINE
  5
2D2
330
1F
100
AcDbEntity
  8
1
  6
Continuous
 62
     7
370
     9
100
AcDbLine
 10
751.0863555050989
 20
-411.699527600767
 30
0.0
 11
751.7831444711649
 21
-411.699527600767
 31
0.0
  0
LINE
  5
2D3
330
1F
100
AcDbEntity
  8
1
  6
Continuous
 62
     7
370
     9
100
AcDbLine
 10
750.0473573097664
 20
-411.699527600767
 30
0.0
 11
750.5135041152326
 21
-411.699527600767
 31
0.0
  0
LINE
  5
2D4
330
1F
100
AcDbEntity
  8
1
  6
Continuous
 62
     7
370
     9
100
AcDbLine
 10
752.1777950593325
 20
-412.0328609341002
 30
0.0
 11
756.0648392452995
 21
-412.0328609341002
 31
0.0
  0
LINE
  5
2D5
330
1F
100
AcDbEntity
  8
1
  6
Continuous
 62
     7
370
     9
100
AcDbLine
 10
751.0796888384326
 20
-412.0328609341002
 30
0.0
 11
751.7898111378327
 21
-412.0328609341002
 31
0.0
  0
LINE
  5
2D6
330
1F
100
AcDbEntity
  8
1
  6
Continuous
 62
     7
370
     9
100
AcDbLine
 10
754.9697668648662
 20
-412.3661942674336
 30
0.0
 11
755.8354704120658
 21
-412.3661942674336
 31
0.0
  0
LINE
  5
2D7
330
1F
100
AcDbEntity
  8
1
  6
Continuous
 62
     7
370
     9
100
AcDbLine
 10
753.6479315982657
 20
-412.3661942674336
 30
0.0
 11
754.5947027063653
 21
-412.3661942674336
 31
0.0
  0
LINE
  5
2D8
330
1F
100
AcDbEntity
  8
1
  6
Continuous
 62
     7
370
     9
100
AcDbLine
 10
752.4071638925666
 20
-412.3661942674336
 30
0.0
 11
753.2728674397662
 21
-412.3661942674336
 31
0.0
  0
LINE
  5
2D9
330
1F
100
AcDbEntity
  8
1
  6
Continuous
 62
     7
370
     9
100
AcDbLine
 10
751.073022171765
 20
-412.3661942674336
 30
0.0
 11
751.7964778044991
 21
-412.3661942674336
 31
0.0
  0
LINE
  5
2DA
330
1F
100
AcDbEntity
  8
1
  6
Continuous
 62
     7
370
     9
100
AcDbLine
 10
755.3941310553323
 20
-412.6995276007668
 30
0.0
 11
755.5021370787331
 21
-412.6995276007668
 31
0.0
  0
LINE
  5
2DB
330
1F
100
AcDbEntity
  8
1
  6
Continuous
 62
     7
370
     9
100
AcDbLine
 10
753.637931598266
 20
-412.6995276007668
 30
0.0
 11
754.6047027063661
 21
-412.6995276007668
 31
0.0
  0
LINE
  5
2DC
330
1F
100
AcDbEntity
  8
1
  6
Continuous
 62
     7
370
     9
100
AcDbLine
 10
752.7404972258992
 20
-412.6995276007668
 30
0.0
 11
752.8485032492999
 21
-412.6995276007668
 31
0.0
  0
LINE
  5
2DD
330
1F
100
AcDbEntity
  8
1
  6
Continuous
 62
     7
370
     9
100
AcDbLine
 10
751.0663555050986
 20
-412.6995276007668
 30
0.0
 11
751.8031444711654
 21
-412.6995276007668
 31
0.0
  0
LINE
  5
2DE
330
1F
100
AcDbEntity
  8
1
  6
Continuous
 62
     7
370
     9
100
AcDbLine
 10
753.6279315982664
 20
-413.0328609341002
 30
0.0
 11
754.6147027063657
 21
-413.0328609341002
 31
0.0
  0
LINE
  5
2DF
330
1F
100
AcDbEntity
  8
1
  6
Continuous
 62
     7
370
     9
100
AcDbLine
 10
751.0596888384334
 20
-413.0328609341002
 30
0.0
 11
751.8098111378331
 21
-413.0328609341002
 31
0.0
  0
LINE
  5
2E0
330
1F
100
AcDbEntity
  8
1
  6
Continuous
 62
     7
370
     9
100
AcDbLine
 10
753.6347096155985
 20
-413.3661942674337
 30
0.0
 11
754.6079246889994
 21
-413.3661942674337
 31
0.0
  0
LINE
  5
2E1
330
1F
100
AcDbEntity
  8
1
  6
Continuous
 62
     7
370
     9
100
AcDbLine
 10
751.069633297632
 20
-413.3661942674337
 30
0.0
 11
751.799866678632
 21
-413.3661942674337
 31
0.0
  0
CIRCLE
  5
2E2
330
1F
100
AcDbEntity
  8
1
  6
Continuous
 62
     7
370
     9
100
AcDbCircle
 10
688.334148707966
 20
-303.0369676231335
 30
0.0
 40
0.4999999999999449
  0
MTEXT
  5
2E3
330
1F
100
AcDbEntity
  8
1
 62
     7
100
AcDbMText
 10
651.0584937336483
 20
-292.5838687898427
 30
0.0
 40
3.499999999999999
 41
0.0
 46
0.0
 71
     1
 72
     1
  1
{\fＭＳ ゴシック;\W0.85652;配管等}
 73
     1
 44
1.0
  0
LINE
  5
2E4
330
1F
100
AcDbEntity
  8
1
  6
Continuous
 62
     7
370
     9
100
AcDbLine
 10
688.334148707966
 20
-303.0369676231335
 30
0.0
 11
660.8668194151334
 21
-296.8929597550001
 31
0.0
  0
LINE
  5
2E5
330
1F
100
AcDbEntity
  8
1
  6
Continuous
 62
     7
370
     9
100
AcDbLine
 10
660.8668194151334
 20
-296.8929597550002
 30
0.0
 11
650.854096768833
 21
-296.8929597550002
 31
0.0
  0
CIRCLE
  5
2E6
330
1F
100
AcDbEntity
  8
1
  6
Continuous
 62
     7
370
     9
100
AcDbCircle
 10
661.8942491624991
 20
-326.1039900323
 30
0.0
 40
0.500000000000167
  0
MTEXT
  5
2E7
330
1F
100
AcDbEntity
  8
1
 62
     7
100
AcDbMText
 10
616.5162695480414
 20
-326.8947607898425
 30
0.0
 40
3.499999999999999
 41
0.0
 46
0.0
 71
     1
 72
     1
  1
{\fＭＳ ゴシック;\W0.953593;床}
 73
     1
 44
1.0
  0
MTEXT
  5
2E8
330
1F
100
AcDbEntity
  8
1
 62
     7
100
AcDbMText
 10
616.4820810707686
 20
-331.2356698807517
 30
0.0
 40
3.499999999999999
 41
0.0
 46
0.0
 71
     1
 72
     1
  1
{\fＭＳ ゴシック;\W0.810327;ALCパネル又はコンクリート}
 73
     1
 44
1.0
  0
LINE
  5
2E9
330
1F
100
AcDbEntity
  8
1
  6
Continuous
 62
     7
370
     9
100
AcDbLine
 10
616.2887075615998
 20
-335.5288517428001
 30
0.0
 11
658.008385254567
 21
-335.5288517428001
 31
0.0
  0
LINE
  5
2EA
330
1F
100
AcDbEntity
  8
1
  6
Continuous
 62
     7
370
     9
100
AcDbLine
 10
661.8942491624991
 20
-326.1039900323
 30
0.0
 11
658.008385254567
 21
-331.0288517428003
 31
0.0
  0
LINE
  5
2EB
330
1F
100
AcDbEntity
  8
1
  6
Continuous
 62
     7
370
     9
100
AcDbLine
 10
658.008385254567
 20
-331.0288517428003
 30
0.0
 11
616.2887075615998
 21
-331.0288517428003
 31
0.0
  0
LINE
  5
2EC
330
1F
100
AcDbEntity
  8
1
  6
Continuous
 62
     7
370
     9
100
AcDbLine
 10
656.0271216787327
 20
-307.4928956441335
 30
0.0
 11
658.9542996375652
 21
-304.5657176852669
 31
0.0
  0
LINE
  5
2ED
330
1F
100
AcDbEntity
  8
1
  6
Continuous
 62
     7
370
     9
100
AcDbLine
 10
656.0271216787327
 20
-328.7060990797335
 30
0.0
 11
666.9358762177659
 21
-317.7973445407001
 31
0.0
  0
LINE
  5
2EE
330
1F
100
AcDbEntity
  8
1
  6
Continuous
 62
     7
370
     9
100
AcDbLine
 10
731.9358762177658
 20
-316.4369548475
 30
0.0
 11
742.9575584983002
 21
-305.4152725669334
 31
0.0
  0
LINE
  5
2EF
330
1F
100
AcDbEntity
  8
1
  6
Continuous
 62
     7
370
     9
100
AcDbLine
 10
731.9358762177658
 20
-337.6501582831001
 30
0.0
 11
742.9575584983002
 21
-326.6284760025337
 31
0.0
  0
LINE
  5
2F0
330
1F
100
AcDbEntity
  8
1
  6
Continuous
 62
     7
370
     9
100
AcDbLine
 10
656.0271216787327
 20
-324.4634583925999
 30
0.0
 11
666.9358762177659
 21
-313.5547038536001
 31
0.0
  0
LINE
  5
2F1
330
1F
100
AcDbEntity
  8
1
  6
Continuous
 62
     7
370
     9
100
AcDbLine
 10
663.8047324771331
 20
-337.8990510298335
 30
0.0
 11
666.9358762177659
 21
-334.7679072891667
 31
0.0
  0
LINE
  5
2F2
330
1F
100
AcDbEntity
  8
1
  6
Continuous
 62
     7
370
     9
100
AcDbLine
 10
731.9358762177658
 20
-312.1943141603668
 30
0.0
 11
739.5644727003001
 21
-304.5657176778337
 31
0.0
  0
LINE
  5
2F3
330
1F
100
AcDbEntity
  8
1
  6
Continuous
 62
     7
370
     9
100
AcDbLine
 10
731.9358762177658
 20
-333.4075175959669
 30
0.0
 11
742.9575584983002
 21
-322.3858353154337
 31
0.0
  0
LINE
  5
2F4
330
1F
100
AcDbEntity
  8
1
  6
Continuous
 62
     7
370
     9
100
AcDbLine
 10
656.0271216787327
 20
-307.4928956441335
 30
0.0
 11
658.9542996375652
 21
-304.5657176852669
 31
0.0
  0
LINE
  5
2F5
330
1F
100
AcDbEntity
  8
1
  6
Continuous
 62
     7
370
     9
100
AcDbLine
 10
656.0271216787327
 20
-328.7060990797335
 30
0.0
 11
666.9358762177659
 21
-317.7973445407001
 31
0.0
  0
LINE
  5
2F6
330
1F
100
AcDbEntity
  8
1
  6
Continuous
 62
     7
370
     9
100
AcDbLine
 10
731.9358762177658
 20
-316.4369548475
 30
0.0
 11
742.9575584983002
 21
-305.4152725669334
 31
0.0
  0
LINE
  5
2F7
330
1F
100
AcDbEntity
  8
1
  6
Continuous
 62
     7
370
     9
100
AcDbLine
 10
731.9358762177658
 20
-337.6501582831001
 30
0.0
 11
742.9575584983002
 21
-326.6284760025337
 31
0.0
  0
LINE
  5
2F8
330
1F
100
AcDbEntity
  8
1
  6
Continuous
 62
     7
370
     9
100
AcDbLine
 10
760.9718642857
 20
-407.5145434307335
 30
0.0
 11
761.5136303603664
 21
-407.5145434307335
 31
0.0
  0
LINE
  5
2F9
330
1F
100
AcDbEntity
  8
1
  6
Continuous
 62
     7
370
     9
100
AcDbLine
 10
759.6239497916323
 20
-407.5145434307335
 30
0.0
 11
760.2380392659991
 21
-407.5145434307335
 31
0.0
  0
LINE
  5
2FA
330
1F
100
AcDbEntity
  8
1
  6
Continuous
 62
     7
370
     9
100
AcDbLine
 10
761.0324703462993
 20
-407.8478767640667
 30
0.0
 11
761.5742364209657
 21
-407.8478767640667
 31
0.0
  0
LINE
  5
2FB
330
1F
100
AcDbEntity
  8
1
  6
Continuous
 62
     7
370
     9
100
AcDbLine
 10
759.5945827306999
 20
-407.8478767640667
 30
0.0
 11
760.2204222681321
 21
-407.8478767640667
 31
0.0
  0
LINE
  5
2FC
330
1F
100
AcDbEntity
  8
1
  6
Continuous
 62
     7
370
     9
100
AcDbLine
 10
761.0370614725659
 20
-408.1812100974
 30
0.0
 11
761.634842481566
 21
-408.1812100974
 31
0.0
  0
LINE
  5
2FD
330
1F
100
AcDbEntity
  8
1
  6
Continuous
 62
     7
370
     9
100
AcDbLine
 10
759.4471621302653
 20
-408.1812100974
 30
0.0
 11
760.3567733800658
 21
-408.1812100974
 31
0.0
  0
LINE
  5
2FE
330
1F
100
AcDbEntity
  8
1
  6
Continuous
 62
     7
370
     9
100
AcDbLine
 10
756.0705915728668
 20
-408.5145434307335
 30
0.0
 11
761.6954485421994
 21
-408.5145434307335
 31
0.0
  0
LINE
  5
2FF
330
1F
100
AcDbEntity
  8
1
  6
Continuous
 62
     7
370
     9
100
AcDbLine
 10
756.0868737980988
 20
-408.8478767640667
 30
0.0
 11
761.4600081264659
 21
-408.8478767640667
 31
0.0
  0
LINE
  5
300
330
1F
100
AcDbEntity
  8
1
  6
Continuous
 62
     7
370
     9
100
AcDbLine
 10
759.5908387237668
 20
-409.1812100974
 30
0.0
 11
760.2633999604658
 21
-409.1812100974
 31
0.0
  0
LINE
  5
301
330
1F
100
AcDbEntity
  8
1
  6
Continuous
 62
     7
370
     9
100
AcDbLine
 10
759.6183174245322
 20
-409.5145434307336
 30
0.0
 11
760.3026937984329
 21
-409.5145434307336
 31
0.0
  0
LINE
  5
302
330
1F
100
AcDbEntity
  8
1
  6
Continuous
 62
     7
370
     9
100
AcDbLine
 10
759.6572949507664
 20
-409.8478767640667
 30
0.0
 11
760.3536250320669
 21
-409.8478767640667
 31
0.0
  0
LINE
  5
303
330
1F
100
AcDbEntity
  8
1
  6
Continuous
 62
     7
370
     9
100
AcDbLine
 10
756.4369416406989
 20
-409.8478767640667
 30
0.0
 11
759.1560732553661
 21
-409.8478767640667
 31
0.0
  0
LINE
  5
304
330
1F
100
AcDbEntity
  8
1
  6
Continuous
 62
     7
370
     9
100
AcDbLine
 10
759.7079103182665
 20
-410.1812100974001
 30
0.0
 11
760.416378651766
 21
-410.1812100974001
 31
0.0
  0
LINE
  5
305
330
1F
100
AcDbEntity
  8
1
  6
Continuous
 62
     7
370
     9
100
AcDbLine
 10
757.2437239294661
 20
-410.1812100974001
 30
0.0
 11
758.2271742756991
 21
-410.1812100974001
 31
0.0
  0
LINE
  5
306
330
1F
100
AcDbEntity
  8
1
  6
Continuous
 62
     7
370
     9
100
AcDbLine
 10
759.770347418933
 20
-410.5145434307332
 30
0.0
 11
760.491188027766
 21
-410.5145434307332
 31
0.0
  0
LINE
  5
307
330
1F
100
AcDbEntity
  8
1
  6
Continuous
 62
     7
370
     9
100
AcDbLine
 10
757.3292804602659
 20
-410.5145434307332
 30
0.0
 11
758.141617746499
 21
-410.5145434307332
 31
0.0
  0
LINE
  5
308
330
1F
100
AcDbEntity
  8
1
  6
Continuous
 62
     7
370
     9
100
AcDbLine
 10
759.8448384784654
 20
-410.8478767640668
 30
0.0
 11
760.5783394707989
 21
-410.8478767640668
 31
0.0
  0
LINE
  5
309
330
1F
100
AcDbEntity
  8
1
  6
Continuous
 62
     7
370
     9
100
AcDbLine
 10
757.3060765334659
 20
-410.8478767640668
 30
0.0
 11
758.1648216732993
 21
-410.8478767640668
 31
0.0
  0
LINE
  5
30A
330
1F
100
AcDbEntity
  8
1
  6
Continuous
 62
     7
370
     9
100
AcDbLine
 10
759.9316685933325
 20
-411.1812100974001
 30
0.0
 11
760.678178093499
 21
-411.1812100974001
 31
0.0
  0
LINE
  5
30B
330
1F
100
AcDbEntity
  8
1
  6
Continuous
 62
     7
370
     9
100
AcDbLine
 10
757.2828726066326
 20
-411.1812100974001
 30
0.0
 11
758.1880256001326
 21
-411.1812100974001
 31
0.0
  0
LINE
  5
30C
330
1F
100
AcDbEntity
  8
1
  6
Continuous
 62
     7
370
     9
100
AcDbLine
 10
760.0311815646986
 20
-411.5145434307333
 30
0.0
 11
760.7911152711333
 21
-411.5145434307333
 31
0.0
  0
LINE
  5
30D
330
1F
100
AcDbEntity
  8
1
  6
Continuous
 62
     7
370
     9
100
AcDbLine
 10
757.2596686798335
 20
-411.5145434307333
 30
0.0
 11
758.2117203634667
 21
-411.5145434307333
 31
0.0
  0
LINE
  5
30E
330
1F
100
AcDbEntity
  8
1
  6
Continuous
 62
     7
370
     9
100
AcDbLine
 10
760.1437873254998
 20
-411.8478767640668
 30
0.0
 11
760.9176381086652
 21
-411.8478767640668
 31
0.0
  0
LINE
  5
30F
330
1F
100
AcDbEntity
  8
1
  6
Continuous
 62
     7
370
     9
100
AcDbLine
 10
757.2263277216994
 20
-411.8478767640668
 30
0.0
 11
759.3432462149319
 21
-411.8478767640668
 31
0.0
  0
LINE
  5
310
330
1F
100
AcDbEntity
  8
1
  6
Continuous
 62
     7
370
     9
100
AcDbLine
 10
760.2699713666666
 20
-412.1812100974001
 30
0.0
 11
761.6159437830985
 21
-412.1812100974001
 31
0.0
  0
LINE
  5
311
330
1F
100
AcDbEntity
  8
1
  6
Continuous
 62
     7
370
     9
100
AcDbLine
 10
756.1996148381663
 20
-412.1812100974001
 30
0.0
 11
759.1223164054664
 21
-412.1812100974001
 31
0.0
  0
LINE
  5
312
330
1F
100
AcDbEntity
  8
1
  6
Continuous
 62
     7
370
     9
100
AcDbLine
 10
760.4103067181992
 20
-412.5145434307333
 30
0.0
 11
761.6462532451662
 21
-412.5145434307333
 31
0.0
  0
LINE
  5
313
330
1F
100
AcDbEntity
  8
1
  6
Continuous
 62
     7
370
     9
100
AcDbLine
 10
756.2412815048333
 20
-412.5145434307333
 30
0.0
 11
758.0389830721327
 21
-412.5145434307333
 31
0.0
  0
LINE
  5
314
330
1F
100
AcDbEntity
  8
1
  6
Continuous
 62
     7
370
     9
100
AcDbLine
 10
760.5654692567988
 20
-412.8478767640668
 30
0.0
 11
761.3719524220323
 21
-412.8478767640668
 31
0.0
  0
LINE
  5
315
330
1F
100
AcDbEntity
  8
1
  6
Continuous
 62
     7
370
     9
100
AcDbLine
 10
756.282948171532
 20
-412.8478767640668
 30
0.0
 11
756.9556497387988
 21
-412.8478767640668
 31
0.0
  0
LINE
  5
316
330
1F
100
AcDbEntity
  8
1
  6
Continuous
 62
     7
370
     9
100
AcDbLine
 10
760.737482520132
 20
-413.1812100973999
 30
0.0
 11
761.0713401044325
 21
-413.1812100973999
 31
0.0
  0
LINE
  5
317
330
1F
100
AcDbEntity
  8
1
  6
Continuous
 62
     7
370
     9
100
AcDbLine
 10
746.8464194585987
 20
-407.3661942674335
 30
0.0
 11
747.4933397859991
 21
-407.3661942674335
 31
0.0
  0
LINE
  5
318
330
1F
100
AcDbEntity
  8
1
  6
Continuous
 62
     7
370
     9
100
AcDbLine
 10
745.8694859443654
 20
-407.3661942674335
 30
0.0
 11
746.5164062717657
 21
-407.3661942674335
 31
0.0
  0
LINE
  5
319
330
1F
100
AcDbEntity
  8
1
  6
Continuous
 62
     7
370
     9
100
AcDbLine
 10
747.9412386399989
 20
-407.6995276007669
 30
0.0
 11
748.691743822732
 21
-407.6995276007669
 31
0.0
  0
LINE
  5
31A
330
1F
100
AcDbEntity
  8
1
  6
Continuous
 62
     7
370
     9
100
AcDbLine
 10
746.8360027919324
 20
-407.6995276007669
 30
0.0
 11
747.5044003786329
 21
-407.6995276007669
 31
0.0
  0
LINE
  5
31B
330
1F
100
AcDbEntity
  8
1
  6
Continuous
 62
     7
370
     9
100
AcDbLine
 10
745.858425351733
 20
-407.6995276007669
 30
0.0
 11
746.5268229384322
 21
-407.6995276007669
 31
0.0
  0
LINE
  5
31C
330
1F
100
AcDbEntity
  8
1
  6
Continuous
 62
     7
370
     9
100
AcDbLine
 10
744.6710819076326
 20
-407.6995276007669
 30
0.0
 11
745.4215870903656
 21
-407.6995276007669
 31
0.0
  0
LINE
  5
31D
330
1F
100
AcDbEntity
  8
1
  6
Continuous
 62
     7
370
     9
100
AcDbLine
 10
744.8361778424995
 20
-408.0328609341003
 30
0.0
 11
748.5266478878332
 21
-408.0328609341003
 31
0.0
  0
LINE
  5
31E
330
1F
100
AcDbEntity
  8
1
  6
Continuous
 62
     7
370
     9
100
AcDbLine
 10
743.9175051311328
 20
-408.3661942674335
 30
0.0
 11
749.445320599233
 21
-408.3661942674335
 31
0.0
  0
LINE
  5
31F
330
1F
100
AcDbEntity
  8
1
  6
Continuous
 62
     7
370
     9
100
AcDbLine
 10
743.9175051311328
 20
-408.6995276007669
 30
0.0
 11
749.445320599233
 21
-408.6995276007669
 31
0.0
  0
LINE
  5
320
330
1F
100
AcDbEntity
  8
1
  6
Continuous
 62
     7
370
     9
100
AcDbLine
 10
747.0929945669657
 20
-409.0328609341004
 30
0.0
 11
748.0266478878331
 21
-409.0328609341004
 31
0.0
  0
LINE
  5
321
330
1F
100
AcDbEntity
  8
1
  6
Continuous
 62
     7
370
     9
100
AcDbLine
 10
745.3361778425326
 20
-409.0328609341004
 30
0.0
 11
746.2698311633989
 21
-409.0328609341004
 31
0.0
  0
LINE
  5
322
330
1F
100
AcDbEntity
  8
1
  6
Continuous
 62
     7
370
     9
100
AcDbLine
 10
744.6599802579318
 20
-409.3661942674335
 30
0.0
 11
748.7028454724328
 21
-409.3661942674335
 31
0.0
  0
LINE
  5
323
330
1F
100
AcDbEntity
  8
1
  6
Continuous
 62
     7
370
     9
100
AcDbLine
 10
744.6502052667995
 20
-409.699527600767
 30
0.0
 11
748.7126204635653
 21
-409.699527600767
 31
0.0
  0
LINE
  5
324
330
1F
100
AcDbEntity
  8
1
  6
Continuous
 62
     7
370
     9
100
AcDbLine
 10
746.2833764433994
 20
-410.0328609341001
 30
0.0
 11
747.0794492869321
 21
-410.0328609341001
 31
0.0
  0
LINE
  5
325
330
1F
100
AcDbEntity
  8
1
  6
Continuous
 62
     7
370
     9
100
AcDbLine
 10
744.6502052667995
 20
-410.3661942674336
 30
0.0
 11
748.7126204635653
 21
-410.3661942674336
 31
0.0
  0
LINE
  5
326
330
1F
100
AcDbEntity
  8
1
  6
Continuous
 62
     7
370
     9
100
AcDbLine
 10
744.6502052667995
 20
-410.699527600767
 30
0.0
 11
748.7126204635653
 21
-410.699527600767
 31
0.0
  0
LINE
  5
327
330
1F
100
AcDbEntity
  8
1
  6
Continuous
 62
     7
370
     9
100
AcDbLine
 10
746.2698629298994
 20
-411.0328609341002
 30
0.0
 11
747.0929628004664
 21
-411.0328609341002
 31
0.0
  0
LINE
  5
328
330
1F
100
AcDbEntity
  8
1
  6
Continuous
 62
     7
370
     9
100
AcDbLine
 10
744.6502052667995
 20
-411.3661942674336
 30
0.0
 11
748.7126204635653
 21
-411.3661942674336
 31
0.0
  0
LINE
  5
329
330
1F
100
AcDbEntity
  8
1
  6
Continuous
 62
     7
370
     9
100
AcDbLine
 10
744.6502052667995
 20
-411.699527600767
 30
0.0
 11
748.7126204635653
 21
-411.699527600767
 31
0.0
  0
LINE
  5
32A
330
1F
100
AcDbEntity
  8
1
  6
Continuous
 62
     7
370
     9
100
AcDbLine
 10
745.3944357956325
 20
-412.0328609341002
 30
0.0
 11
747.9683899346988
 21
-412.0328609341002
 31
0.0
  0
LINE
  5
32B
330
1F
100
AcDbEntity
  8
1
  6
Continuous
 62
     7
370
     9
100
AcDbLine
 10
747.4003852020662
 20
-412.3661942674336
 30
0.0
 11
748.5292619831663
 21
-412.3661942674336
 31
0.0
  0
LINE
  5
32C
330
1F
100
AcDbEntity
  8
1
  6
Continuous
 62
     7
370
     9
100
AcDbLine
 10
746.2518449118661
 20
-412.3661942674336
 30
0.0
 11
747.1109808184655
 21
-412.3661942674336
 31
0.0
  0
LINE
  5
32D
330
1F
100
AcDbEntity
  8
1
  6
Continuous
 62
     7
370
     9
100
AcDbLine
 10
744.8335637471664
 20
-412.3661942674336
 30
0.0
 11
745.9624405282996
 21
-412.3661942674336
 31
0.0
  0
LINE
  5
32E
330
1F
100
AcDbEntity
  8
1
  6
Continuous
 62
     7
370
     9
100
AcDbLine
 10
747.7861610850332
 20
-412.6995276007668
 30
0.0
 11
749.2256881830324
 21
-412.6995276007668
 31
0.0
  0
LINE
  5
32F
330
1F
100
AcDbEntity
  8
1
  6
Continuous
 62
     7
370
     9
100
AcDbLine
 10
746.2473404073656
 20
-412.6995276007668
 30
0.0
 11
747.1154853229989
 21
-412.6995276007668
 31
0.0
  0
LINE
  5
330
330
1F
100
AcDbEntity
  8
1
  6
Continuous
 62
     7
370
     9
100
AcDbLine
 10
744.1371375473324
 20
-412.6995276007668
 30
0.0
 11
745.5766646453327
 21
-412.6995276007668
 31
0.0
  0
LINE
  5
331
330
1F
100
AcDbEntity
  8
1
  6
Continuous
 62
     7
370
     9
100
AcDbLine
 10
748.2345984265997
 20
-413.0328609341002
 30
0.0
 11
748.9850085232663
 21
-413.0328609341002
 31
0.0
  0
LINE
  5
332
330
1F
100
AcDbEntity
  8
1
  6
Continuous
 62
     7
370
     9
100
AcDbLine
 10
746.2428359028664
 20
-413.0328609341002
 30
0.0
 11
747.1199898275004
 21
-413.0328609341002
 31
0.0
  0
LINE
  5
333
330
1F
100
AcDbEntity
  8
1
  6
Continuous
 62
     7
370
     9
100
AcDbLine
 10
744.3778172070993
 20
-413.0328609341002
 30
0.0
 11
745.1282273037658
 21
-413.0328609341002
 31
0.0
  0
CIRCLE
  5
334
330
1F
100
AcDbEntity
  8
1
  6
Continuous
 62
     7
370
     9
100
AcDbCircle
 10
677.1231376955334
 20
-272.4052024695667
 30
0.0
 40
0.500000000000167
  0
MTEXT
  5
335
330
1F
100
AcDbEntity
  8
1
 62
     7
100
AcDbMText
 10
651.8484527715268
 20
-277.2482607898424
 30
0.0
 40
3.499999999999999
 41
0.0
 46
0.0
 71
     1
 72
     1
  1
{\fＭＳ ゴシック;\W0.83943;パテエース}
 73
     1
 44
1.0
  0
LINE
  5
336
330
1F
100
AcDbEntity
  8
1
  6
Continuous
 62
     7
370
     9
100
AcDbLine
 10
677.1231376955334
 20
-272.4052024695667
 30
0.0
 11
668.3360054509
 21
-281.3823516565335
 31
0.0
  0
LINE
  5
337
330
1F
100
AcDbEntity
  8
1
  6
Continuous
 62
     7
370
     9
100
AcDbLine
 10
668.3360054509001
 20
-281.3823516565336
 30
0.0
 11
651.6481343737331
 21
-281.3823516565336
 31
0.0
  0
LINE
  5
338
330
1F
100
AcDbEntity
  8
1
  6
Continuous
 62
     7
370
     9
100
AcDbLine
 10
772.230320477999
 20
-407.6827571284334
 30
0.0
 11
772.9007078155656
 21
-407.6827571284334
 31
0.0
  0
LINE
  5
339
330
1F
100
AcDbEntity
  8
1
  6
Continuous
 62
     7
370
     9
100
AcDbLine
 10
769.3628895087991
 20
-407.6827571284334
 30
0.0
 11
770.0286543885653
 21
-407.6827571284334
 31
0.0
  0
LINE
  5
33A
330
1F
100
AcDbEntity
  8
1
  6
Continuous
 62
     7
370
     9
100
AcDbLine
 10
772.2182722852327
 20
-408.0160904617668
 30
0.0
 11
772.9127560083333
 21
-408.0160904617668
 31
0.0
  0
LINE
  5
33B
330
1F
100
AcDbEntity
  8
1
  6
Continuous
 62
     7
370
     9
100
AcDbLine
 10
769.3528895087994
 20
-408.0160904617668
 30
0.0
 11
770.038654388565
 21
-408.0160904617668
 31
0.0
  0
LINE
  5
33C
330
1F
100
AcDbEntity
  8
1
  6
Continuous
 62
     7
370
     9
100
AcDbLine
 10
772.2062240924331
 20
-408.3494237951
 30
0.0
 11
772.9248042010985
 21
-408.3494237951
 31
0.0
  0
LINE
  5
33D
330
1F
100
AcDbEntity
  8
1
  6
Continuous
 62
     7
370
     9
100
AcDbLine
 10
768.2751477966999
 20
-408.3494237951
 30
0.0
 11
771.104200507899
 21
-408.3494237951
 31
0.0
  0
LINE
  5
33E
330
1F
100
AcDbEntity
  8
1
  6
Continuous
 62
     7
370
     9
100
AcDbLine
 10
772.1941758996657
 20
-408.6827571284334
 30
0.0
 11
772.9368523938662
 21
-408.6827571284334
 31
0.0
  0
LINE
  5
33F
330
1F
100
AcDbEntity
  8
1
  6
Continuous
 62
     7
370
     9
100
AcDbLine
 10
768.2751477966999
 20
-408.6827571284334
 30
0.0
 11
771.0321772925322
 21
-408.6827571284334
 31
0.0
  0
LINE
  5
340
330
1F
100
AcDbEntity
  8
1
  6
Continuous
 62
     7
370
     9
100
AcDbLine
 10
772.1431054991988
 20
-409.0160904617669
 30
0.0
 11
772.987922794333
 21
-409.0160904617669
 31
0.0
  0
LINE
  5
341
330
1F
100
AcDbEntity
  8
1
  6
Continuous
 62
     7
370
     9
100
AcDbLine
 10
770.283538151132
 20
-409.0160904617669
 30
0.0
 11
770.9349109227661
 21
-409.0160904617669
 31
0.0
  0
LINE
  5
342
330
1F
100
AcDbEntity
  8
1
  6
Continuous
 62
     7
370
     9
100
AcDbLine
 10
771.0838316501661
 20
-409.3494237951
 30
0.0
 11
774.0471966433656
 21
-409.3494237951
 31
0.0
  0
LINE
  5
343
330
1F
100
AcDbEntity
  8
1
  6
Continuous
 62
     7
370
     9
100
AcDbLine
 10
770.1292016556656
 20
-409.3494237951
 30
0.0
 11
770.8107539720321
 21
-409.3494237951
 31
0.0
  0
LINE
  5
344
330
1F
100
AcDbEntity
  8
1
  6
Continuous
 62
     7
370
     9
100
AcDbLine
 10
772.0419276946334
 20
-409.6827571284335
 30
0.0
 11
773.0891005989326
 21
-409.6827571284335
 31
0.0
  0
LINE
  5
345
330
1F
100
AcDbEntity
  8
1
  6
Continuous
 62
     7
370
     9
100
AcDbLine
 10
769.9184337915664
 20
-409.6827571284335
 30
0.0
 11
770.6573869343999
 21
-409.6827571284335
 31
0.0
  0
LINE
  5
346
330
1F
100
AcDbEntity
  8
1
  6
Continuous
 62
     7
370
     9
100
AcDbLine
 10
772.1459831285987
 20
-410.0160904617666
 30
0.0
 11
772.9850451649662
 21
-410.0160904617666
 31
0.0
  0
LINE
  5
347
330
1F
100
AcDbEntity
  8
1
  6
Continuous
 62
     7
370
     9
100
AcDbLine
 10
769.6606323840334
 20
-410.0160904617666
 30
0.0
 11
770.8164020929992
 21
-410.0160904617666
 31
0.0
  0
LINE
  5
348
330
1F
100
AcDbEntity
  8
1
  6
Continuous
 62
     7
370
     9
100
AcDbLine
 10
772.1339349358324
 20
-410.3494237951001
 30
0.0
 11
772.9970933577326
 21
-410.3494237951001
 31
0.0
  0
LINE
  5
349
330
1F
100
AcDbEntity
  8
1
  6
Continuous
 62
     7
370
     9
100
AcDbLine
 10
769.3435595620666
 20
-410.3494237951001
 30
0.0
 11
771.2924514285666
 21
-410.3494237951001
 31
0.0
  0
LINE
  5
34A
330
1F
100
AcDbEntity
  8
1
  6
Continuous
 62
     7
370
     9
100
AcDbLine
 10
772.1218867430658
 20
-410.6827571284335
 30
0.0
 11
773.009141550499
 21
-410.6827571284335
 31
0.0
  0
LINE
  5
34B
330
1F
100
AcDbEntity
  8
1
  6
Continuous
 62
     7
370
     9
100
AcDbLine
 10
770.5491991709657
 20
-410.6827571284335
 30
0.0
 11
771.441730483599
 21
-410.6827571284335
 31
0.0
  0
LINE
  5
34C
330
1F
100
AcDbEntity
  8
1
  6
Continuous
 62
     7
370
     9
100
AcDbLine
 10
768.9453542322993
 20
-410.6827571284335
 30
0.0
 11
770.1220117659
 21
-410.6827571284335
 31
0.0
  0
LINE
  5
34D
330
1F
100
AcDbEntity
  8
1
  6
Continuous
 62
     7
370
     9
100
AcDbLine
 10
772.1098385502651
 20
-411.0160904617667
 30
0.0
 11
773.0211897432666
 21
-411.0160904617667
 31
0.0
  0
LINE
  5
34E
330
1F
100
AcDbEntity
  8
1
  6
Continuous
 62
     7
370
     9
100
AcDbLine
 10
771.0624874922323
 20
-411.0160904617667
 30
0.0
 11
771.3118871936991
 21
-411.0160904617667
 31
0.0
  0
LINE
  5
34F
330
1F
100
AcDbEntity
  8
1
  6
Continuous
 62
     7
370
     9
100
AcDbLine
 10
768.4190870921658
 20
-411.0160904617667
 30
0.0
 11
770.1286543885652
 21
-411.0160904617667
 31
0.0
  0
LINE
  5
350
330
1F
100
AcDbEntity
  8
1
  6
Continuous
 62
     7
370
     9
100
AcDbLine
 10
772.0977903574998
 20
-411.3494237951001
 30
0.0
 11
773.033237936033
 21
-411.3494237951001
 31
0.0
  0
LINE
  5
351
330
1F
100
AcDbEntity
  8
1
  6
Continuous
 62
     7
370
     9
100
AcDbLine
 10
767.6226418561328
 20
-411.3494237951001
 30
0.0
 11
770.138654388566
 21
-411.3494237951001
 31
0.0
  0
LINE
  5
352
330
1F
100
AcDbEntity
  8
1
  6
Continuous
 62
     7
370
     9
100
AcDbLine
 10
772.0857421647323
 20
-411.6827571284335
 30
0.0
 11
773.0452861287995
 21
-411.6827571284335
 31
0.0
  0
LINE
  5
353
330
1F
100
AcDbEntity
  8
1
  6
Continuous
 62
     7
370
     9
100
AcDbLine
 10
769.2425691306322
 20
-411.6827571284335
 30
0.0
 11
770.1486543885655
 21
-411.6827571284335
 31
0.0
  0
LINE
  5
354
330
1F
100
AcDbEntity
  8
1
  6
Continuous
 62
     7
370
     9
100
AcDbLine
 10
768.0615859333998
 20
-411.6827571284335
 30
0.0
 11
768.7660073415325
 21
-411.6827571284335
 31
0.0
  0
LINE
  5
355
330
1F
100
AcDbEntity
  8
1
  6
Continuous
 62
     7
370
     9
100
AcDbLine
 10
772.0736939719658
 20
-412.0160904617667
 30
0.0
 11
773.0573343215658
 21
-412.0160904617667
 31
0.0
  0
LINE
  5
356
330
1F
100
AcDbEntity
  8
1
  6
Continuous
 62
     7
370
     9
100
AcDbLine
 10
769.2328895087993
 20
-412.0160904617667
 30
0.0
 11
770.1586543885652
 21
-412.0160904617667
 31
0.0
  0
LINE
  5
357
330
1F
100
AcDbEntity
  8
1
  6
Continuous
 62
     7
370
     9
100
AcDbLine
 10
771.8923102026661
 20
-412.3494237951001
 30
0.0
 11
773.2387180908656
 21
-412.3494237951001
 31
0.0
  0
LINE
  5
358
330
1F
100
AcDbEntity
  8
1
  6
Continuous
 62
     7
370
     9
100
AcDbLine
 10
769.2228895087985
 20
-412.3494237951001
 30
0.0
 11
770.1686543885662
 21
-412.3494237951001
 31
0.0
  0
LINE
  5
359
330
1F
100
AcDbEntity
  8
1
  6
Continuous
 62
     7
370
     9
100
AcDbLine
 10
770.5953648930329
 20
-412.6827571284333
 30
0.0
 11
774.5356634004988
 21
-412.6827571284333
 31
0.0
  0
LINE
  5
35A
330
1F
100
AcDbEntity
  8
1
  6
Continuous
 62
     7
370
     9
100
AcDbLine
 10
769.212889508799
 20
-412.6827571284333
 30
0.0
 11
770.1786543885657
 21
-412.6827571284333
 31
0.0
  0
LINE
  5
35B
330
1F
100
AcDbEntity
  8
1
  6
Continuous
 62
     7
370
     9
100
AcDbLine
 10
770.5953648930329
 20
-413.0160904617667
 30
0.0
 11
774.5356634004988
 21
-413.0160904617667
 31
0.0
  0
LINE
  5
35C
330
1F
100
AcDbEntity
  8
1
  6
Continuous
 62
     7
370
     9
100
AcDbLine
 10
769.2028895087993
 20
-413.0160904617667
 30
0.0
 11
770.1886543885654
 21
-413.0160904617667
 31
0.0
  0
LINE
  5
35D
330
1F
100
AcDbEntity
  8
1
  6
Continuous
 62
     7
370
     9
100
AcDbLine
 10
769.1928895087983
 20
-413.3494237951002
 30
0.0
 11
770.1986543885661
 21
-413.3494237951002
 31
0.0
  0
ENDSEC
  0
SECTION
  2
OBJECTS
  0
DICTIONARY
  5
C
330
0
100
AcDbDictionary
281
     1
  3
ACAD_DETAILVIEWSTYLE
350
365
  3
ACAD_GROUP
350
D
  3
ACAD_LAYOUT
350
1A
  3
ACAD_MATERIAL
350
43
  3
ACAD_MLEADERSTYLE
350
6B
  3
ACAD_MLINESTYLE
350
17
  3
ACAD_PLOTSETTINGS
350
19
  3
ACAD_PLOTSTYLENAME
350
E
  3
ACAD_SCALELIST
350
47
  3
ACAD_SECTIONVIEWSTYLE
350
366
  3
ACAD_TABLESTYLE
350
69
  3
ACAD_VISUALSTYLE
350
2A
  3
ACDB_RECOMPOSE_DATA
350
362
  3
AcDbVariableDictionary
350
35E
  0
SUN
  5
6D
330
29
100
AcDbSun
 90
        1
290
     0
 63
     7
421
 16777215
 40
1.0
291
     1
 91
  2455826
 92
 54000000
292
     0
 70
     2
 71
   256
280
     1
  0
DICTIONARY
  5
365
102
{ACAD_REACTORS
330
C
102
}
330
C
100
AcDbDictionary
281
     1
  0
DICTIONARY
  5
D
102
{ACAD_REACTORS
330
C
102
}
330
C
100
AcDbDictionary
281
     1
  0
DICTIONARY
  5
1A
102
{ACAD_REACTORS
330
C
102
}
330
C
100
AcDbDictionary
281
     1
  3
Layout1
350
1E
  3
Layout2
350
26
  3
Model
350
22
  0
DICTIONARY
  5
43
102
{ACAD_REACTORS
330
C
102
}
330
C
100
AcDbDictionary
281
     1
  3
ByBlock
350
45
  3
ByLayer
350
44
  3
Global
350
46
  0
DICTIONARY
  5
6B
102
{ACAD_REACTORS
330
C
102
}
330
C
100
AcDbDictionary
281
     1
  3
Standard
350
6C
  0
DICTIONARY
  5
17
102
{ACAD_REACTORS
330
C
102
}
330
C
100
AcDbDictionary
281
     1
  3
Standard
350
18
  0
DICTIONARY
  5
19
102
{ACAD_REACTORS
330
C
102
}
330
C
100
AcDbDictionary
281
     1
  0
ACDBDICTIONARYWDFLT
  5
E
102
{ACAD_REACTORS
330
C
102
}
330
C
100
AcDbDictionary
281
     1
  3
Normal
350
F
100
AcDbDictionaryWithDefault
340
F
  0
DICTIONARY
  5
47
102
{ACAD_REACTORS
330
C
102
}
330
C
100
AcDbDictionary
281
     1
  3
A0
350
48
  3
A1
350
49
  3
A2
350
4A
  3
A3
350
4B
  3
A4
350
4C
  3
A5
350
4D
  3
A6
350
4E
  3
A7
350
4F
  3
A8
350
50
  3
A9
350
51
  3
B0
350
52
  3
B1
350
53
  3
B2
350
54
  3
B3
350
55
  3
B4
350
56
  3
B5
350
57
  3
B6
350
58
  3
B7
350
59
  3
B8
350
5A
  3
B9
350
5B
  3
C0
350
5C
  3
C1
350
5D
  3
C2
350
5E
  3
C3
350
5F
  3
C4
350
60
  3
C5
350
61
  3
C6
350
62
  3
C7
350
63
  3
C8
350
64
  3
C9
350
65
  3
D0
350
66
  3
D1
350
67
  3
D2
350
68
  0
DICTIONARY
  5
366
102
{ACAD_REACTORS
330
C
102
}
330
C
100
AcDbDictionary
281
     1
  0
DICTIONARY
  5
69
102
{ACAD_REACTORS
330
C
102
}
330
C
100
AcDbDictionary
281
     1
  3
Standard
350
6A
  0
DICTIONARY
  5
2A
102
{ACAD_REACTORS
330
C
102
}
330
C
100
AcDbDictionary
281
     1
  3
2dWireframe
350
2F
  3
Basic
350
32
  3
Brighten
350
36
  3
ColorChange
350
3A
  3
Conceptual
350
34
  3
Dim
350
35
  3
EdgeColorOff
350
3D
  3
Facepattern
350
39
  3
Flat
350
2B
  3
FlatWithEdges
350
2C
  3
Gouraud
350
2D
  3
GouraudWithEdges
350
2E
  3
Hidden
350
31
  3
JitterOff
350
3B
  3
Linepattern
350
38
  3
OverhangOff
350
3C
  3
Realistic
350
33
  3
Shaded
350
42
  3
Shaded with edges
350
41
  3
Shades of Gray
350
3E
  3
Sketchy
350
3F
  3
Thicken
350
37
  3
Wireframe
350
30
  3
X-Ray
350
40
  0
XRECORD
  5
362
102
{ACAD_REACTORS
330
C
102
}
330
C
100
AcDbXrecord
280
     1
 90
        1
330
6A
  0
DICTIONARY
  5
35E
102
{ACAD_REACTORS
330
C
102
}
330
C
100
AcDbDictionary
281
     1
  3
CANNOSCALE
350
35F
  3
CMLEADERSTYLE
350
364
  3
CTABLESTYLE
350
363
  0
LAYOUT
  5
1E
102
{ACAD_REACTORS
330
1A
102
}
330
1A
100
AcDbPlotSettings
  1

  2
none_device
  4

  6

 40
0.0
 41
0.0
 42
0.0
 43
0.0
 44
0.0
 45
0.0
 46
0.0
 47
0.0
 48
0.0
 49
0.0
140
0.0
141
0.0
142
1.0
143
1.0
 70
   688
 72
     0
 73
     0
 74
     5
  7

 75
    16
 76
     0
 77
     2
 78
   300
147
1.0
148
0.0
149
0.0
100
AcDbLayout
  1
Layout1
 70
     1
 71
     1
 10
0.0
 20
0.0
 11
12.0
 21
9.0
 12
0.0
 22
0.0
 32
0.0
 14
1.000000000000000E+20
 24
1.000000000000000E+20
 34
1.000000000000000E+20
 15
-1.000000000000000E+20
 25
-1.000000000000000E+20
 35
-1.000000000000000E+20
146
0.0
 13
0.0
 23
0.0
 33
0.0
 16
1.0
 26
0.0
 36
0.0
 17
0.0
 27
1.0
 37
0.0
 76
     0
330
1B
  0
LAYOUT
  5
26
102
{ACAD_REACTORS
330
1A
102
}
330
1A
100
AcDbPlotSettings
  1

  2
none_device
  4

  6

 40
0.0
 41
0.0
 42
0.0
 43
0.0
 44
0.0
 45
0.0
 46
0.0
 47
0.0
 48
0.0
 49
0.0
140
0.0
141
0.0
142
1.0
143
1.0
 70
   688
 72
     0
 73
     0
 74
     5
  7

 75
    16
 76
     0
 77
     2
 78
   300
147
1.0
148
0.0
149
0.0
100
AcDbLayout
  1
Layout2
 70
     1
 71
     2
 10
0.0
 20
0.0
 11
0.0
 21
0.0
 12
0.0
 22
0.0
 32
0.0
 14
0.0
 24
0.0
 34
0.0
 15
0.0
 25
0.0
 35
0.0
146
0.0
 13
0.0
 23
0.0
 33
0.0
 16
1.0
 26
0.0
 36
0.0
 17
0.0
 27
1.0
 37
0.0
 76
     0
330
23
  0
LAYOUT
  5
22
102
{ACAD_REACTORS
330
1A
102
}
330
1A
100
AcDbPlotSettings
  1

  2
none_device
  4
Letter_(8.50_x_11.00_Inches)
  6

 40
6.35
 41
6.35
 42
6.35000508
 43
6.35000508
 44
215.9
 45
279.4
 46
0.0
 47
0.0
 48
0.0
 49
0.0
140
0.0
141
0.0
142
1.0
143
1.0
 70
  1712
 72
     0
 73
     0
 74
     0
  7

 75
     0
 76
     0
 77
     2
 78
   300
147
1.0
148
0.0
149
0.0
100
AcDbLayout
  1
Model
 70
     1
 71
     0
 10
0.0
 20
0.0
 11
12.0
 21
9.0
 12
0.0
 22
0.0
 32
0.0
 14
590.05
 24
-431.0000000001
 34
0.0
 15
799.9499999999999
 25
-54.96180921408493
 35
0.0
146
0.0
 13
0.0
 23
0.0
 33
0.0
 16
1.0
 26
0.0
 36
0.0
 17
0.0
 27
1.0
 37
0.0
 76
     0
330
1F
331
29
  0
MATERIAL
  5
45
102
{ACAD_REACTORS
330
43
102
}
330
43
100
AcDbMaterial
  1
ByBlock
 72
     1
 94
      127
  0
MATERIAL
  5
44
102
{ACAD_REACTORS
330
43
102
}
330
43
100
AcDbMaterial
  1
ByLayer
 72
     1
 94
      127
  0
MATERIAL
  5
46
102
{ACAD_REACTORS
330
43
102
}
330
43
100
AcDbMaterial
  1
Global
 72
     1
 94
      127
  0
MLEADERSTYLE
  5
6C
102
{ACAD_REACTORS
330
6B
102
}
330
6B
100
AcDbMLeaderStyle
179
     2
170
     2
171
     1
172
     0
 90
        2
 40
0.0
 41
0.0
173
     1
 91
-1056964608
340
14
 92
       -2
290
     1
 42
0.09
291
     1
 43
0.36
  3
Standard
341
0
 44
0.18
300

342
11
174
     1
178
     6
175
     1
176
     0
 93
-1056964608
 45
0.18
292
     0
297
     0
 46
0.18
343
0
 94
-1056964608
 47
1.0
 49
1.0
140
1.0
293
     1
141
0.0
294
     1
177
     0
142
1.0
295
     0
296
     0
143
0.125
271
     0
272
     9
273
     9
298
     0
  0
MLINESTYLE
  5
18
102
{ACAD_REACTORS
330
17
102
}
330
17
100
AcDbMlineStyle
  2
Standard
 70
     0
  3

 62
   256
 51
90.0
 52
90.0
 71
     2
 49
0.5
 62
   256
  6
BYLAYER
 49
-0.5
 62
   256
  6
BYLAYER
  0
ACDBPLACEHOLDER
  5
F
102
{ACAD_REACTORS
330
E
102
}
330
E
  0
SCALE
  5
48
102
{ACAD_REACTORS
330
47
102
}
330
47
100
AcDbScale
 70
     0
300
1:1
140
1.0
141
1.0
290
     1
  0
SCALE
  5
49
102
{ACAD_REACTORS
330
47
102
}
330
47
100
AcDbScale
 70
     0
300
1:2
140
1.0
141
2.0
290
     0
  0
SCALE
  5
4A
102
{ACAD_REACTORS
330
47
102
}
330
47
100
AcDbScale
 70
     0
300
1:4
140
1.0
141
4.0
290
     0
  0
SCALE
  5
4B
102
{ACAD_REACTORS
330
47
102
}
330
47
100
AcDbScale
 70
     0
300
1:5
140
1.0
141
5.0
290
     0
  0
SCALE
  5
4C
102
{ACAD_REACTORS
330
47
102
}
330
47
100
AcDbScale
 70
     0
300
1:8
140
1.0
141
8.0
290
     0
  0
SCALE
  5
4D
102
{ACAD_REACTORS
330
47
102
}
330
47
100
AcDbScale
 70
     0
300
1:10
140
1.0
141
10.0
290
     0
  0
SCALE
  5
4E
102
{ACAD_REACTORS
330
47
102
}
330
47
100
AcDbScale
 70
     0
300
1:16
140
1.0
141
16.0
290
     0
  0
SCALE
  5
4F
102
{ACAD_REACTORS
330
47
102
}
330
47
100
AcDbScale
 70
     0
300
1:20
140
1.0
141
20.0
290
     0
  0
SCALE
  5
50
102
{ACAD_REACTORS
330
47
102
}
330
47
100
AcDbScale
 70
     0
300
1:30
140
1.0
141
30.0
290
     0
  0
SCALE
  5
51
102
{ACAD_REACTORS
330
47
102
}
330
47
100
AcDbScale
 70
     0
300
1:40
140
1.0
141
40.0
290
     0
  0
SCALE
  5
52
102
{ACAD_REACTORS
330
47
102
}
330
47
100
AcDbScale
 70
     0
300
1:50
140
1.0
141
50.0
290
     0
  0
SCALE
  5
53
102
{ACAD_REACTORS
330
47
102
}
330
47
100
AcDbScale
 70
     0
300
1:100
140
1.0
141
100.0
290
     0
  0
SCALE
  5
54
102
{ACAD_REACTORS
330
47
102
}
330
47
100
AcDbScale
 70
     0
300
2:1
140
2.0
141
1.0
290
     0
  0
SCALE
  5
55
102
{ACAD_REACTORS
330
47
102
}
330
47
100
AcDbScale
 70
     0
300
4:1
140
4.0
141
1.0
290
     0
  0
SCALE
  5
56
102
{ACAD_REACTORS
330
47
102
}
330
47
100
AcDbScale
 70
     0
300
8:1
140
8.0
141
1.0
290
     0
  0
SCALE
  5
57
102
{ACAD_REACTORS
330
47
102
}
330
47
100
AcDbScale
 70
     0
300
10:1
140
10.0
141
1.0
290
     0
  0
SCALE
  5
58
102
{ACAD_REACTORS
330
47
102
}
330
47
100
AcDbScale
 70
     0
300
100:1
140
100.0
141
1.0
290
     0
  0
SCALE
  5
59
102
{ACAD_REACTORS
330
47
102
}
330
47
100
AcDbScale
 70
     0
300
1/128" = 1'-0"
140
0.0078125
141
12.0
290
     0
  0
SCALE
  5
5A
102
{ACAD_REACTORS
330
47
102
}
330
47
100
AcDbScale
 70
     0
300
1/64" = 1'-0"
140
0.015625
141
12.0
290
     0
  0
SCALE
  5
5B
102
{ACAD_REACTORS
330
47
102
}
330
47
100
AcDbScale
 70
     0
300
1/32" = 1'-0"
140
0.03125
141
12.0
290
     0
  0
SCALE
  5
5C
102
{ACAD_REACTORS
330
47
102
}
330
47
100
AcDbScale
 70
     0
300
1/16" = 1'-0"
140
0.0625
141
12.0
290
     0
  0
SCALE
  5
5D
102
{ACAD_REACTORS
330
47
102
}
330
47
100
AcDbScale
 70
     0
300
3/32" = 1'-0"
140
0.09375
141
12.0
290
     0
  0
SCALE
  5
5E
102
{ACAD_REACTORS
330
47
102
}
330
47
100
AcDbScale
 70
     0
300
1/8" = 1'-0"
140
0.125
141
12.0
290
     0
  0
SCALE
  5
5F
102
{ACAD_REACTORS
330
47
102
}
330
47
100
AcDbScale
 70
     0
300
3/16" = 1'-0"
140
0.1875
141
12.0
290
     0
  0
SCALE
  5
60
102
{ACAD_REACTORS
330
47
102
}
330
47
100
AcDbScale
 70
     0
300
1/4" = 1'-0"
140
0.25
141
12.0
290
     0
  0
SCALE
  5
61
102
{ACAD_REACTORS
330
47
102
}
330
47
100
AcDbScale
 70
     0
300
3/8" = 1'-0"
140
0.375
141
12.0
290
     0
  0
SCALE
  5
62
102
{ACAD_REACTORS
330
47
102
}
330
47
100
AcDbScale
 70
     0
300
1/2" = 1'-0"
140
0.5
141
12.0
290
     0
  0
SCALE
  5
63
102
{ACAD_REACTORS
330
47
102
}
330
47
100
AcDbScale
 70
     0
300
3/4" = 1'-0"
140
0.75
141
12.0
290
     0
  0
SCALE
  5
64
102
{ACAD_REACTORS
330
47
102
}
330
47
100
AcDbScale
 70
     0
300
1" = 1'-0"
140
1.0
141
12.0
290
     0
  0
SCALE
  5
65
102
{ACAD_REACTORS
330
47
102
}
330
47
100
AcDbScale
 70
     0
300
1-1/2" = 1'-0"
140
1.5
141
12.0
290
     0
  0
SCALE
  5
66
102
{ACAD_REACTORS
330
47
102
}
330
47
100
AcDbScale
 70
     0
300
3" = 1'-0"
140
3.0
141
12.0
290
     0
  0
SCALE
  5
67
102
{ACAD_REACTORS
330
47
102
}
330
47
100
AcDbScale
 70
     0
300
6" = 1'-0"
140
6.0
141
12.0
290
     0
  0
SCALE
  5
68
102
{ACAD_REACTORS
330
47
102
}
330
47
100
AcDbScale
 70
     0
300
1'-0" = 1'-0"
140
12.0
141
12.0
290
     0
  0
TABLESTYLE
  5
6A
102
{ACAD_REACTORS
330
69
102
}
102
{ACAD_XDICTIONARY
360
360
102
}
330
69
100
AcDbTableStyle
  3
Standard
 70
     0
 71
     0
 40
0.06
 41
0.06
280
     0
281
     0
  7
Standard
140
0.18
170
     2
 62
     0
 63
   257
283
     0
 90
        4
 91
        0
  1

274
    -2
284
     1
 64
     0
275
    -2
285
     1
 65
     0
276
    -2
286
     1
 66
     0
277
    -2
287
     1
 67
     0
278
    -2
288
     1
 68
     0
279
    -2
289
     1
 69
     0
  7
Standard
140
0.25
170
     5
 62
     0
 63
   257
283
     0
 90
        4
 91
        0
  1

274
    -2
284
     1
 64
     0
275
    -2
285
     1
 65
     0
276
    -2
286
     1
 66
     0
277
    -2
287
     1
 67
     0
278
    -2
288
     1
 68
     0
279
    -2
289
     1
 69
     0
  7
Standard
140
0.18
170
     5
 62
     0
 63
   257
283
     0
 90
        4
 91
        0
  1

274
    -2
284
     1
 64
     0
275
    -2
285
     1
 65
     0
276
    -2
286
     1
 66
     0
277
    -2
287
     1
 67
     0
278
    -2
288
     1
 68
     0
279
    -2
289
     1
 69
     0
  0
VISUALSTYLE
  5
2F
102
{ACAD_REACTORS
330
2A
102
}
330
2A
100
AcDbVisualStyle
  2
2dWireframe
 70
     4
177
     3
291
     0
 70
    58
 90
        0
176
     1
 90
        2
176
     1
 90
        0
176
     1
 90
        0
176
     1
 40
0.6
176
     1
 40
30.0
176
     1
 62
     7
420
 16777215
176
     1
 90
        1
176
     1
 90
        4
176
     1
 62
     7
176
     1
 62
   257
176
     1
 90
        1
176
     1
 90
        1
176
     1
 40
1.0
176
     1
 90
        0
176
     1
 62
   257
176
     1
 40
1.0
176
     1
 90
        1
176
     1
 90
        6
176
     1
 90
        2
176
     1
 62
     7
176
     1
 90
        5
176
     1
 90
        0
176
     1
 90
        0
176
     1
290
     0
176
     1
 90
        1
176
     1
 40
0.0
176
     1
 90
        0
176
     1
290
     1
176
     1
290
     1
176
     1
290
     0
176
     1
290
     0
176
     1
290
     0
176
     1
290
     0
176
     1
290
     0
176
     1
290
     0
176
     1
290
     0
176
     1
 90
       50
176
     1
 40
0.0
176
     1
 40
1.0
176
     1
 90
        0
176
     1
 62
    18
420
        0
176
     1
 90
       50
176
     1
 90
        3
176
     1
 62
     5
420
      255
176
     1
290
     0
176
     1
 90
       50
176
     1
 90
       50
176
     1
 90
       50
176
     1
290
     0
176
     1
 90
       50
176
     1
 62
   256
176
     0
 40
1.0
176
     0
 90
        2
176
     1
  1
strokes_ogs.tif
176
     1
290
     0
176
     1
 40
1.0
176
     1
 40
1.0
176
     1
  0
VISUALSTYLE
  5
32
102
{ACAD_REACTORS
330
2A
102
}
330
2A
100
AcDbVisualStyle
  2
Basic
 70
     7
177
     3
291
     1
 70
    58
 90
        1
176
     1
 90
        0
176
     1
 90
        1
176
     1
 90
        0
176
     1
 40
0.6
176
     1
 40
30.0
176
     1
 62
     7
420
 16777215
176
     1
 90
        0
176
     1
 90
        4
176
     1
 62
     7
176
     1
 62
   257
176
     1
 90
        1
176
     1
 90
        1
176
     1
 40
1.0
176
     1
 90
        8
176
     1
 62
     7
176
     1
 40
1.0
176
     1
 90
        1
176
     1
 90
        6
176
     1
 90
        2
176
     1
 62
     7
176
     1
 90
        5
176
     1
 90
        0
176
     1
 90
        0
176
     1
290
     0
176
     1
 90
        1
176
     1
 40
0.0
176
     1
 90
        0
176
     1
290
     0
176
     1
290
     1
176
     1
290
     1
176
     1
290
     0
176
     1
290
     0
176
     1
290
     0
176
     1
290
     0
176
     1
290
     0
176
     1
290
     0
176
     1
 90
       50
176
     1
 40
0.0
176
     1
 40
1.0
176
     1
 90
        0
176
     1
 62
    18
420
        0
176
     1
 90
       50
176
     1
 90
        3
176
     1
 62
     5
420
      255
176
     1
290
     0
176
     1
 90
       50
176
     1
 90
       50
176
     1
 90
       50
176
     1
290
     0
176
     1
 90
       50
176
     1
 62
   256
176
     0
 40
1.0
176
     0
 90
        2
176
     1
  1
strokes_ogs.tif
176
     1
290
     0
176
     1
 40
1.0
176
     1
 40
1.0
176
     1
  0
VISUALSTYLE
  5
36
102
{ACAD_REACTORS
330
2A
102
}
330
2A
100
AcDbVisualStyle
  2
Brighten
 70
    12
177
     3
291
     1
 70
    58
 90
        2
176
     1
 90
        2
176
     1
 90
        0
176
     1
 90
        0
176
     1
 40
0.6
176
     1
 40
30.0
176
     1
 62
     7
420
 16777215
176
     1
 90
        1
176
     1
 90
        4
176
     1
 62
     7
176
     1
 62
   257
176
     1
 90
        1
176
     1
 90
        1
176
     1
 40
1.0
176
     1
 90
        8
176
     1
 62
     7
176
     1
 40
1.0
176
     1
 90
        1
176
     1
 90
        6
176
     1
 90
        2
176
     1
 62
     7
176
     1
 90
        5
176
     1
 90
        0
176
     1
 90
        0
176
     1
290
     0
176
     1
 90
        1
176
     1
 40
50.0
176
     1
 90
        0
176
     1
290
     0
176
     1
290
     1
176
     1
290
     1
176
     1
290
     0
176
     1
290
     0
176
     1
290
     0
176
     1
290
     0
176
     1
290
     0
176
     1
290
     0
176
     1
 90
       50
176
     1
 40
0.0
176
     1
 40
1.0
176
     1
 90
        0
176
     1
 62
    18
420
        0
176
     1
 90
       50
176
     1
 90
        3
176
     1
 62
     5
420
      255
176
     1
290
     0
176
     1
 90
       50
176
     1
 90
       50
176
     1
 90
       50
176
     1
290
     0
176
     1
 90
       50
176
     1
 62
   256
176
     0
 40
1.0
176
     0
 90
        2
176
     1
  1
strokes_ogs.tif
176
     1
290
     0
176
     1
 40
1.0
176
     1
 40
1.0
176
     1
  0
VISUALSTYLE
  5
3A
102
{ACAD_REACTORS
330
2A
102
}
330
2A
100
AcDbVisualStyle
  2
ColorChange
 70
    16
177
     3
291
     1
 70
    58
 90
        2
176
     1
 90
        2
176
     1
 90
        3
176
     1
 90
        0
176
     1
 40
0.6
176
     1
 40
30.0
176
     1
 62
     8
420
  8421504
176
     1
 90
        1
176
     1
 90
        4
176
     1
 62
     7
176
     1
 62
   257
176
     1
 90
        1
176
     1
 90
        1
176
     1
 40
1.0
176
     1
 90
        8
176
     1
 62
     8
420
  8421504
176
     1
 40
1.0
176
     1
 90
        1
176
     1
 90
        6
176
     1
 90
        2
176
     1
 62
     7
176
     1
 90
        5
176
     1
 90
        0
176
     1
 90
        0
176
     1
290
     0
176
     1
 90
        1
176
     1
 40
0.0
176
     1
 90
        0
176
     1
290
     0
176
     1
290
     1
176
     1
290
     1
176
     1
290
     0
176
     1
290
     0
176
     1
290
     0
176
     1
290
     0
176
     1
290
     0
176
     1
290
     0
176
     1
 90
       50
176
     1
 40
0.0
176
     1
 40
1.0
176
     1
 90
        0
176
     1
 62
    18
420
        0
176
     1
 90
       50
176
     1
 90
        3
176
     1
 62
     5
420
      255
176
     1
290
     0
176
     1
 90
       50
176
     1
 90
       50
176
     1
 90
       50
176
     1
290
     0
176
     1
 90
       50
176
     1
 62
   256
176
     0
 40
1.0
176
     0
 90
        2
176
     1
  1
strokes_ogs.tif
176
     1
290
     0
176
     1
 40
1.0
176
     1
 40
1.0
176
     1
  0
VISUALSTYLE
  5
34
102
{ACAD_REACTORS
330
2A
102
}
330
2A
100
AcDbVisualStyle
  2
Conceptual
 70
     9
177
     3
291
     0
 70
    58
 90
        3
176
     1
 90
        2
176
     1
 90
        0
176
     1
 90
        0
176
     1
 40
0.6
176
     1
 40
30.0
176
     1
 62
     7
420
 16777215
176
     1
 90
        2
176
     1
 90
        2
176
     1
 62
     7
176
     1
 62
   257
176
     1
 90
        1
176
     1
 90
        1
176
     1
 40
179.0
176
     1
 90
        8
176
     1
 62
     7
176
     1
 40
1.0
176
     1
 90
        1
176
     1
 90
        6
176
     1
 90
        2
176
     1
 62
     7
176
     1
 90
        3
176
     1
 90
        0
176
     1
 90
        0
176
     1
290
     0
176
     1
 90
        1
176
     1
 40
0.0
176
     1
 90
        0
176
     1
290
     0
176
     1
290
     1
176
     1
290
     1
176
     1
290
     0
176
     1
290
     0
176
     1
290
     0
176
     1
290
     0
176
     1
290
     0
176
     1
290
     0
176
     1
 90
       50
176
     1
 40
0.0
176
     1
 40
1.0
176
     1
 90
        0
176
     1
 62
    18
420
        0
176
     1
 90
       50
176
     1
 90
        3
176
     1
 62
     5
420
      255
176
     1
290
     0
176
     1
 90
       50
176
     1
 90
       50
176
     1
 90
       50
176
     1
290
     0
176
     1
 90
       50
176
     1
 62
   256
176
     0
 40
1.0
176
     0
 90
        2
176
     1
  1
strokes_ogs.tif
176
     1
290
     0
176
     1
 40
1.0
176
     1
 40
1.0
176
     1
  0
VISUALSTYLE
  5
35
102
{ACAD_REACTORS
330
2A
102
}
330
2A
100
AcDbVisualStyle
  2
Dim
 70
    11
177
     3
291
     1
 70
    58
 90
        2
176
     1
 90
        2
176
     1
 90
        0
176
     1
 90
        0
176
     1
 40
0.6
176
     1
 40
30.0
176
     1
 62
     7
420
 16777215
176
     1
 90
        1
176
     1
 90
        4
176
     1
 62
     7
176
     1
 62
   257
176
     1
 90
        1
176
     1
 90
        1
176
     1
 40
1.0
176
     1
 90
        8
176
     1
 62
     7
176
     1
 40
1.0
176
     1
 90
        1
176
     1
 90
        6
176
     1
 90
        2
176
     1
 62
     7
176
     1
 90
        5
176
     1
 90
        0
176
     1
 90
        0
176
     1
290
     0
176
     1
 90
        1
176
     1
 40
-50.0
176
     1
 90
        0
176
     1
290
     0
176
     1
290
     1
176
     1
290
     1
176
     1
290
     0
176
     1
290
     0
176
     1
290
     0
176
     1
290
     0
176
     1
290
     0
176
     1
290
     0
176
     1
 90
       50
176
     1
 40
0.0
176
     1
 40
1.0
176
     1
 90
        0
176
     1
 62
    18
420
        0
176
     1
 90
       50
176
     1
 90
        3
176
     1
 62
     5
420
      255
176
     1
290
     0
176
     1
 90
       50
176
     1
 90
       50
176
     1
 90
       50
176
     1
290
     0
176
     1
 90
       50
176
     1
 62
   256
176
     0
 40
1.0
176
     0
 90
        2
176
     1
  1
strokes_ogs.tif
176
     1
290
     0
176
     1
 40
1.0
176
     1
 40
1.0
176
     1
  0
VISUALSTYLE
  5
3D
102
{ACAD_REACTORS
330
2A
102
}
330
2A
100
AcDbVisualStyle
  2
EdgeColorOff
 70
    22
177
     3
291
     1
 70
    58
 90
        2
176
     0
 90
        2
176
     0
 90
        0
176
     0
 90
        0
176
     0
 40
0.6
176
     0
 40
30.0
176
     0
 62
     7
420
 16777215
176
     0
 90
        1
176
     0
 90
        4
176
     0
 62
     7
176
     0
 62
   257
176
     0
 90
        1
176
     0
 90
        1
176
     0
 40
1.0
176
     0
 90
        8
176
     2
 62
     7
176
     0
 40
1.0
176
     0
 90
        1
176
     0
 90
        6
176
     0
 90
        2
176
     0
 62
     7
176
     0
 90
        5
176
     0
 90
        0
176
     0
 90
        0
176
     0
290
     0
176
     0
 90
        1
176
     0
 40
0.0
176
     0
 90
        0
176
     0
290
     0
176
     0
290
     1
176
     0
290
     1
176
     0
290
     0
176
     0
290
     0
176
     0
290
     0
176
     0
290
     0
176
     0
290
     0
176
     0
290
     0
176
     0
 90
       50
176
     0
 40
0.0
176
     0
 40
1.0
176
     0
 90
        0
176
     0
 62
    18
420
        0
176
     0
 90
       50
176
     0
 90
        3
176
     0
 62
     5
420
      255
176
     0
290
     0
176
     0
 90
       50
176
     0
 90
       50
176
     0
 90
       50
176
     0
290
     0
176
     0
 90
       50
176
     0
 62
   256
176
     0
 40
1.0
176
     0
 90
        2
176
     0
  1
strokes_ogs.tif
176
     0
290
     0
176
     0
 40
1.0
176
     0
 40
1.0
176
     0
  0
VISUALSTYLE
  5
39
102
{ACAD_REACTORS
330
2A
102
}
330
2A
100
AcDbVisualStyle
  2
Facepattern
 70
    15
177
     3
291
     1
 70
    58
 90
        2
176
     1
 90
        2
176
     1
 90
        0
176
     1
 90
        0
176
     1
 40
0.6
176
     1
 40
30.0
176
     1
 62
     7
420
 16777215
176
     1
 90
        1
176
     1
 90
        4
176
     1
 62
     7
176
     1
 62
   257
176
     1
 90
        1
176
     1
 90
        1
176
     1
 40
1.0
176
     1
 90
        8
176
     1
 62
     7
176
     1
 40
1.0
176
     1
 90
        1
176
     1
 90
        6
176
     1
 90
        2
176
     1
 62
     7
176
     1
 90
        5
176
     1
 90
        0
176
     1
 90
        0
176
     1
290
     0
176
     1
 90
        1
176
     1
 40
0.0
176
     1
 90
        0
176
     1
290
     0
176
     1
290
     1
176
     1
290
     1
176
     1
290
     0
176
     1
290
     0
176
     1
290
     0
176
     1
290
     0
176
     1
290
     0
176
     1
290
     0
176
     1
 90
       50
176
     1
 40
0.0
176
     1
 40
1.0
176
     1
 90
        0
176
     1
 62
    18
420
        0
176
     1
 90
       50
176
     1
 90
        3
176
     1
 62
     5
420
      255
176
     1
290
     0
176
     1
 90
       50
176
     1
 90
       50
176
     1
 90
       50
176
     1
290
     0
176
     1
 90
       50
176
     1
 62
   256
176
     0
 40
1.0
176
     0
 90
        2
176
     1
  1
strokes_ogs.tif
176
     1
290
     0
176
     1
 40
1.0
176
     1
 40
1.0
176
     1
  0
VISUALSTYLE
  5
2B
102
{ACAD_REACTORS
330
2A
102
}
330
2A
100
AcDbVisualStyle
  2
Flat
 70
     0
177
     3
291
     1
 70
    58
 90
        2
176
     1
 90
        1
176
     1
 90
        1
176
     1
 90
        2
176
     1
 40
0.6
176
     1
 40
30.0
176
     1
 62
     7
420
 16777215
176
     1
 90
        0
176
     1
 90
        0
176
     1
 62
     7
176
     1
 62
   257
176
     1
 90
        1
176
     1
 90
        1
176
     1
 40
1.0
176
     1
 90
        8
176
     1
 62
     7
176
     1
 40
1.0
176
     1
 90
        1
176
     1
 90
        6
176
     1
 90
        2
176
     1
 62
     7
176
     1
 90
        5
176
     1
 90
        0
176
     1
 90
        0
176
     1
290
     0
176
     1
 90
       13
176
     1
 40
0.0
176
     1
 90
        0
176
     1
290
     0
176
     1
290
     1
176
     1
290
     1
176
     1
290
     0
176
     1
290
     0
176
     1
290
     0
176
     1
290
     0
176
     1
290
     0
176
     1
290
     0
176
     1
 90
       50
176
     1
 40
0.0
176
     1
 40
1.0
176
     1
 90
        0
176
     1
 62
    18
420
        0
176
     1
 90
       50
176
     1
 90
        3
176
     1
 62
     5
420
      255
176
     1
290
     0
176
     1
 90
       50
176
     1
 90
       50
176
     1
 90
       50
176
     1
290
     0
176
     1
 90
       50
176
     1
 62
   256
176
     0
 40
1.0
176
     0
 90
        2
176
     1
  1
strokes_ogs.tif
176
     1
290
     0
176
     1
 40
1.0
176
     1
 40
1.0
176
     1
  0
VISUALSTYLE
  5
2C
102
{ACAD_REACTORS
330
2A
102
}
330
2A
100
AcDbVisualStyle
  2
FlatWithEdges
 70
     1
177
     3
291
     1
 70
    58
 90
        2
176
     1
 90
        1
176
     1
 90
        1
176
     1
 90
        2
176
     1
 40
0.6
176
     1
 40
30.0
176
     1
 62
     7
420
 16777215
176
     1
 90
        1
176
     1
 90
        0
176
     1
 62
     7
176
     1
 62
   257
176
     1
 90
        1
176
     1
 90
        1
176
     1
 40
1.0
176
     1
 90
        0
176
     1
 62
   257
176
     1
 40
1.0
176
     1
 90
        1
176
     1
 90
        6
176
     1
 90
        2
176
     1
 62
     7
176
     1
 90
        5
176
     1
 90
        0
176
     1
 90
        0
176
     1
290
     0
176
     1
 90
       13
176
     1
 40
0.0
176
     1
 90
        0
176
     1
290
     0
176
     1
290
     1
176
     1
290
     1
176
     1
290
     0
176
     1
290
     0
176
     1
290
     0
176
     1
290
     0
176
     1
290
     0
176
     1
290
     0
176
     1
 90
       50
176
     1
 40
0.0
176
     1
 40
1.0
176
     1
 90
        0
176
     1
 62
    18
420
        0
176
     1
 90
       50
176
     1
 90
        3
176
     1
 62
     5
420
      255
176
     1
290
     0
176
     1
 90
       50
176
     1
 90
       50
176
     1
 90
       50
176
     1
290
     0
176
     1
 90
       50
176
     1
 62
   256
176
     0
 40
1.0
176
     0
 90
        2
176
     1
  1
strokes_ogs.tif
176
     1
290
     0
176
     1
 40
1.0
176
     1
 40
1.0
176
     1
  0
VISUALSTYLE
  5
2D
102
{ACAD_REACTORS
330
2A
102
}
330
2A
100
AcDbVisualStyle
  2
Gouraud
 70
     2
177
     3
291
     1
 70
    58
 90
        2
176
     1
 90
        2
176
     1
 90
        1
176
     1
 90
        2
176
     1
 40
0.6
176
     1
 40
30.0
176
     1
 62
     7
420
 16777215
176
     1
 90
        0
176
     1
 90
        0
176
     1
 62
     7
176
     1
 62
   257
176
     1
 90
        1
176
     1
 90
        1
176
     1
 40
1.0
176
     1
 90
        0
176
     1
 62
     7
176
     1
 40
1.0
176
     1
 90
        1
176
     1
 90
        6
176
     1
 90
        2
176
     1
 62
     7
176
     1
 90
        5
176
     1
 90
        0
176
     1
 90
        0
176
     1
290
     0
176
     1
 90
       13
176
     1
 40
0.0
176
     1
 90
        0
176
     1
290
     0
176
     1
290
     1
176
     1
290
     1
176
     1
290
     0
176
     1
290
     0
176
     1
290
     0
176
     1
290
     0
176
     1
290
     0
176
     1
290
     0
176
     1
 90
       50
176
     1
 40
0.0
176
     1
 40
1.0
176
     1
 90
        0
176
     1
 62
    18
420
        0
176
     1
 90
       50
176
     1
 90
        3
176
     1
 62
     5
420
      255
176
     1
290
     0
176
     1
 90
       50
176
     1
 90
       50
176
     1
 90
       50
176
     1
290
     0
176
     1
 90
       50
176
     1
 62
   256
176
     0
 40
1.0
176
     0
 90
        2
176
     1
  1
strokes_ogs.tif
176
     1
290
     0
176
     1
 40
1.0
176
     1
 40
1.0
176
     1
  0
VISUALSTYLE
  5
2E
102
{ACAD_REACTORS
330
2A
102
}
330
2A
100
AcDbVisualStyle
  2
GouraudWithEdges
 70
     3
177
     3
291
     1
 70
    58
 90
        2
176
     1
 90
        2
176
     1
 90
        1
176
     1
 90
        2
176
     1
 40
0.6
176
     1
 40
30.0
176
     1
 62
     7
420
 16777215
176
     1
 90
        1
176
     1
 90
        0
176
     1
 62
     7
176
     1
 62
   257
176
     1
 90
        1
176
     1
 90
        1
176
     1
 40
1.0
176
     1
 90
        0
176
     1
 62
   257
176
     1
 40
1.0
176
     1
 90
        1
176
     1
 90
        6
176
     1
 90
        2
176
     1
 62
     7
176
     1
 90
        5
176
     1
 90
        0
176
     1
 90
        0
176
     1
290
     0
176
     1
 90
       13
176
     1
 40
0.0
176
     1
 90
        0
176
     1
290
     0
176
     1
290
     1
176
     1
290
     1
176
     1
290
     0
176
     1
290
     0
176
     1
290
     0
176
     1
290
     0
176
     1
290
     0
176
     1
290
     0
176
     1
 90
       50
176
     1
 40
0.0
176
     1
 40
1.0
176
     1
 90
        0
176
     1
 62
    18
420
        0
176
     1
 90
       50
176
     1
 90
        3
176
     1
 62
     5
420
      255
176
     1
290
     0
176
     1
 90
       50
176
     1
 90
       50
176
     1
 90
       50
176
     1
290
     0
176
     1
 90
       50
176
     1
 62
   256
176
     0
 40
1.0
176
     0
 90
        2
176
     1
  1
strokes_ogs.tif
176
     1
290
     0
176
     1
 40
1.0
176
     1
 40
1.0
176
     1
  0
VISUALSTYLE
  5
31
102
{ACAD_REACTORS
330
2A
102
}
330
2A
100
AcDbVisualStyle
  2
Hidden
 70
     6
177
     3
291
     0
 70
    58
 90
        1
176
     1
 90
        2
176
     1
 90
        2
176
     1
 90
        0
176
     1
 40
0.6
176
     1
 40
30.0
176
     1
 62
     7
420
 16777215
176
     1
 90
        2
176
     1
 90
        2
176
     1
 62
     7
176
     1
 62
   257
176
     1
 90
        2
176
     1
 90
        1
176
     1
 40
40.0
176
     1
 90
        0
176
     1
 62
   257
176
     1
 40
1.0
176
     1
 90
        1
176
     1
 90
        6
176
     1
 90
        2
176
     1
 62
     7
176
     1
 90
        3
176
     1
 90
        0
176
     1
 90
        0
176
     1
290
     0
176
     1
 90
        1
176
     1
 40
0.0
176
     1
 90
        0
176
     1
290
     0
176
     1
290
     1
176
     1
290
     1
176
     1
290
     0
176
     1
290
     0
176
     1
290
     0
176
     1
290
     0
176
     1
290
     0
176
     1
290
     0
176
     1
 90
       50
176
     1
 40
0.0
176
     1
 40
1.0
176
     1
 90
        0
176
     1
 62
    18
420
        0
176
     1
 90
       50
176
     1
 90
        3
176
     1
 62
     5
420
      255
176
     1
290
     0
176
     1
 90
       50
176
     1
 90
       50
176
     1
 90
       50
176
     1
290
     0
176
     1
 90
       50
176
     1
 62
   256
176
     0
 40
1.0
176
     0
 90
        2
176
     1
  1
strokes_ogs.tif
176
     1
290
     0
176
     1
 40
1.0
176
     1
 40
1.0
176
     1
  0
VISUALSTYLE
  5
3B
102
{ACAD_REACTORS
330
2A
102
}
330
2A
100
AcDbVisualStyle
  2
JitterOff
 70
    20
177
     3
291
     1
 70
    58
 90
        2
176
     0
 90
        2
176
     0
 90
        0
176
     0
 90
        0
176
     0
 40
0.6
176
     0
 40
30.0
176
     0
 62
     7
420
 16777215
176
     0
 90
        1
176
     0
 90
        4
176
     0
 62
     7
176
     0
 62
   257
176
     0
 90
        1
176
     0
 90
        1
176
     0
 40
1.0
176
     0
 90
       10
176
     2
 62
     7
176
     0
 40
1.0
176
     0
 90
        1
176
     0
 90
        6
176
     0
 90
        2
176
     0
 62
     7
176
     0
 90
        5
176
     0
 90
        0
176
     0
 90
        0
176
     0
290
     0
176
     0
 90
        1
176
     0
 40
0.0
176
     0
 90
        0
176
     0
290
     0
176
     0
290
     1
176
     0
290
     1
176
     0
290
     0
176
     0
290
     0
176
     0
290
     0
176
     0
290
     0
176
     0
290
     0
176
     0
290
     0
176
     0
 90
       50
176
     0
 40
0.0
176
     0
 40
1.0
176
     0
 90
        0
176
     0
 62
    18
420
        0
176
     0
 90
       50
176
     0
 90
        3
176
     0
 62
     5
420
      255
176
     0
290
     0
176
     0
 90
       50
176
     0
 90
       50
176
     0
 90
       50
176
     0
290
     0
176
     0
 90
       50
176
     0
 62
   256
176
     0
 40
1.0
176
     0
 90
        2
176
     0
  1
strokes_ogs.tif
176
     0
290
     0
176
     0
 40
1.0
176
     0
 40
1.0
176
     0
  0
VISUALSTYLE
  5
38
102
{ACAD_REACTORS
330
2A
102
}
330
2A
100
AcDbVisualStyle
  2
Linepattern
 70
    14
177
     3
291
     1
 70
    58
 90
        2
176
     1
 90
        2
176
     1
 90
        0
176
     1
 90
        0
176
     1
 40
0.6
176
     1
 40
30.0
176
     1
 62
     7
420
 16777215
176
     1
 90
        1
176
     1
 90
        4
176
     1
 62
     7
176
     1
 62
   257
176
     1
 90
        7
176
     1
 90
        7
176
     1
 40
1.0
176
     1
 90
        8
176
     1
 62
     7
176
     1
 40
1.0
176
     1
 90
        1
176
     1
 90
        6
176
     1
 90
        2
176
     1
 62
     7
176
     1
 90
        5
176
     1
 90
        0
176
     1
 90
        0
176
     1
290
     0
176
     1
 90
        1
176
     1
 40
0.0
176
     1
 90
        0
176
     1
290
     0
176
     1
290
     1
176
     1
290
     1
176
     1
290
     0
176
     1
290
     0
176
     1
290
     0
176
     1
290
     0
176
     1
290
     0
176
     1
290
     0
176
     1
 90
       50
176
     1
 40
0.0
176
     1
 40
1.0
176
     1
 90
        0
176
     1
 62
    18
420
        0
176
     1
 90
       50
176
     1
 90
        3
176
     1
 62
     5
420
      255
176
     1
290
     0
176
     1
 90
       50
176
     1
 90
       50
176
     1
 90
       50
176
     1
290
     0
176
     1
 90
       50
176
     1
 62
   256
176
     0
 40
1.0
176
     0
 90
        2
176
     1
  1
strokes_ogs.tif
176
     1
290
     0
176
     1
 40
1.0
176
     1
 40
1.0
176
     1
  0
VISUALSTYLE
  5
3C
102
{ACAD_REACTORS
330
2A
102
}
330
2A
100
AcDbVisualStyle
  2
OverhangOff
 70
    21
177
     3
291
     1
 70
    58
 90
        2
176
     0
 90
        2
176
     0
 90
        0
176
     0
 90
        0
176
     0
 40
0.6
176
     0
 40
30.0
176
     0
 62
     7
420
 16777215
176
     0
 90
        1
176
     0
 90
        4
176
     0
 62
     7
176
     0
 62
   257
176
     0
 90
        1
176
     0
 90
        1
176
     0
 40
1.0
176
     0
 90
        9
176
     2
 62
     7
176
     0
 40
1.0
176
     0
 90
        1
176
     0
 90
        6
176
     0
 90
        2
176
     0
 62
     7
176
     0
 90
        5
176
     0
 90
        0
176
     0
 90
        0
176
     0
290
     0
176
     0
 90
        1
176
     0
 40
0.0
176
     0
 90
        0
176
     0
290
     0
176
     0
290
     1
176
     0
290
     1
176
     0
290
     0
176
     0
290
     0
176
     0
290
     0
176
     0
290
     0
176
     0
290
     0
176
     0
290
     0
176
     0
 90
       50
176
     0
 40
0.0
176
     0
 40
1.0
176
     0
 90
        0
176
     0
 62
    18
420
        0
176
     0
 90
       50
176
     0
 90
        3
176
     0
 62
     5
420
      255
176
     0
290
     0
176
     0
 90
       50
176
     0
 90
       50
176
     0
 90
       50
176
     0
290
     0
176
     0
 90
       50
176
     0
 62
   256
176
     0
 40
1.0
176
     0
 90
        2
176
     0
  1
strokes_ogs.tif
176
     0
290
     0
176
     0
 40
1.0
176
     0
 40
1.0
176
     0
  0
VISUALSTYLE
  5
33
102
{ACAD_REACTORS
330
2A
102
}
330
2A
100
AcDbVisualStyle
  2
Realistic
 70
     8
177
     3
291
     0
 70
    58
 90
        2
176
     1
 90
        3
176
     1
 90
        0
176
     1
 90
        2
176
     1
 40
0.6
176
     1
 40
30.0
176
     1
 62
     7
420
 16777215
176
     1
 90
        0
176
     1
 90
        0
176
     1
 62
     7
176
     1
 62
   257
176
     1
 90
        1
176
     1
 90
        1
176
     1
 40
1.0
176
     1
 90
        8
176
     1
 62
   257
176
     1
 40
1.0
176
     1
 90
        1
176
     1
 90
        6
176
     1
 90
        2
176
     1
 62
     7
176
     1
 90
        3
176
     1
 90
        0
176
     1
 90
        0
176
     1
290
     0
176
     1
 90
       13
176
     1
 40
0.0
176
     1
 90
        0
176
     1
290
     0
176
     1
290
     1
176
     1
290
     1
176
     1
290
     0
176
     1
290
     0
176
     1
290
     0
176
     1
290
     0
176
     1
290
     0
176
     1
290
     0
176
     1
 90
       50
176
     1
 40
0.0
176
     1
 40
1.0
176
     1
 90
        0
176
     1
 62
    18
420
        0
176
     1
 90
       50
176
     1
 90
        3
176
     1
 62
     5
420
      255
176
     1
290
     0
176
     1
 90
       50
176
     1
 90
       50
176
     1
 90
       50
176
     1
290
     0
176
     1
 90
       50
176
     1
 62
   256
176
     0
 40
1.0
176
     0
 90
        2
176
     1
  1
strokes_ogs.tif
176
     1
290
     0
176
     1
 40
1.0
176
     1
 40
1.0
176
     1
  0
VISUALSTYLE
  5
42
102
{ACAD_REACTORS
330
2A
102
}
330
2A
100
AcDbVisualStyle
  2
Shaded
 70
    27
177
     3
291
     0
 70
    58
 90
        2
176
     1
 90
        2
176
     1
 90
        1
176
     1
 90
        2
176
     1
 40
0.6
176
     1
 40
30.0
176
     1
 62
     7
420
 16777215
176
     1
 90
        0
176
     1
 90
        4
176
     1
 62
     7
176
     1
 62
   257
176
     1
 90
        1
176
     1
 90
        1
176
     1
 40
1.0
176
     1
 90
        8
176
     1
 62
   257
176
     1
 40
1.0
176
     1
 90
        1
176
     1
 90
        6
176
     1
 90
        2
176
     1
 62
     8
420
  7895160
176
     1
 90
        3
176
     1
 90
        0
176
     1
 90
        0
176
     1
290
     0
176
     1
 90
        5
176
     1
 40
0.0
176
     1
 90
        0
176
     1
290
     0
176
     1
290
     1
176
     1
290
     1
176
     1
290
     0
176
     1
290
     0
176
     1
290
     0
176
     1
290
     0
176
     1
290
     0
176
     1
290
     0
176
     1
 90
       50
176
     1
 40
0.0
176
     1
 40
1.0
176
     1
 90
        0
176
     1
 62
    18
420
        0
176
     1
 90
       50
176
     1
 90
        3
176
     1
 62
     5
420
      255
176
     1
290
     0
176
     1
 90
       50
176
     1
 90
       50
176
     1
 90
       50
176
     1
290
     0
176
     1
 90
       50
176
     1
 62
   256
176
     0
 40
1.0
176
     0
 90
        2
176
     1
  1
strokes_ogs.tif
176
     1
290
     0
176
     1
 40
1.0
176
     1
 40
1.0
176
     1
  0
VISUALSTYLE
  5
41
102
{ACAD_REACTORS
330
2A
102
}
330
2A
100
AcDbVisualStyle
  2
Shaded with edges
 70
    26
177
     3
291
     0
 70
    58
 90
        2
176
     1
 90
        2
176
     1
 90
        1
176
     1
 90
        2
176
     1
 40
0.6
176
     1
 40
30.0
176
     1
 62
     7
420
 16777215
176
     1
 90
        1
176
     1
 90
       10
176
     1
 62
     7
176
     1
 62
   257
176
     1
 90
        2
176
     1
 90
        1
176
     1
 40
1.0
176
     1
 90
        8
176
     1
 62
   257
176
     1
 40
1.0
176
     1
 90
        1
176
     1
 90
        6
176
     1
 90
        2
176
     1
 62
     7
176
     1
 90
        3
176
     1
 90
        0
176
     1
 90
        0
176
     1
290
     0
176
     1
 90
        5
176
     1
 40
0.0
176
     1
 90
        0
176
     1
290
     0
176
     1
290
     1
176
     1
290
     1
176
     1
290
     0
176
     1
290
     0
176
     1
290
     0
176
     1
290
     0
176
     1
290
     0
176
     1
290
     0
176
     1
 90
       50
176
     1
 40
0.0
176
     1
 40
1.0
176
     1
 90
        0
176
     1
 62
    18
420
        0
176
     1
 90
       50
176
     1
 90
        3
176
     1
 62
     5
420
      255
176
     1
290
     0
176
     1
 90
       50
176
     1
 90
       50
176
     1
 90
       50
176
     1
290
     0
176
     1
 90
       50
176
     1
 62
   256
176
     0
 40
1.0
176
     0
 90
        2
176
     1
  1
strokes_ogs.tif
176
     1
290
     0
176
     1
 40
1.0
176
     1
 40
1.0
176
     1
  0
VISUALSTYLE
  5
3E
102
{ACAD_REACTORS
330
2A
102
}
330
2A
100
AcDbVisualStyle
  2
Shades of Gray
 70
    23
177
     3
291
     0
 70
    58
 90
        2
176
     1
 90
        2
176
     1
 90
        3
176
     1
 90
        0
176
     1
 40
0.6
176
     1
 40
30.0
176
     1
 62
     7
420
 16777215
176
     1
 90
        2
176
     1
 90
        2
176
     1
 62
     7
176
     1
 62
     7
176
     1
 90
        1
176
     1
 90
        1
176
     1
 40
40.0
176
     1
 90
        8
176
     1
 62
     7
176
     1
 40
1.0
176
     1
 90
        1
176
     1
 90
        6
176
     1
 90
        2
176
     1
 62
     7
176
     1
 90
        3
176
     1
 90
        0
176
     1
 90
        0
176
     1
290
     0
176
     1
 90
        1
176
     1
 40
0.0
176
     1
 90
        0
176
     1
290
     0
176
     1
290
     1
176
     1
290
     1
176
     1
290
     0
176
     1
290
     0
176
     1
290
     0
176
     1
290
     0
176
     1
290
     0
176
     1
290
     0
176
     1
 90
       50
176
     1
 40
0.0
176
     1
 40
1.0
176
     1
 90
        0
176
     1
 62
    18
420
        0
176
     1
 90
       50
176
     1
 90
        3
176
     1
 62
     5
420
      255
176
     1
290
     0
176
     1
 90
       50
176
     1
 90
       50
176
     1
 90
       50
176
     1
290
     0
176
     1
 90
       50
176
     1
 62
   256
176
     0
 40
1.0
176
     0
 90
        2
176
     1
  1
strokes_ogs.tif
176
     1
290
     0
176
     1
 40
1.0
176
     1
 40
1.0
176
     1
  0
VISUALSTYLE
  5
3F
102
{ACAD_REACTORS
330
2A
102
}
330
2A
100
AcDbVisualStyle
  2
Sketchy
 70
    24
177
     3
291
     0
 70
    58
 90
        1
176
     1
 90
        2
176
     1
 90
        2
176
     1
 90
        0
176
     1
 40
0.6
176
     1
 40
30.0
176
     1
 62
     7
420
 16777215
176
     1
 90
        2
176
     1
 90
        2
176
     1
 62
     7
176
     1
 62
     7
176
     1
 90
        1
176
     1
 90
        1
176
     1
 40
40.0
176
     1
 90
       11
176
     1
 62
     7
176
     1
 40
1.0
176
     1
 90
        1
176
     1
 90
        6
176
     1
 90
        2
176
     1
 62
     7
176
     1
 90
        6
176
     1
 90
        0
176
     1
 90
        0
176
     1
290
     0
176
     1
 90
        1
176
     1
 40
0.0
176
     1
 90
        0
176
     1
290
     0
176
     1
290
     1
176
     1
290
     1
176
     1
290
     0
176
     1
290
     0
176
     1
290
     0
176
     1
290
     0
176
     1
290
     0
176
     1
290
     0
176
     1
 90
       50
176
     1
 40
0.0
176
     1
 40
1.0
176
     1
 90
        0
176
     1
 62
    18
420
        0
176
     1
 90
       50
176
     1
 90
        3
176
     1
 62
     5
420
      255
176
     1
290
     0
176
     1
 90
       50
176
     1
 90
       50
176
     1
 90
       50
176
     1
290
     0
176
     1
 90
       50
176
     1
 62
   256
176
     0
 40
1.0
176
     0
 90
        2
176
     1
  1
strokes_ogs.tif
176
     1
290
     0
176
     1
 40
1.0
176
     1
 40
1.0
176
     1
  0
VISUALSTYLE
  5
37
102
{ACAD_REACTORS
330
2A
102
}
330
2A
100
AcDbVisualStyle
  2
Thicken
 70
    13
177
     3
291
     1
 70
    58
 90
        2
176
     1
 90
        2
176
     1
 90
        0
176
     1
 90
        0
176
     1
 40
0.6
176
     1
 40
30.0
176
     1
 62
     7
420
 16777215
176
     1
 90
        1
176
     1
 90
        4
176
     1
 62
     7
176
     1
 62
   257
176
     1
 90
        1
176
     1
 90
        1
176
     1
 40
1.0
176
     1
 90
       12
176
     1
 62
     7
176
     1
 40
1.0
176
     1
 90
        1
176
     1
 90
        6
176
     1
 90
        2
176
     1
 62
     7
176
     1
 90
        5
176
     1
 90
        0
176
     1
 90
        0
176
     1
290
     0
176
     1
 90
        1
176
     1
 40
0.0
176
     1
 90
        0
176
     1
290
     0
176
     1
290
     1
176
     1
290
     1
176
     1
290
     0
176
     1
290
     0
176
     1
290
     0
176
     1
290
     0
176
     1
290
     0
176
     1
290
     0
176
     1
 90
       50
176
     1
 40
0.0
176
     1
 40
1.0
176
     1
 90
        0
176
     1
 62
    18
420
        0
176
     1
 90
       50
176
     1
 90
        3
176
     1
 62
     5
420
      255
176
     1
290
     0
176
     1
 90
       50
176
     1
 90
       50
176
     1
 90
       50
176
     1
290
     0
176
     1
 90
       50
176
     1
 62
   256
176
     0
 40
1.0
176
     0
 90
        2
176
     1
  1
strokes_ogs.tif
176
     1
290
     0
176
     1
 40
1.0
176
     1
 40
1.0
176
     1
  0
VISUALSTYLE
  5
30
102
{ACAD_REACTORS
330
2A
102
}
330
2A
100
AcDbVisualStyle
  2
Wireframe
 70
     5
177
     3
291
     0
 70
    58
 90
        0
176
     1
 90
        2
176
     1
 90
        0
176
     1
 90
        0
176
     1
 40
0.6
176
     1
 40
30.0
176
     1
 62
     7
420
 16777215
176
     1
 90
        1
176
     1
 90
        4
176
     1
 62
     7
176
     1
 62
   257
176
     1
 90
        1
176
     1
 90
        1
176
     1
 40
1.0
176
     1
 90
        0
176
     1
 62
   257
176
     1
 40
1.0
176
     1
 90
        1
176
     1
 90
        6
176
     1
 90
        2
176
     1
 62
     7
176
     1
 90
        3
176
     1
 90
        0
176
     1
 90
        0
176
     1
290
     0
176
     1
 90
        1
176
     1
 40
0.0
176
     1
 90
        0
176
     1
290
     0
176
     1
290
     1
176
     1
290
     1
176
     1
290
     0
176
     1
290
     0
176
     1
290
     0
176
     1
290
     0
176
     1
290
     0
176
     1
290
     0
176
     1
 90
       50
176
     1
 40
0.0
176
     1
 40
1.0
176
     1
 90
        0
176
     1
 62
    18
420
        0
176
     1
 90
       50
176
     1
 90
        3
176
     1
 62
     5
420
      255
176
     1
290
     0
176
     1
 90
       50
176
     1
 90
       50
176
     1
 90
       50
176
     1
290
     0
176
     1
 90
       50
176
     1
 62
   256
176
     0
 40
1.0
176
     0
 90
        2
176
     1
  1
strokes_ogs.tif
176
     1
290
     0
176
     1
 40
1.0
176
     1
 40
1.0
176
     1
  0
VISUALSTYLE
  5
40
102
{ACAD_REACTORS
330
2A
102
}
330
2A
100
AcDbVisualStyle
  2
X-Ray
 70
    25
177
     3
291
     0
 70
    58
 90
        2
176
     1
 90
        2
176
     1
 90
        1
176
     1
 90
        1
176
     1
 40
0.5
176
     1
 40
30.0
176
     1
 62
     7
420
 16777215
176
     1
 90
        1
176
     1
 90
        0
176
     1
 62
     7
176
     1
 62
   257
176
     1
 90
        1
176
     1
 90
        1
176
     1
 40
1.0
176
     1
 90
        8
176
     1
 62
     7
176
     1
 40
1.0
176
     1
 90
        1
176
     1
 90
        6
176
     1
 90
        2
176
     1
 62
     7
176
     1
 90
        3
176
     1
 90
        0
176
     1
 90
        0
176
     1
290
     0
176
     1
 90
       13
176
     1
 40
0.0
176
     1
 90
        0
176
     1
290
     0
176
     1
290
     1
176
     1
290
     1
176
     1
290
     0
176
     1
290
     0
176
     1
290
     0
176
     1
290
     0
176
     1
290
     0
176
     1
290
     0
176
     1
 90
       50
176
     1
 40
0.0
176
     1
 40
1.0
176
     1
 90
        0
176
     1
 62
    18
420
        0
176
     1
 90
       50
176
     1
 90
        3
176
     1
 62
     5
420
      255
176
     1
290
     0
176
     1
 90
       50
176
     1
 90
       50
176
     1
 90
       50
176
     1
290
     0
176
     1
 90
       50
176
     1
 62
   256
176
     0
 40
1.0
176
     0
 90
        2
176
     1
  1
strokes_ogs.tif
176
     1
290
     0
176
     1
 40
1.0
176
     1
 40
1.0
176
     1
  0
DICTIONARYVAR
  5
35F
102
{ACAD_REACTORS
330
35E
102
}
330
35E
100
DictionaryVariables
280
     0
  1
1:1
  0
DICTIONARYVAR
  5
364
102
{ACAD_REACTORS
330
35E
102
}
330
35E
100
DictionaryVariables
280
     0
  1
Standard
  0
DICTIONARYVAR
  5
363
102
{ACAD_REACTORS
330
35E
102
}
330
35E
100
DictionaryVariables
280
     0
  1
Standard
  0
DICTIONARY
  5
360
330
6A
100
AcDbDictionary
280
     1
281
     1
  3
ACAD_ROUNDTRIP_2008_TABLESTYLE_CELLSTYLEMAP
360
361
  0
CELLSTYLEMAP
  5
361
102
{ACAD_REACTORS
330
360
102
}
330
360
100
AcDbCellStyleMap
 90
        3
300
CELLSTYLE
  1
TABLEFORMAT_BEGIN
 90
        5
170
     1
 91
        0
 92
    32768
 62
   257
 93
        1
300
CONTENTFORMAT
  1
CONTENTFORMAT_BEGIN
 90
        0
 91
        0
 92
        4
 93
        0
300

 40
0.0
140
1.0
 94
        5
 62
     0
340
11
144
0.25
309
CONTENTFORMAT_END
171
     1
301
MARGIN
  1
CELLMARGIN_BEGIN
 40
0.06
 40
0.06
 40
0.06
 40
0.06
 40
0.06
 40
0.06
309
CELLMARGIN_END
 94
        6
 95
        1
302
GRIDFORMAT
  1
GRIDFORMAT_BEGIN
 90
        0
 91
        1
 62
     0
 92
       -2
340
14
 93
        0
 40
0.045
309
GRIDFORMAT_END
 95
        2
302
GRIDFORMAT
  1
GRIDFORMAT_BEGIN
 90
        0
 91
        1
 62
     0
 92
       -2
340
14
 93
        0
 40
0.045
309
GRIDFORMAT_END
 95
        4
302
GRIDFORMAT
  1
GRIDFORMAT_BEGIN
 90
        0
 91
        1
 62
     0
 92
       -2
340
14
 93
        0
 40
0.045
309
GRIDFORMAT_END
 95
        8
302
GRIDFORMAT
  1
GRIDFORMAT_BEGIN
 90
        0
 91
        1
 62
     0
 92
       -2
340
14
 93
        0
 40
0.045
309
GRIDFORMAT_END
 95
       16
302
GRIDFORMAT
  1
GRIDFORMAT_BEGIN
 90
        0
 91
        1
 62
     0
 92
       -2
340
14
 93
        0
 40
0.045
309
GRIDFORMAT_END
 95
       32
302
GRIDFORMAT
  1
GRIDFORMAT_BEGIN
 90
        0
 91
        1
 62
     0
 92
       -2
340
14
 93
        0
 40
0.045
309
GRIDFORMAT_END
309
TABLEFORMAT_END
  1
CELLSTYLE_BEGIN
 90
        1
 91
        1
300
_TITLE
309
CELLSTYLE_END
300
CELLSTYLE
  1
TABLEFORMAT_BEGIN
 90
        5
170
     1
 91
        0
 92
        0
 62
   257
 93
        1
300
CONTENTFORMAT
  1
CONTENTFORMAT_BEGIN
 90
        0
 91
        0
 92
        4
 93
        0
300

 40
0.0
140
1.0
 94
        5
 62
     0
340
11
144
0.18
309
CONTENTFORMAT_END
171
     1
301
MARGIN
  1
CELLMARGIN_BEGIN
 40
0.06
 40
0.06
 40
0.06
 40
0.06
 40
0.06
 40
0.06
309
CELLMARGIN_END
 94
        6
 95
        1
302
GRIDFORMAT
  1
GRIDFORMAT_BEGIN
 90
        0
 91
        1
 62
     0
 92
       -2
340
14
 93
        0
 40
0.045
309
GRIDFORMAT_END
 95
        2
302
GRIDFORMAT
  1
GRIDFORMAT_BEGIN
 90
        0
 91
        1
 62
     0
 92
       -2
340
14
 93
        0
 40
0.045
309
GRIDFORMAT_END
 95
        4
302
GRIDFORMAT
  1
GRIDFORMAT_BEGIN
 90
        0
 91
        1
 62
     0
 92
       -2
340
14
 93
        0
 40
0.045
309
GRIDFORMAT_END
 95
        8
302
GRIDFORMAT
  1
GRIDFORMAT_BEGIN
 90
        0
 91
        1
 62
     0
 92
       -2
340
14
 93
        0
 40
0.045
309
GRIDFORMAT_END
 95
       16
302
GRIDFORMAT
  1
GRIDFORMAT_BEGIN
 90
        0
 91
        1
 62
     0
 92
       -2
340
14
 93
        0
 40
0.045
309
GRIDFORMAT_END
 95
       32
302
GRIDFORMAT
  1
GRIDFORMAT_BEGIN
 90
        0
 91
        1
 62
     0
 92
       -2
340
14
 93
        0
 40
0.045
309
GRIDFORMAT_END
309
TABLEFORMAT_END
  1
CELLSTYLE_BEGIN
 90
        2
 91
        1
300
_HEADER
309
CELLSTYLE_END
300
CELLSTYLE
  1
TABLEFORMAT_BEGIN
 90
        5
170
     1
 91
        0
 92
        0
 62
   257
 93
        1
300
CONTENTFORMAT
  1
CONTENTFORMAT_BEGIN
 90
        0
 91
        0
 92
        4
 93
        0
300

 40
0.0
140
1.0
 94
        2
 62
     0
340
11
144
0.18
309
CONTENTFORMAT_END
171
     1
301
MARGIN
  1
CELLMARGIN_BEGIN
 40
0.06
 40
0.06
 40
0.06
 40
0.06
 40
0.06
 40
0.06
309
CELLMARGIN_END
 94
        6
 95
        1
302
GRIDFORMAT
  1
GRIDFORMAT_BEGIN
 90
        0
 91
        1
 62
     0
 92
       -2
340
14
 93
        0
 40
0.045
309
GRIDFORMAT_END
 95
        2
302
GRIDFORMAT
  1
GRIDFORMAT_BEGIN
 90
        0
 91
        1
 62
     0
 92
       -2
340
14
 93
        0
 40
0.045
309
GRIDFORMAT_END
 95
        4
302
GRIDFORMAT
  1
GRIDFORMAT_BEGIN
 90
        0
 91
        1
 62
     0
 92
       -2
340
14
 93
        0
 40
0.045
309
GRIDFORMAT_END
 95
        8
302
GRIDFORMAT
  1
GRIDFORMAT_BEGIN
 90
        0
 91
        1
 62
     0
 92
       -2
340
14
 93
        0
 40
0.045
309
GRIDFORMAT_END
 95
       16
302
GRIDFORMAT
  1
GRIDFORMAT_BEGIN
 90
        0
 91
        1
 62
     0
 92
       -2
340
14
 93
        0
 40
0.045
309
GRIDFORMAT_END
 95
       32
302
GRIDFORMAT
  1
GRIDFORMAT_BEGIN
 90
        0
 91
        1
 62
     0
 92
       -2
340
14
 93
        0
 40
0.045
309
GRIDFORMAT_END
309
TABLEFORMAT_END
  1
CELLSTYLE_BEGIN
 90
        3
 91
        2
300
_DATA
309
CELLSTYLE_END
  0
ENDSEC
  0
EOF
