  0
SECTION
  2
HEADER
  9
$ACADVER
  1
AC1027
  9
$ACADMAINTVER
 70
   105
  9
$DWGCODEPAGE
  3
ANSI_932
  9
$REQUIREDVERSIONS
160
                 0
  9
$INSBASE
 10
0.0
 20
0.0
 30
0.0
  9
$EXTMIN
 10
280.0500000000001
 20
-431.0000000002002
 30
0.0
  9
$EXTMAX
 10
489.95
 20
-55.14362724070303
 30
0.0
  9
$LIMMIN
 10
0.0
 20
0.0
  9
$LIMMAX
 10
12.0
 20
9.0
  9
$ORTHOMODE
 70
     0
  9
$REGENMODE
 70
     1
  9
$FILLMODE
 70
     1
  9
$QTEXTMODE
 70
     0
  9
$MIRRTEXT
 70
     1
  9
$LTSCALE
 40
1.0
  9
$ATTMODE
 70
     1
  9
$TEXTSIZE
 40
0.2
  9
$TRACEWID
 40
0.05
  9
$TEXTSTYLE
  7
Standard
  9
$CLAYER
  8
0
  9
$CELTYPE
  6
ByLayer
  9
$CECOLOR
 62
   256
  9
$CELTSCALE
 40
1.0
  9
$DISPSILH
 70
     0
  9
$DIMSCALE
 40
1.0
  9
$DIMASZ
 40
3.0
  9
$DIMEXO
 40
0.0625
  9
$DIMDLI
 40
0.38
  9
$DIMRND
 40
0.0
  9
$DIMDLE
 40
0.0
  9
$DIMEXE
 40
1.5
  9
$DIMTP
 40
0.0
  9
$DIMTM
 40
0.0
  9
$DIMTXT
 40
3.0
  9
$DIMCEN
 40
0.09
  9
$DIMTSZ
 40
0.0
  9
$DIMTOL
 70
     0
  9
$DIMLIM
 70
     0
  9
$DIMTIH
 70
     1
  9
$DIMTOH
 70
     1
  9
$DIMSE1
 70
     0
  9
$DIMSE2
 70
     0
  9
$DIMTAD
 70
     1
  9
$DIMZIN
 70
     0
  9
$DIMBLK
  1

  9
$DIMASO
 70
     1
  9
$DIMSHO
 70
     1
  9
$DIMPOST
  1

  9
$DIMAPOST
  1

  9
$DIMALT
 70
     0
  9
$DIMALTD
 70
     2
  9
$DIMALTF
 40
25.4
  9
$DIMLFAC
 40
1.0
  9
$DIMTOFL
 70
     0
  9
$DIMTVP
 40
0.0
  9
$DIMTIX
 70
     0
  9
$DIMSOXD
 70
     0
  9
$DIMSAH
 70
     0
  9
$DIMBLK1
  1

  9
$DIMBLK2
  1

  9
$DIMSTYLE
  2
Standard
  9
$DIMCLRD
 70
     0
  9
$DIMCLRE
 70
     0
  9
$DIMCLRT
 70
     0
  9
$DIMTFAC
 40
1.0
  9
$DIMGAP
 40
1.5
  9
$DIMJUST
 70
     0
  9
$DIMSD1
 70
     0
  9
$DIMSD2
 70
     0
  9
$DIMTOLJ
 70
     1
  9
$DIMTZIN
 70
     0
  9
$DIMALTZ
 70
     0
  9
$DIMALTTZ
 70
     0
  9
$DIMUPT
 70
     0
  9
$DIMDEC
 70
     2
  9
$DIMTDEC
 70
     4
  9
$DIMALTU
 70
     2
  9
$DIMALTTD
 70
     2
  9
$DIMTXSTY
  7
ＭＳ ゴシック
  9
$DIMAUNIT
 70
     0
  9
$DIMADEC
 70
     2
  9
$DIMALTRND
 40
0.0
  9
$DIMAZIN
 70
     0
  9
$DIMDSEP
 70
    46
  9
$DIMATFIT
 70
     3
  9
$DIMFRAC
 70
     0
  9
$DIMLDRBLK
  1

  9
$DIMLUNIT
 70
     2
  9
$DIMLWD
 70
    -2
  9
$DIMLWE
 70
    -2
  9
$DIMTMOVE
 70
     0
  9
$DIMFXL
 40
1.0
  9
$DIMFXLON
 70
     0
  9
$DIMJOGANG
 40
0.7853981633974483
  9
$DIMTFILL
 70
     0
  9
$DIMTFILLCLR
 70
     0
  9
$DIMARCSYM
 70
     0
  9
$DIMLTYPE
  6

  9
$DIMLTEX1
  6

  9
$DIMLTEX2
  6

  9
$DIMTXTDIRECTION
 70
     0
  9
$LUNITS
 70
     2
  9
$LUPREC
 70
     4
  9
$SKETCHINC
 40
0.1
  9
$FILLETRAD
 40
0.5
  9
$AUNITS
 70
     0
  9
$AUPREC
 70
     0
  9
$MENU
  1
.
  9
$ELEVATION
 40
0.0
  9
$PELEVATION
 40
0.0
  9
$THICKNESS
 40
0.0
  9
$LIMCHECK
 70
     0
  9
$CHAMFERA
 40
0.0
  9
$CHAMFERB
 40
0.0
  9
$CHAMFERC
 40
0.0
  9
$CHAMFERD
 40
0.0
  9
$SKPOLY
 70
     0
  9
$TDCREATE
 40
2458960.455178958
  9
$TDUCREATE
 40
2458960.080178958
  9
$TDUPDATE
 40
2458960.455179942
  9
$TDUUPDATE
 40
2458960.080179942
  9
$TDINDWG
 40
0.0000000116
  9
$TDUSRTIMER
 40
0.0000000116
  9
$USRTIMER
 70
     1
  9
$ANGBASE
 50
0.0
  9
$ANGDIR
 70
     0
  9
$PDMODE
 70
     0
  9
$PDSIZE
 40
0.0
  9
$PLINEWID
 40
0.0
  9
$SPLFRAME
 70
     0
  9
$SPLINETYPE
 70
     6
  9
$SPLINESEGS
 70
     8
  9
$HANDSEED
  5
3D2
  9
$SURFTAB1
 70
     6
  9
$SURFTAB2
 70
     6
  9
$SURFTYPE
 70
     6
  9
$SURFU
 70
     6
  9
$SURFV
 70
     6
  9
$UCSBASE
  2

  9
$UCSNAME
  2

  9
$UCSORG
 10
0.0
 20
0.0
 30
0.0
  9
$UCSXDIR
 10
1.0
 20
0.0
 30
0.0
  9
$UCSYDIR
 10
0.0
 20
1.0
 30
0.0
  9
$UCSORTHOREF
  2

  9
$UCSORTHOVIEW
 70
     0
  9
$UCSORGTOP
 10
0.0
 20
0.0
 30
0.0
  9
$UCSORGBOTTOM
 10
0.0
 20
0.0
 30
0.0
  9
$UCSORGLEFT
 10
0.0
 20
0.0
 30
0.0
  9
$UCSORGRIGHT
 10
0.0
 20
0.0
 30
0.0
  9
$UCSORGFRONT
 10
0.0
 20
0.0
 30
0.0
  9
$UCSORGBACK
 10
0.0
 20
0.0
 30
0.0
  9
$PUCSBASE
  2

  9
$PUCSNAME
  2

  9
$PUCSORG
 10
0.0
 20
0.0
 30
0.0
  9
$PUCSXDIR
 10
1.0
 20
0.0
 30
0.0
  9
$PUCSYDIR
 10
0.0
 20
1.0
 30
0.0
  9
$PUCSORTHOREF
  2

  9
$PUCSORTHOVIEW
 70
     0
  9
$PUCSORGTOP
 10
0.0
 20
0.0
 30
0.0
  9
$PUCSORGBOTTOM
 10
0.0
 20
0.0
 30
0.0
  9
$PUCSORGLEFT
 10
0.0
 20
0.0
 30
0.0
  9
$PUCSORGRIGHT
 10
0.0
 20
0.0
 30
0.0
  9
$PUCSORGFRONT
 10
0.0
 20
0.0
 30
0.0
  9
$PUCSORGBACK
 10
0.0
 20
0.0
 30
0.0
  9
$USERI1
 70
     0
  9
$USERI2
 70
     0
  9
$USERI3
 70
     0
  9
$USERI4
 70
     0
  9
$USERI5
 70
     0
  9
$USERR1
 40
0.0
  9
$USERR2
 40
0.0
  9
$USERR3
 40
0.0
  9
$USERR4
 40
0.0
  9
$USERR5
 40
0.0
  9
$WORLDVIEW
 70
     1
  9
$SHADEDGE
 70
     3
  9
$SHADEDIF
 70
    70
  9
$TILEMODE
 70
     1
  9
$MAXACTVP
 70
    64
  9
$PINSBASE
 10
0.0
 20
0.0
 30
0.0
  9
$PLIMCHECK
 70
     0
  9
$PEXTMIN
 10
1.000000000000000E+20
 20
1.000000000000000E+20
 30
1.000000000000000E+20
  9
$PEXTMAX
 10
-1.000000000000000E+20
 20
-1.000000000000000E+20
 30
-1.000000000000000E+20
  9
$PLIMMIN
 10
0.0
 20
0.0
  9
$PLIMMAX
 10
12.0
 20
9.0
  9
$UNITMODE
 70
     0
  9
$VISRETAIN
 70
     1
  9
$PLINEGEN
 70
     0
  9
$PSLTSCALE
 70
     1
  9
$TREEDEPTH
 70
  3020
  9
$CMLSTYLE
  2
Standard
  9
$CMLJUST
 70
     0
  9
$CMLSCALE
 40
1.0
  9
$PROXYGRAPHICS
 70
     1
  9
$MEASUREMENT
 70
     1
  9
$CELWEIGHT
370
    -1
  9
$ENDCAPS
280
     0
  9
$JOINSTYLE
280
     0
  9
$LWDISPLAY
290
     1
  9
$INSUNITS
 70
     4
  9
$HYPERLINKBASE
  1

  9
$STYLESHEET
  1

  9
$XEDIT
290
     1
  9
$CEPSNTYPE
380
     0
  9
$PSTYLEMODE
290
     1
  9
$FINGERPRINTGUID
  2
{CCF25029-6E8D-4B3A-AD4C-74726AC20329}
  9
$VERSIONGUID
  2
{FAEB1C32-E019-11D5-929B-00C0DF256EC4}
  9
$EXTNAMES
290
     1
  9
$PSVPSCALE
 40
0.0
  9
$OLESTARTUP
290
     0
  9
$SORTENTS
280
   127
  9
$INDEXCTL
280
     0
  9
$HIDETEXT
280
     1
  9
$XCLIPFRAME
280
     2
  9
$HALOGAP
280
     0
  9
$OBSCOLOR
 70
   257
  9
$OBSLTYPE
280
     0
  9
$INTERSECTIONDISPLAY
280
     0
  9
$INTERSECTIONCOLOR
 70
   257
  9
$DIMASSOC
280
     2
  9
$PROJECTNAME
  1

  9
$CAMERADISPLAY
290
     0
  9
$LENSLENGTH
 40
50.0
  9
$CAMERAHEIGHT
 40
0.0
  9
$STEPSPERSEC
 40
2.0
  9
$STEPSIZE
 40
6.0
  9
$3DDWFPREC
 40
2.0
  9
$PSOLWIDTH
 40
0.25
  9
$PSOLHEIGHT
 40
4.0
  9
$LOFTANG1
 40
1.570796326794897
  9
$LOFTANG2
 40
1.570796326794897
  9
$LOFTMAG1
 40
0.0
  9
$LOFTMAG2
 40
0.0
  9
$LOFTPARAM
 70
     7
  9
$LOFTNORMALS
280
     1
  9
$LATITUDE
 40
37.795
  9
$LONGITUDE
 40
-122.394
  9
$NORTHDIRECTION
 40
0.0
  9
$TIMEZONE
 70
 -8000
  9
$LIGHTGLYPHDISPLAY
280
     1
  9
$TILEMODELIGHTSYNCH
280
     1
  9
$CMATERIAL
347
44
  9
$SOLIDHIST
280
     0
  9
$SHOWHIST
280
     1
  9
$DWFFRAME
280
     2
  9
$DGNFRAME
280
     2
  9
$REALWORLDSCALE
290
     1
  9
$INTERFERECOLOR
 62
   256
  9
$CSHADOW
280
     0
  9
$SHADOWPLANELOCATION
 40
0.0
  0
ENDSEC
  0
SECTION
  2
CLASSES
  0
CLASS
  1
ACDBDICTIONARYWDFLT
  2
AcDbDictionaryWithDefault
  3
ObjectDBX Classes
 90
        0
 91
        3
280
     0
281
     0
  0
CLASS
  1
VISUALSTYLE
  2
AcDbVisualStyle
  3
ObjectDBX Classes
 90
     4095
 91
        3
280
     0
281
     0
  0
CLASS
  1
MATERIAL
  2
AcDbMaterial
  3
ObjectDBX Classes
 90
     1153
 91
        3
280
     0
281
     0
  0
CLASS
  1
SCALE
  2
AcDbScale
  3
ObjectDBX Classes
 90
     1153
 91
        3
280
     0
281
     0
  0
CLASS
  1
TABLESTYLE
  2
AcDbTableStyle
  3
ObjectDBX Classes
 90
     4095
 91
        3
280
     0
281
     0
  0
CLASS
  1
MLEADERSTYLE
  2
AcDbMLeaderStyle
  3
ACDB_MLEADERSTYLE_CLASS
 90
     4095
 91
        3
280
     0
281
     0
  0
CLASS
  1
SUN
  2
AcDbSun
  3
SCENEOE
 90
     1153
 91
        3
280
     0
281
     0
  0
CLASS
  1
DICTIONARYVAR
  2
AcDbDictionaryVar
  3
ObjectDBX Classes
 90
        0
 91
        3
280
     0
281
     0
  0
CLASS
  1
CELLSTYLEMAP
  2
AcDbCellStyleMap
  3
ObjectDBX Classes
 90
     1152
 91
        3
280
     0
281
     0
  0
ENDSEC
  0
SECTION
  2
TABLES
  0
TABLE
  2
VPORT
  5
8
330
0
100
AcDbSymbolTable
 70
     1
  0
VPORT
  5
29
330
8
100
AcDbSymbolTableRecord
100
AcDbViewportTableRecord
  2
*Active
 70
     0
 10
0.0
 20
0.0
 11
1.0
 21
1.0
 12
385.0
 22
-243.0718136204516
 13
0.0
 23
0.0
 14
0.5
 24
0.5
 15
0.5
 25
0.5
 16
0.0
 26
0.0
 36
1.0
 17
0.0
 27
0.0
 37
0.0
 40
375.8563727594972
 41
1.6
 42
50.0
 43
0.0
 44
0.0
 50
0.0
 51
0.0
 71
     0
 72
   100
 73
     1
 74
     3
 75
     0
 76
     0
 77
     0
 78
     0
281
     0
 65
     1
110
0.0
120
0.0
130
0.0
111
1.0
121
0.0
131
0.0
112
0.0
122
1.0
132
0.0
 79
     0
146
0.0
348
2F
 60
     3
 61
     5
292
     1
282
     1
141
0.0
142
0.0
 63
   250
361
6D
  0
ENDTAB
  0
TABLE
  2
LTYPE
  5
5
330
0
100
AcDbSymbolTable
 70
     1
  0
LTYPE
  5
14
330
5
100
AcDbSymbolTableRecord
100
AcDbLinetypeTableRecord
  2
ByBlock
 70
     0
  3

 72
    65
 73
     0
 40
0.0
  0
LTYPE
  5
15
330
5
100
AcDbSymbolTableRecord
100
AcDbLinetypeTableRecord
  2
ByLayer
 70
     0
  3

 72
    65
 73
     0
 40
0.0
  0
LTYPE
  5
16
330
5
100
AcDbSymbolTableRecord
100
AcDbLinetypeTableRecord
  2
Continuous
 70
     0
  3
Solid line
 72
    65
 73
     0
 40
0.0
  0
ENDTAB
  0
TABLE
  2
LAYER
  5
2
330
0
100
AcDbSymbolTable
 70
     3
  0
LAYER
  5
10
330
2
100
AcDbSymbolTableRecord
100
AcDbLayerTableRecord
  2
0
 70
     0
 62
     7
  6
Continuous
370
    -3
390
F
347
46
348
0
  0
LAYER
  5
6E
330
2
100
AcDbSymbolTableRecord
100
AcDbLayerTableRecord
  2
1
 70
     0
 62
     7
  6
Continuous
370
    -3
390
F
347
46
348
0
  0
LAYER
  5
B3
330
2
100
AcDbSymbolTableRecord
100
AcDbLayerTableRecord
  2
Defpoints
 70
     0
 62
     7
  6
Continuous
290
     0
370
    -3
390
F
347
46
348
0
  0
ENDTAB
  0
TABLE
  2
STYLE
  5
3
330
0
100
AcDbSymbolTable
 70
     2
  0
STYLE
  5
11
330
3
100
AcDbSymbolTableRecord
100
AcDbTextStyleTableRecord
  2
Standard
 70
     0
 40
0.0
 41
1.0
 50
0.0
 71
     0
 42
0.2
  3
txt
  4

  0
STYLE
  5
6F
330
3
100
AcDbSymbolTableRecord
100
AcDbTextStyleTableRecord
  2
ＭＳ ゴシック
 70
     0
 40
0.0
 41
1.0
 50
0.0
 71
     0
 42
0.2
  3
ＭＳ ゴシック.shx
  4

  0
ENDTAB
  0
TABLE
  2
VIEW
  5
6
330
0
100
AcDbSymbolTable
 70
     0
  0
ENDTAB
  0
TABLE
  2
UCS
  5
7
330
0
100
AcDbSymbolTable
 70
     0
  0
ENDTAB
  0
TABLE
  2
APPID
  5
9
330
0
100
AcDbSymbolTable
 70
     1
  0
APPID
  5
12
330
9
100
AcDbSymbolTableRecord
100
AcDbRegAppTableRecord
  2
ACAD
 70
     0
  0
ENDTAB
  0
TABLE
  2
DIMSTYLE
  5
A
330
0
100
AcDbSymbolTable
 70
     1
100
AcDbDimStyleTable
  0
DIMSTYLE
105
27
102
{ACAD_REACTORS
330
B4
330
C1
330
CE
330
DD
102
}
330
A
100
AcDbSymbolTableRecord
100
AcDbDimStyleTableRecord
  2
Standard
 70
     0
178
     0
340
11
  0
ENDTAB
  0
TABLE
  2
BLOCK_RECORD
  5
1
330
0
100
AcDbSymbolTable
 70
     5
  0
BLOCK_RECORD
  5
1F
330
1
100
AcDbSymbolTableRecord
100
AcDbBlockTableRecord
  2
*Model_Space
340
22
 70
     0
280
     1
281
     0
  0
BLOCK_RECORD
  5
1B
330
1
100
AcDbSymbolTableRecord
100
AcDbBlockTableRecord
  2
*Paper_Space
340
1E
 70
     0
280
     1
281
     0
  0
BLOCK_RECORD
  5
23
330
1
100
AcDbSymbolTableRecord
100
AcDbBlockTableRecord
  2
*Paper_Space0
340
26
 70
     0
280
     1
281
     0
  0
BLOCK_RECORD
  5
B5
330
1
100
AcDbSymbolTableRecord
100
AcDbBlockTableRecord
  2
*D1
340
0
 70
     0
280
     1
281
     0
  0
BLOCK_RECORD
  5
C2
330
1
100
AcDbSymbolTableRecord
100
AcDbBlockTableRecord
  2
*D2
340
0
 70
     0
280
     1
281
     0
  0
BLOCK_RECORD
  5
CF
330
1
100
AcDbSymbolTableRecord
100
AcDbBlockTableRecord
  2
*D3
340
0
 70
     0
280
     1
281
     0
  0
BLOCK_RECORD
  5
DE
330
1
100
AcDbSymbolTableRecord
100
AcDbBlockTableRecord
  2
*D4
340
0
 70
     0
280
     1
281
     0
  0
ENDTAB
  0
ENDSEC
  0
SECTION
  2
BLOCKS
  0
BLOCK
  5
20
330
1F
100
AcDbEntity
  8
0
100
AcDbBlockBegin
  2
*Model_Space
 70
     0
 10
0.0
 20
0.0
 30
0.0
  3
*Model_Space
  1

  0
ENDBLK
  5
21
330
1F
100
AcDbEntity
  8
0
100
AcDbBlockEnd
  0
BLOCK
  5
1C
330
1B
100
AcDbEntity
 67
     1
  8
0
100
AcDbBlockBegin
  2
*Paper_Space
 70
     0
 10
0.0
 20
0.0
 30
0.0
  3
*Paper_Space
  1

  0
ENDBLK
  5
1D
330
1B
100
AcDbEntity
 67
     1
  8
0
100
AcDbBlockEnd
  0
BLOCK
  5
24
330
23
100
AcDbEntity
  8
0
100
AcDbBlockBegin
  2
*Paper_Space0
 70
     0
 10
0.0
 20
0.0
 30
0.0
  3
*Paper_Space0
  1

  0
ENDBLK
  5
25
330
23
100
AcDbEntity
  8
0
100
AcDbBlockEnd
  0
BLOCK
  5
B6
330
B5
100
AcDbEntity
  8
0
100
AcDbBlockBegin
  2
*D1
 70
     1
 10
0.0
 20
0.0
 30
0.0
  3
*D1
  1

  0
LINE
  5
B8
330
B5
100
AcDbEntity
  8
1
 62
     0
370
    -2
100
AcDbLine
 10
356.9358762177339
 20
-337.9615510390336
 30
0.0
 11
356.9358762177339
 21
-358.2835275134333
 31
0.0
  0
LINE
  5
B9
330
B5
100
AcDbEntity
  8
1
 62
     0
370
    -2
100
AcDbLine
 10
421.9358762177328
 20
-337.9615510112999
 30
0.0
 11
421.9358762177328
 21
-358.2835275134333
 31
0.0
  0
LINE
  5
BA
330
B5
100
AcDbEntity
  8
1
 62
     0
370
    -2
100
AcDbLine
 10
360.4358762177339
 20
-356.5335275134333
 30
0.0
 11
418.4358762177328
 21
-356.5335275134333
 31
0.0
  0
SOLID
  5
BB
330
B5
100
AcDbEntity
  8
1
 62
     0
100
AcDbTrace
 10
360.4358762177339
 20
-355.9501941801
 30
0.0
 11
360.4358762177339
 21
-357.1168608467667
 31
0.0
 12
356.9358762177339
 22
-356.5335275134333
 32
0.0
 13
356.9358762177339
 23
-356.5335275134333
 33
0.0
  0
SOLID
  5
BC
330
B5
100
AcDbEntity
  8
1
 62
     0
100
AcDbTrace
 10
418.4358762177328
 20
-357.1168608467667
 30
0.0
 11
418.4358762177328
 21
-355.9501941801
 31
0.0
 12
421.9358762177328
 22
-356.5335275134333
 32
0.0
 13
421.9358762177328
 23
-356.5335275134333
 33
0.0
  0
MTEXT
  5
BD
330
B5
100
AcDbEntity
  8
1
 62
     0
100
AcDbMText
 10
389.4358762177333
 20
-352.657093381884
 30
0.0
 40
3.5
 41
0.0
 46
0.0
 71
     5
 72
     1
  1
\A1;開口部（φ250以下）
  7
ＭＳ ゴシック
 73
     1
 44
1.0
  0
POINT
  5
BE
330
B5
100
AcDbEntity
  8
Defpoints
 62
     0
100
AcDbPoint
 10
356.9358762177339
 20
-337.8990510390336
 30
0.0
  0
POINT
  5
BF
330
B5
100
AcDbEntity
  8
Defpoints
 62
     0
100
AcDbPoint
 10
421.9358762177328
 20
-337.8990510112999
 30
0.0
  0
POINT
  5
C0
330
B5
100
AcDbEntity
  8
Defpoints
 62
     0
100
AcDbPoint
 10
421.9358762177328
 20
-356.5335275134333
 30
0.0
  0
ENDBLK
  5
B7
330
B5
100
AcDbEntity
  8
0
100
AcDbBlockEnd
  0
BLOCK
  5
C3
330
C2
100
AcDbEntity
  8
0
100
AcDbBlockBegin
  2
*D2
 70
     1
 10
0.0
 20
0.0
 30
0.0
  3
*D2
  1

  0
LINE
  5
C5
330
C2
100
AcDbEntity
  8
1
 62
     0
370
    -2
100
AcDbLine
 10
357.8733762177327
 20
-288.5657174285334
 30
0.0
 11
335.3271216787327
 21
-288.5657174285334
 31
0.0
  0
LINE
  5
C6
330
C2
100
AcDbEntity
  8
1
 62
     0
370
    -2
100
AcDbLine
 10
360.8733762177328
 20
-270.2323844666665
 30
0.0
 11
335.3271216787327
 21
-270.2323844666665
 31
0.0
  0
LINE
  5
C7
330
C2
100
AcDbEntity
  8
1
 62
     0
370
    -2
100
AcDbLine
 10
337.0771216787327
 20
-285.0657174285334
 30
0.0
 11
337.0771216787327
 21
-273.7323844666665
 31
0.0
  0
SOLID
  5
C8
330
C2
100
AcDbEntity
  8
1
 62
     0
100
AcDbTrace
 10
336.4937883453994
 20
-285.0657174285334
 30
0.0
 11
337.6604550120661
 21
-285.0657174285334
 31
0.0
 12
337.0771216787327
 22
-288.5657174285334
 32
0.0
 13
337.0771216787327
 23
-288.5657174285334
 33
0.0
  0
SOLID
  5
C9
330
C2
100
AcDbEntity
  8
1
 62
     0
100
AcDbTrace
 10
337.6604550120661
 20
-273.7323844666665
 30
0.0
 11
336.4937883453994
 21
-273.7323844666665
 31
0.0
 12
337.0771216787327
 22
-270.2323844666665
 32
0.0
 13
337.0771216787327
 23
-270.2323844666665
 33
0.0
  0
MTEXT
  5
CA
330
C2
100
AcDbEntity
  8
1
 62
     0
100
AcDbMText
 10
333.4186989889741
 20
-279.3990509476
 30
0.0
 40
3.5
 41
0.0
 46
0.0
 71
     5
 72
     1
  1
\A1;55以上
  7
ＭＳ ゴシック
 11
0.0
 21
1.0
 31
0.0
 73
     1
 44
1.0
  0
POINT
  5
CB
330
C2
100
AcDbEntity
  8
Defpoints
 62
     0
100
AcDbPoint
 10
357.9358762177327
 20
-288.5657174285334
 30
0.0
  0
POINT
  5
CC
330
C2
100
AcDbEntity
  8
Defpoints
 62
     0
100
AcDbPoint
 10
360.9358762177328
 20
-270.2323844666665
 30
0.0
  0
POINT
  5
CD
330
C2
100
AcDbEntity
  8
Defpoints
 62
     0
100
AcDbPoint
 10
337.0771216787327
 20
-270.2323844666665
 30
0.0
  0
ENDBLK
  5
C4
330
C2
100
AcDbEntity
  8
0
100
AcDbBlockEnd
  0
BLOCK
  5
D0
330
CF
100
AcDbEntity
  8
0
100
AcDbBlockBegin
  2
*D3
 70
     1
 10
0.0
 20
0.0
 30
0.0
  3
*D3
  1

  0
LINE
  5
D2
330
CF
100
AcDbEntity
  8
1
 62
     0
370
    -2
100
AcDbLine
 10
394.4144929348505
 20
-258.2500000000001
 30
0.0
 11
344.8309616106039
 21
-258.2500000000001
 31
0.0
  0
LINE
  5
D3
330
CF
100
AcDbEntity
  8
1
 62
     0
370
    -2
100
AcDbLine
 10
344.8309616106039
 20
-258.2500000000001
 30
0.0
 11
344.8309616106039
 21
-271.2323844389
 31
0.0
  0
LINE
  5
D4
330
CF
100
AcDbEntity
  8
1
 62
     0
370
    -2
100
AcDbLine
 10
432.8950584983003
 20
-304.5657176779667
 30
0.0
 11
343.0809616106039
 21
-304.5657176779667
 31
0.0
  0
LINE
  5
D5
330
CF
100
AcDbEntity
  8
1
 62
     0
370
    -2
100
AcDbLine
 10
417.8733762177338
 20
-271.2323844389
 30
0.0
 11
343.0809616106039
 21
-271.2323844389
 31
0.0
  0
LINE
  5
D6
330
CF
100
AcDbEntity
  8
1
 62
     0
370
    -2
100
AcDbLine
 10
344.8309616106039
 20
-301.0657176779667
 30
0.0
 11
344.8309616106039
 21
-274.7323844389
 31
0.0
  0
SOLID
  5
D7
330
CF
100
AcDbEntity
  8
1
 62
     0
100
AcDbTrace
 10
344.2476282772706
 20
-301.0657176779667
 30
0.0
 11
345.4142949439373
 21
-301.0657176779667
 31
0.0
 12
344.8309616106039
 22
-304.5657176779667
 32
0.0
 13
344.8309616106039
 23
-304.5657176779667
 33
0.0
  0
SOLID
  5
D8
330
CF
100
AcDbEntity
  8
1
 62
     0
100
AcDbTrace
 10
345.4142949439373
 20
-274.7323844389
 30
0.0
 11
344.2476282772706
 21
-274.7323844389
 31
0.0
 12
344.8309616106039
 22
-271.2323844389
 32
0.0
 13
344.8309616106039
 23
-271.2323844389
 33
0.0
  0
MTEXT
  5
D9
330
CF
100
AcDbEntity
  8
1
 62
     0
100
AcDbMText
 10
370.3727272727272
 20
-254.3636090096286
 30
0.0
 40
3.5
 41
0.0
 46
0.0
 71
     5
 72
     1
  1
\A1;スリーブ高さ：制限無し
  7
ＭＳ ゴシック
 73
     1
 44
1.0
  0
POINT
  5
DA
330
CF
100
AcDbEntity
  8
Defpoints
 62
     0
100
AcDbPoint
 10
432.9575584983003
 20
-304.5657176779667
 30
0.0
  0
POINT
  5
DB
330
CF
100
AcDbEntity
  8
Defpoints
 62
     0
100
AcDbPoint
 10
417.9358762177338
 20
-271.2323844389
 30
0.0
  0
POINT
  5
DC
330
CF
100
AcDbEntity
  8
Defpoints
 62
     0
100
AcDbPoint
 10
344.8309616106039
 20
-271.2323844389
 30
0.0
  0
ENDBLK
  5
D1
330
CF
100
AcDbEntity
  8
0
100
AcDbBlockEnd
  0
BLOCK
  5
DF
330
DE
100
AcDbEntity
  8
0
100
AcDbBlockBegin
  2
*D4
 70
     1
 10
0.0
 20
0.0
 30
0.0
  3
*D4
  1

  0
LINE
  5
E1
330
DE
100
AcDbEntity
  8
1
 62
     0
370
    -2
100
AcDbLine
 10
433.0200584983003
 20
-304.5657176779667
 30
0.0
 11
440.9575584983007
 21
-304.5657176779667
 31
0.0
  0
LINE
  5
E2
330
DE
100
AcDbEntity
  8
1
 62
     0
370
    -2
100
AcDbLine
 10
433.0200584983003
 20
-337.8990510112999
 30
0.0
 11
440.9575584983007
 21
-337.8990510112999
 31
0.0
  0
LINE
  5
E3
330
DE
100
AcDbEntity
  8
1
 62
     0
370
    -2
100
AcDbLine
 10
439.2075584983007
 20
-308.0657176779667
 30
0.0
 11
439.2075584983007
 21
-334.3990510112999
 31
0.0
  0
SOLID
  5
E4
330
DE
100
AcDbEntity
  8
1
 62
     0
100
AcDbTrace
 10
439.790891831634
 20
-308.0657176779667
 30
0.0
 11
438.6242251649674
 21
-308.0657176779667
 31
0.0
 12
439.2075584983007
 22
-304.5657176779667
 32
0.0
 13
439.2075584983007
 23
-304.5657176779667
 33
0.0
  0
SOLID
  5
E5
330
DE
100
AcDbEntity
  8
1
 62
     0
100
AcDbTrace
 10
438.6242251649674
 20
-334.3990510112999
 30
0.0
 11
439.790891831634
 21
-334.3990510112999
 31
0.0
 12
439.2075584983007
 22
-337.8990510112999
 32
0.0
 13
439.2075584983007
 23
-337.8990510112999
 33
0.0
  0
MTEXT
  5
E6
330
DE
100
AcDbEntity
  8
1
 62
     0
100
AcDbMText
 10
435.549135808542
 20
-321.2323843446333
 30
0.0
 40
3.5
 41
0.0
 46
0.0
 71
     5
 72
     1
  1
\A1;100以上
  7
ＭＳ ゴシック
 11
0.0
 21
1.0
 31
0.0
 73
     1
 44
1.0
  0
POINT
  5
E7
330
DE
100
AcDbEntity
  8
Defpoints
 62
     0
100
AcDbPoint
 10
432.9575584983003
 20
-304.5657176779667
 30
0.0
  0
POINT
  5
E8
330
DE
100
AcDbEntity
  8
Defpoints
 62
     0
100
AcDbPoint
 10
432.9575584983003
 20
-337.8990510112999
 30
0.0
  0
POINT
  5
E9
330
DE
100
AcDbEntity
  8
Defpoints
 62
     0
100
AcDbPoint
 10
439.2075584983007
 20
-337.8990510112999
 30
0.0
  0
ENDBLK
  5
E0
330
DE
100
AcDbEntity
  8
0
100
AcDbBlockEnd
  0
ENDSEC
  0
SECTION
  2
ENTITIES
  0
LINE
  5
70
330
1F
100
AcDbEntity
  8
1
  6
Continuous
 62
     7
370
     9
100
AcDbLine
 10
418.9499999999996
 20
-377.5000000018999
 30
0.0
 11
404.9500000007002
 21
-377.5000000022665
 31
0.0
  0
LINE
  5
71
330
1F
100
AcDbEntity
  8
1
  6
Continuous
 62
     7
370
     9
100
AcDbLine
 10
418.9499999999996
 20
-372.0000000001334
 30
0.0
 11
418.9499999999996
 21
-405.0000000001335
 31
0.0
  0
LINE
  5
72
330
1F
100
AcDbEntity
  8
1
  6
Continuous
 62
     7
370
     9
100
AcDbLine
 10
489.95
 20
-135.0000000001333
 30
0.0
 11
489.95
 21
-431.0000000002002
 31
0.0
  0
LINE
  5
73
330
1F
100
AcDbEntity
  8
1
  6
Continuous
 62
     7
370
     9
100
AcDbLine
 10
298.0499999999996
 20
-150.0000000001333
 30
0.0
 11
474.9499999999662
 21
-150.0000000001333
 31
0.0
  0
LINE
  5
74
330
1F
100
AcDbEntity
  8
1
  6
Continuous
 62
     7
370
     9
100
AcDbLine
 10
404.9499999997338
 20
-366.5000000001335
 30
0.0
 11
474.9499999997329
 21
-366.5000000001335
 31
0.0
  0
LINE
  5
75
330
1F
100
AcDbEntity
  8
1
  6
Continuous
 62
     7
370
     9
100
AcDbLine
 10
430.4499999998994
 20
-379.9929696850001
 30
0.0
 11
469.7499999999002
 21
-379.9929696850001
 31
0.0
  0
LINE
  5
76
330
1F
100
AcDbEntity
  8
1
  6
Continuous
 62
     7
370
     9
100
AcDbLine
 10
474.9499999999662
 20
-150.0000000001333
 30
0.0
 11
474.9499999999662
 21
-416.0000000001336
 31
0.0
  0
LINE
  5
77
330
1F
100
AcDbEntity
  8
1
  6
Continuous
 62
     7
370
     9
100
AcDbLine
 10
298.0499999999996
 20
-416.0000000001336
 30
0.0
 11
298.0499999999996
 21
-150.0000000001333
 31
0.0
  0
LINE
  5
78
330
1F
100
AcDbEntity
  8
1
  6
Continuous
 62
     7
370
     9
100
AcDbLine
 10
404.9500000007002
 20
-394.0000000002003
 30
0.0
 11
474.9500000000006
 21
-394.0000000002003
 31
0.0
  0
LINE
  5
79
330
1F
100
AcDbEntity
  8
1
  6
Continuous
 62
     7
370
     9
100
AcDbLine
 10
489.95
 20
-431.0000000001335
 30
0.0
 11
280.0500000000001
 21
-431.0000000001335
 31
0.0
  0
LINE
  5
7A
330
1F
100
AcDbEntity
  8
1
  6
Continuous
 62
     7
370
     9
100
AcDbLine
 10
424.9499999999999
 20
-405.0000000001335
 30
0.0
 11
424.9499999999999
 21
-372.0000000001334
 31
0.0
  0
LINE
  5
7B
330
1F
100
AcDbEntity
  8
1
  6
Continuous
 62
     7
370
     9
100
AcDbLine
 10
280.0500000000001
 20
-431.0000000002001
 30
0.0
 11
280.0500000000001
 21
-134.9999999998667
 31
0.0
  0
LINE
  5
7C
330
1F
100
AcDbEntity
  8
1
  6
Continuous
 62
     7
370
     9
100
AcDbLine
 10
280.0500000000001
 20
-134.9999999998667
 30
0.0
 11
489.95
 21
-135.0000000001333
 31
0.0
  0
LINE
  5
7D
330
1F
100
AcDbEntity
  8
1
  6
Continuous
 62
     7
370
     9
100
AcDbLine
 10
474.9500000000006
 20
-416.0000000001336
 30
0.0
 11
298.0499999999996
 21
-416.0000000001336
 31
0.0
  0
LINE
  5
7E
330
1F
100
AcDbEntity
  8
1
  6
Continuous
 62
     7
370
     9
100
AcDbLine
 10
474.9499999999662
 20
-405.0000000001335
 30
0.0
 11
404.9500000007002
 21
-405.0000000001335
 31
0.0
  0
LINE
  5
7F
330
1F
100
AcDbEntity
  8
1
  6
Continuous
 62
     7
370
     9
100
AcDbLine
 10
376.9070659313659
 20
-266.6537155630335
 30
0.0
 11
376.9070659313659
 21
-350.2835275134333
 31
0.0
  0
LINE
  5
80
330
1F
100
AcDbEntity
  8
1
  6
Continuous
 62
     7
370
     9
100
AcDbLine
 10
363.4358762177329
 20
-271.2323844666666
 30
0.0
 11
363.4358762177329
 21
-337.8990510088666
 31
0.0
  0
LINE
  5
81
330
1F
100
AcDbEntity
  8
1
  6
Continuous
 62
     7
370
     9
100
AcDbLine
 10
346.0271216787325
 20
-304.5657176779667
 30
0.0
 11
363.4358762496659
 21
-304.5657177184002
 31
0.0
  0
LINE
  5
82
330
1F
100
AcDbEntity
  8
1
  6
Continuous
 62
     7
370
     9
100
AcDbLine
 10
415.4358762177337
 20
-304.5657176777003
 30
0.0
 11
432.9575584983003
 21
-304.5657176779667
 31
0.0
  0
LINE
  5
83
330
1F
100
AcDbEntity
  8
1
  6
Continuous
 62
     7
370
     9
100
AcDbLine
 10
417.9358762177338
 20
-271.2323844389
 30
0.0
 11
417.9358762177338
 21
-270.2323844388999
 31
0.0
  0
LINE
  5
84
330
1F
100
AcDbEntity
  8
1
  6
Continuous
 62
     7
370
     9
100
AcDbLine
 10
417.9358762177338
 20
-270.2323844389
 30
0.0
 11
402.2404066687335
 21
-270.2323844389
 31
0.0
  0
LINE
  5
85
330
1F
100
AcDbEntity
  8
1
  6
Continuous
 62
     7
370
     9
100
AcDbLine
 10
360.9358762177328
 20
-271.2323844666666
 30
0.0
 11
360.9358762177328
 21
-270.2323844666665
 31
0.0
  0
LINE
  5
86
330
1F
100
AcDbEntity
  8
1
  6
Continuous
 62
     7
370
     9
100
AcDbLine
 10
414.1025428844
 20
-270.2323844389
 30
0.0
 11
414.1025428844
 21
-288.5657174007665
 31
0.0
  0
LINE
  5
87
330
1F
100
AcDbEntity
  8
1
  6
Continuous
 62
     7
370
     9
100
AcDbLine
 10
363.7692095510667
 20
-288.5657175182
 30
0.0
 11
376.9070659313659
 21
-288.5657177722332
 31
0.0
  0
LINE
  5
88
330
1F
100
AcDbEntity
  8
1
  6
Continuous
 62
     7
370
     9
100
AcDbLine
 10
402.2404066687335
 20
-266.6537155630335
 30
0.0
 11
402.2404066687335
 21
-350.2835275134333
 31
0.0
  0
LINE
  5
89
330
1F
100
AcDbEntity
  8
1
  6
Continuous
 62
     7
370
     9
100
AcDbLine
 10
474.9499999999662
 20
-372.0000000001334
 30
0.0
 11
404.9500000007002
 21
-372.0000000001334
 31
0.0
  0
LINE
  5
8A
330
1F
100
AcDbEntity
  8
1
  6
Continuous
 62
     7
370
     9
100
AcDbLine
 10
376.9070659313659
 20
-337.8990510112665
 30
0.0
 11
346.0271216787326
 21
-337.8990510112999
 31
0.0
  0
LINE
  5
8B
330
1F
100
AcDbEntity
  8
1
  6
Continuous
 62
     7
370
     9
100
AcDbLine
 10
415.4358762177337
 20
-271.2323844388666
 30
0.0
 11
415.4358762177337
 21
-337.8990510112665
 31
0.0
  0
LINE
  5
8C
330
1F
100
AcDbEntity
  8
1
  6
Continuous
 62
     7
370
     9
100
AcDbLine
 10
360.9358762177328
 20
-270.2323844666665
 30
0.0
 11
376.9070659313659
 21
-270.2323844389
 31
0.0
  0
LINE
  5
8D
330
1F
100
AcDbEntity
  8
1
  6
Continuous
 62
     7
370
     9
100
AcDbLine
 10
432.9575584983003
 20
-337.8990510112999
 30
0.0
 11
402.051606042133
 21
-337.8990510112999
 31
0.0
  0
LINE
  5
8E
330
1F
100
AcDbEntity
  8
1
  6
Continuous
 62
     7
370
     9
100
AcDbLine
 10
415.1025428844
 20
-288.5656629311667
 30
0.0
 11
402.2404066687335
 21
-288.5657174008
 31
0.0
  0
LINE
  5
8F
330
1F
100
AcDbEntity
  8
1
  6
Continuous
 62
     7
370
     9
100
AcDbLine
 10
404.9499999999659
 20
-366.5000000001335
 30
0.0
 11
404.9500000002004
 21
-416.0000000001336
 31
0.0
  0
LINE
  5
90
330
1F
100
AcDbEntity
  8
1
  6
Continuous
 62
     7
370
     9
100
AcDbLine
 10
364.7692095510668
 20
-288.5657174285334
 30
0.0
 11
364.7692095510668
 21
-270.2323844666665
 31
0.0
  0
LINE
  5
91
330
1F
100
AcDbEntity
  8
1
  6
Continuous
 62
     7
370
     9
100
AcDbLine
 10
334.7166666666672
 20
-160.6666666668
 30
0.0
 11
334.7166666666672
 21
-153.3333333334667
 31
0.0
  0
LINE
  5
92
330
1F
100
AcDbEntity
  8
1
  6
Continuous
 62
     7
370
     9
100
AcDbLine
 10
415.1025428844
 20
-271.2323844389
 30
0.0
 11
417.9358762177338
 21
-271.2323844389
 31
0.0
  0
LINE
  5
93
330
1F
100
AcDbEntity
  8
1
  6
Continuous
 62
     7
370
     9
100
AcDbLine
 10
356.9358762177339
 20
-304.5657310434665
 30
0.0
 11
356.9358762177339
 21
-337.8990510088666
 31
0.0
  0
CIRCLE
  5
94
330
1F
100
AcDbEntity
  8
1
  6
Continuous
 62
     7
370
     9
100
AcDbCircle
 10
389.4358762177328
 20
-213.7880755570333
 30
0.0
 40
32.50000000000003
  0
LINE
  5
95
330
1F
100
AcDbEntity
  8
1
  6
Continuous
 62
     7
370
     9
100
AcDbLine
 10
360.9358762177328
 20
-271.2323844666666
 30
0.0
 11
363.7692095510667
 21
-271.2323845597335
 31
0.0
  0
CIRCLE
  5
96
330
1F
100
AcDbEntity
  8
1
  6
Continuous
 62
     7
370
     9
100
AcDbCircle
 10
389.5048062588992
 20
-213.7880755570333
 30
0.0
 40
25.23333333333372
  0
LINE
  5
97
330
1F
100
AcDbEntity
  8
1
  6
Continuous
 62
     7
370
     9
100
AcDbLine
 10
301.3833333333334
 20
-160.6666666668
 30
0.0
 11
334.7166666666673
 21
-160.6666666668
 31
0.0
  0
CIRCLE
  5
98
330
1F
100
AcDbEntity
  8
1
  6
Continuous
 62
     7
370
     9
100
AcDbCircle
 10
389.4358762177328
 20
-213.7880755570333
 30
0.0
 40
28.90000000000015
  0
LINE
  5
99
330
1F
100
AcDbEntity
  8
1
  6
Continuous
 62
     7
370
     9
100
AcDbLine
 10
301.3833333333334
 20
-153.3333333334667
 30
0.0
 11
301.3833333333334
 21
-160.6666666668
 31
0.0
  0
LINE
  5
9A
330
1F
100
AcDbEntity
  8
1
  6
Continuous
 62
     7
370
     9
100
AcDbLine
 10
363.7692095510667
 20
-271.2323845597335
 30
0.0
 11
363.7692095510667
 21
-337.8990511320999
 31
0.0
  0
LINE
  5
9B
330
1F
100
AcDbEntity
  8
1
  6
Continuous
 62
     7
370
     9
100
AcDbLine
 10
415.1025428844
 20
-271.2323844389
 30
0.0
 11
415.1025428844
 21
-337.8990510112333
 31
0.0
  0
LINE
  5
9C
330
1F
100
AcDbEntity
  8
1
  6
Continuous
 62
     7
370
     9
100
AcDbLine
 10
334.7166666666672
 20
-153.3333333334667
 30
0.0
 11
301.3833333333334
 21
-153.3333333334667
 31
0.0
  0
LINE
  5
9D
330
1F
100
AcDbEntity
  8
1
  6
Continuous
 62
     7
370
     9
100
AcDbLine
 10
421.9358762177328
 20
-304.5657176779667
 30
0.0
 11
421.9358762177328
 21
-337.8990510112999
 31
0.0
  0
CIRCLE
  5
9E
330
1F
100
AcDbEntity
  8
1
  6
Continuous
 62
     7
370
     9
100
AcDbCircle
 10
389.5737363000669
 20
-224.7880755570331
 30
0.0
 40
2.166666666666373
  0
CIRCLE
  5
9F
330
1F
100
AcDbEntity
  8
1
  6
Continuous
 62
     7
370
     9
100
AcDbCircle
 10
387.3737363000661
 20
-228.5985873336669
 30
0.0
 40
2.166666666666317
  0
CIRCLE
  5
A0
330
1F
100
AcDbEntity
  8
1
  6
Continuous
 62
     7
370
     9
100
AcDbCircle
 10
383.2403992646999
 20
-208.6532285964664
 30
0.0
 40
6.333333333332747
  0
CIRCLE
  5
A1
330
1F
100
AcDbEntity
  8
1
  6
Continuous
 62
     7
370
     9
100
AcDbCircle
 10
383.2403992646999
 20
-208.6532285964664
 30
0.0
 40
3.616666666667101
  0
CIRCLE
  5
A2
330
1F
100
AcDbEntity
  8
1
  6
Continuous
 62
     7
370
     9
100
AcDbCircle
 10
385.1737363000665
 20
-224.7880755570331
 30
0.0
 40
2.166666666666373
  0
CIRCLE
  5
A3
330
1F
100
AcDbEntity
  8
1
  6
Continuous
 62
     7
370
     9
100
AcDbCircle
 10
389.5737325980326
 20
-197.6836627665334
 30
0.0
 40
3.616666666667157
  0
CIRCLE
  5
A4
330
1F
100
AcDbEntity
  8
1
  6
Continuous
 62
     7
370
     9
100
AcDbCircle
 10
391.7737363000665
 20
-220.9775637803665
 30
0.0
 40
2.166666666666317
  0
CIRCLE
  5
A5
330
1F
100
AcDbEntity
  8
1
  6
Continuous
 62
     7
370
     9
100
AcDbCircle
 10
389.5737363000669
 20
-224.7880755570331
 30
0.0
 40
11.00000000000045
  0
CIRCLE
  5
A6
330
1F
100
AcDbEntity
  8
1
  6
Continuous
 62
     7
370
     9
100
AcDbCircle
 10
389.5737325980326
 20
-197.6836627665334
 30
0.0
 40
5.299999999999527
  0
CIRCLE
  5
A7
330
1F
100
AcDbEntity
  8
1
  6
Continuous
 62
     7
370
     9
100
AcDbCircle
 10
395.9070733354008
 20
-208.6532285964664
 30
0.0
 40
5.299999999999471
  0
CIRCLE
  5
A8
330
1F
100
AcDbEntity
  8
1
  6
Continuous
 62
     7
370
     9
100
AcDbCircle
 10
393.9737363000673
 20
-224.7880755570331
 30
0.0
 40
2.166666666666373
  0
CIRCLE
  5
A9
330
1F
100
AcDbEntity
  8
1
  6
Continuous
 62
     7
370
     9
100
AcDbCircle
 10
387.3737363000661
 20
-220.9775637803665
 30
0.0
 40
2.166666666666317
  0
CIRCLE
  5
AA
330
1F
100
AcDbEntity
  8
1
  6
Continuous
 62
     7
370
     9
100
AcDbCircle
 10
395.9070733354008
 20
-208.6532285964664
 30
0.0
 40
3.616666666667101
  0
CIRCLE
  5
AB
330
1F
100
AcDbEntity
  8
1
  6
Continuous
 62
     7
370
     9
100
AcDbCircle
 10
395.9070733354008
 20
-208.6532285964664
 30
0.0
 40
5.116666666667157
  0
CIRCLE
  5
AC
330
1F
100
AcDbEntity
  8
1
  6
Continuous
 62
     7
370
     9
100
AcDbCircle
 10
395.9070733354008
 20
-208.6532285964664
 30
0.0
 40
6.333333333332747
  0
CIRCLE
  5
AD
330
1F
100
AcDbEntity
  8
1
  6
Continuous
 62
     7
370
     9
100
AcDbCircle
 10
383.2403992646999
 20
-208.6532285964664
 30
0.0
 40
5.299999999999471
  0
CIRCLE
  5
AE
330
1F
100
AcDbEntity
  8
1
  6
Continuous
 62
     7
370
     9
100
AcDbCircle
 10
389.5737363000669
 20
-224.7880755570331
 30
0.0
 40
8.33333333333286
  0
CIRCLE
  5
AF
330
1F
100
AcDbEntity
  8
1
  6
Continuous
 62
     7
370
     9
100
AcDbCircle
 10
389.5737325980326
 20
-197.6836627665334
 30
0.0
 40
5.116666666667213
  0
CIRCLE
  5
B0
330
1F
100
AcDbEntity
  8
1
  6
Continuous
 62
     7
370
     9
100
AcDbCircle
 10
391.7737363000665
 20
-228.5985873336669
 30
0.0
 40
2.166666666666317
  0
CIRCLE
  5
B1
330
1F
100
AcDbEntity
  8
1
  6
Continuous
 62
     7
370
     9
100
AcDbCircle
 10
389.5737325980326
 20
-197.6836627665334
 30
0.0
 40
6.333333333332802
  0
CIRCLE
  5
B2
330
1F
100
AcDbEntity
  8
1
  6
Continuous
 62
     7
370
     9
100
AcDbCircle
 10
383.2403992646999
 20
-208.6532285964664
 30
0.0
 40
5.116666666667157
  0
DIMENSION
  5
B4
330
1F
100
AcDbEntity
  8
1
 62
     2
100
AcDbDimension
280
     0
  2
*D1
 10
421.9358762177328
 20
-356.5335275134333
 30
0.0
 11
389.4358762177333
 21
-356.5335275134333
 31
0.0
 70
   160
  1
開口部（φ250以下）
 71
     5
 42
64.99999999999886
 73
     0
 74
     0
 75
     0
  3
Standard
100
AcDbAlignedDimension
 13
356.9358762177339
 23
-337.8990510390336
 33
0.0
 14
421.9358762177328
 24
-337.8990510112999
 34
0.0
100
AcDbRotatedDimension
1001
ACAD
1000
DSTYLE
1002
{
1070
    73
1070
     0
1070
    74
1070
     0
1070
   280
1070
     0
1070
    76
1070
     0
1070
    75
1070
     0
1070
   282
1070
     0
1070
   281
1070
     0
1070
   173
1070
     1
1070
   284
1070
     8
1070
    78
1070
     8
1070
    79
1070
     2
1070
   144
1040
1.0
1070
   146
1040
0.5
1070
   179
1070
     2
1070
    41
1040
3.5
1070
   271
1070
     2
1070
    44
1040
1.75
1070
   147
1040
1.5
1070
    77
1070
     1
1070
   340
1005
6F
1070
   140
1040
3.5
1002
}
  0
DIMENSION
  5
C1
330
1F
100
AcDbEntity
  8
1
 62
     2
100
AcDbDimension
280
     0
  2
*D2
 10
337.0771216787327
 20
-270.2323844666665
 30
0.0
 11
337.0771216787327
 21
-279.3990509476
 31
0.0
 70
   160
  1
55以上
 71
     5
 42
18.33333296186686
 73
     0
 74
     0
 75
     0
  3
Standard
100
AcDbAlignedDimension
 13
357.9358762177327
 23
-288.5657174285334
 33
0.0
 14
360.9358762177328
 24
-270.2323844666665
 34
0.0
 50
90.0
100
AcDbRotatedDimension
1001
ACAD
1000
DSTYLE
1002
{
1070
    73
1070
     0
1070
    74
1070
     0
1070
   280
1070
     0
1070
    76
1070
     0
1070
    75
1070
     0
1070
   282
1070
     0
1070
   281
1070
     0
1070
   173
1070
     1
1070
   284
1070
     8
1070
    78
1070
     8
1070
    79
1070
     2
1070
   144
1040
1.0
1070
   146
1040
0.5
1070
   179
1070
     2
1070
    41
1040
3.5
1070
   271
1070
     2
1070
    44
1040
1.75
1070
   147
1040
1.5
1070
    77
1070
     1
1070
   340
1005
6F
1070
   140
1040
3.5
1002
}
  0
DIMENSION
  5
CE
330
1F
100
AcDbEntity
  8
1
 62
     2
100
AcDbDimension
280
     0
  2
*D3
 10
344.8309616106039
 20
-271.2323844389
 30
0.0
 11
370.3727272727272
 21
-258.2500000000001
 31
0.0
 70
   160
  1
スリーブ高さ：制限無し
 71
     5
 42
33.33333323906675
 73
     0
 74
     0
 75
     0
  3
Standard
100
AcDbAlignedDimension
 13
432.9575584983003
 23
-304.5657176779667
 33
0.0
 14
417.9358762177338
 24
-271.2323844389
 34
0.0
 50
90.0
100
AcDbRotatedDimension
1001
ACAD
1000
DSTYLE
1002
{
1070
    73
1070
     1
1070
    74
1070
     1
1070
   280
1070
     0
1070
    76
1070
     0
1070
    75
1070
     0
1070
   282
1070
     0
1070
   281
1070
     0
1070
   173
1070
     1
1070
   284
1070
     8
1070
    78
1070
     8
1070
    79
1070
     2
1070
   144
1040
1.0
1070
   146
1040
0.5
1070
   179
1070
     2
1070
    41
1040
3.5
1070
   271
1070
     2
1070
    44
1040
1.75
1070
   147
1040
1.5
1070
    77
1070
     1
1070
   340
1005
6F
1070
   140
1040
3.5
1002
}
  0
DIMENSION
  5
DD
330
1F
100
AcDbEntity
  8
1
 62
     2
100
AcDbDimension
280
     0
  2
*D4
 10
439.2075584983007
 20
-337.8990510112999
 30
0.0
 11
439.2075584983007
 21
-321.2323843446333
 31
0.0
 70
   160
  1
100以上
 71
     5
 42
33.3333333333332
 73
     0
 74
     0
 75
     0
  3
Standard
100
AcDbAlignedDimension
 13
432.9575584983003
 23
-304.5657176779667
 33
0.0
 14
432.9575584983003
 24
-337.8990510112999
 34
0.0
 50
270.0
100
AcDbRotatedDimension
1001
ACAD
1000
DSTYLE
1002
{
1070
    73
1070
     0
1070
    74
1070
     0
1070
   280
1070
     0
1070
    76
1070
     0
1070
    75
1070
     0
1070
   282
1070
     0
1070
   281
1070
     0
1070
   173
1070
     1
1070
   284
1070
     8
1070
    78
1070
     8
1070
    79
1070
     2
1070
   144
1040
1.0
1070
   146
1040
0.5
1070
   179
1070
     2
1070
    41
1040
3.5
1070
   271
1070
     2
1070
    44
1040
1.75
1070
   147
1040
1.5
1070
    77
1070
     1
1070
   340
1005
6F
1070
   140
1040
3.5
1002
}
  0
MTEXT
  5
EA
330
1F
100
AcDbEntity
  8
1
 62
     7
100
AcDbMText
 10
431.3925277531516
 20
-374.6702422710059
 30
0.0
 40
3.0
 41
0.0
 46
0.0
 71
     1
 72
     1
  1
{\fＭＳ ゴシック;\W0.950876;\Q14.999825;パテエース(丸穴キット)}
 73
     1
 44
1.0
  0
MTEXT
  5
EB
330
1F
100
AcDbEntity
  8
1
 62
     7
100
AcDbMText
 10
301.8455905181548
 20
-405.9613635134303
 30
0.0
 40
3.5
 41
0.0
 46
0.0
 71
     1
 72
     1
  1
{\fＭＳ ゴシック;\W0.819617;　２）製品のご使用は、所轄行政機関にご確認ください。}
 73
     1
 44
1.0
  0
MTEXT
  5
EC
330
1F
100
AcDbEntity
  8
1
 62
     7
100
AcDbMText
 10
302.5989962429218
 20
-154.3272726043394
 30
0.0
 40
6.0
 41
0.0
 46
0.0
 71
     1
 72
     1
  1
{\fＭＳ ゴシック;\W0.881402;\Q15;標準施工図}
 73
     1
 44
1.0
  0
MTEXT
  5
ED
330
1F
100
AcDbEntity
  8
1
 62
     7
100
AcDbMText
 10
421.6358060485406
 20
-367.4499998770668
 30
0.0
 40
4.0
 41
0.0
 46
0.0
 71
     1
 72
     1
  1
{\fＭＳ ゴシック;\W0.869831;\Q14.999825;製　品　仕　様　図}
 73
     1
 44
1.0
  0
MTEXT
  5
EE
330
1F
100
AcDbEntity
  8
1
 62
     7
100
AcDbMText
 10
409.6323317605786
 20
-384.1431816952485
 30
0.0
 40
3.5
 41
0.0
 46
0.0
 71
     1
 72
     1
  1
{\fＭＳ ゴシック;\W0.777385;1/3}
 73
     1
 44
1.0
  0
MTEXT
  5
EF
330
1F
100
AcDbEntity
  8
1
 62
     7
100
AcDbMText
 10
405.4766801128511
 20
-398.1363635134304
 30
0.0
 40
3.0
 41
0.0
 46
0.0
 71
     1
 72
     1
  1
{\fＭＳ ゴシック;\W0.986718;第三角法}
 73
     1
 44
1.0
  0
MTEXT
  5
F0
330
1F
100
AcDbEntity
  8
1
 62
     7
100
AcDbMText
 10
301.8455120067912
 20
-411.4818180588848
 30
0.0
 40
3.5
 41
0.0
 46
0.0
 71
     1
 72
     1
  1
{\fＭＳ ゴシック;\W0.819288;注１）「認定書」の仕様に基づき、正しく施工してください。}
 73
     1
 44
1.0
  0
MTEXT
  5
F1
330
1F
100
AcDbEntity
  8
1
 62
     7
100
AcDbMText
 10
420.5087746961855
 20
-387.8159625740363
 30
0.0
 40
3.0
 41
0.0
 46
0.0
 71
     1
 72
     1
  1
{\fＭＳ ゴシック;\W1.112525;名}
 73
     1
 44
1.0
  0
MTEXT
  5
F2
330
1F
100
AcDbEntity
  8
1
 62
     7
100
AcDbMText
 10
304.0824914613373
 20
-169.1981726952485
 30
0.0
 40
4.0
 41
0.0
 46
0.0
 71
     1
 72
     1
  1
{\fＭＳ ゴシック;\W0.866277;\LＰＳ０６０ＦＬ－０８４８\l}
 73
     1
 44
1.0
  0
MTEXT
  5
F3
330
1F
100
AcDbEntity
  8
1
 62
     7
100
AcDbMText
 10
434.733511894099
 20
-385.8136362407029
 30
0.0
 40
3.0
 41
0.0
 46
0.0
 71
     1
 72
     1
  1
{\fＭＳ ゴシック;\W0.966479;\Q14.999825;ＭＴＫＢ－ＡＣ＿＿}
 73
     1
 44
1.0
  0
MTEXT
  5
F4
330
1F
100
AcDbEntity
  8
1
 62
     7
100
AcDbMText
 10
436.4027335364027
 20
-398.3136362407031
 30
0.0
 40
3.0
 41
0.0
 46
0.0
 71
     1
 72
     1
  1
{\fＭＳ ゴシック;\W0.968465;\Q14.999825;Ｂ０８４８４０Ａ－１}
 73
     1
 44
1.0
  0
MTEXT
  5
F5
330
1F
100
AcDbEntity
  8
1
 62
     7
100
AcDbMText
 10
304.0839483704282
 20
-163.0163545134304
 30
0.0
 40
4.0
 41
0.0
 46
0.0
 71
     1
 72
     1
  1
{\fＭＳ ゴシック;\W0.871619;\L国土交通大臣認定\l}
 73
     1
 44
1.0
  0
MTEXT
  5
F6
330
1F
100
AcDbEntity
  8
1
 62
     7
100
AcDbMText
 10
408.8221601280023
 20
-373.4272726043395
 30
0.0
 40
3.0
 41
0.0
 46
0.0
 71
     1
 72
     1
  1
{\fＭＳ ゴシック;\W1.025368;尺度}
 73
     1
 44
1.0
  0
MTEXT
  5
F7
330
1F
100
AcDbEntity
  8
1
 62
     7
100
AcDbMText
 10
420.5087746961855
 20
-400.3478442407032
 30
0.0
 40
3.0
 41
0.0
 46
0.0
 71
     1
 72
     1
  1
{\fＭＳ ゴシック;\W1.112525;番}
 73
     1
 44
1.0
  0
MTEXT
  5
F8
330
1F
100
AcDbEntity
  8
1
 62
     7
100
AcDbMText
 10
420.5087746961855
 20
-377.0159625740363
 30
0.0
 40
3.0
 41
0.0
 46
0.0
 71
     1
 72
     1
  1
{\fＭＳ ゴシック;\W1.112525;品}
 73
     1
 44
1.0
  0
MTEXT
  5
F9
330
1F
100
AcDbEntity
  8
1
 62
     7
100
AcDbMText
 10
420.5087746961855
 20
-396.1478442407029
 30
0.0
 40
3.0
 41
0.0
 46
0.0
 71
     1
 72
     1
  1
{\fＭＳ ゴシック;\W1.112525;図}
 73
     1
 44
1.0
  0
MTEXT
  5
FA
330
1F
100
AcDbEntity
  8
1
 62
     7
100
AcDbMText
 10
351.2088077340646
 20
-55.14362724070303
 30
0.0
 40
40.0
 41
0.0
 46
0.0
 71
     1
 72
     1
  1
{\fＭＳ ゴシック;\W0.866277;\L電気\l}
 73
     1
 44
1.0
  0
LINE
  5
FB
330
1F
100
AcDbEntity
  8
1
  6
Continuous
 62
     7
370
     9
100
AcDbLine
 10
386.4791386711343
 20
-207.0436184464667
 30
0.0
 11
383.4658056878336
 21
-212.2628642736668
 31
0.0
  0
LINE
  5
FC
330
1F
100
AcDbEntity
  8
1
  6
Continuous
 62
     7
370
     9
100
AcDbLine
 10
385.0487547052011
 20
-205.5211161498001
 30
0.0
 11
381.4320880386334
 21
-211.7853665703334
 31
0.0
  0
LINE
  5
FD
330
1F
100
AcDbEntity
  8
1
  6
Continuous
 62
     7
370
     9
100
AcDbLine
 10
383.0150539987326
 20
-205.0435891007669
 30
0.0
 11
380.0016871299331
 21
-210.2628936193665
 31
0.0
  0
CIRCLE
  5
FE
330
1F
100
AcDbEntity
  8
1
  6
Continuous
 62
     7
370
     9
100
AcDbCircle
 10
361.4605875439661
 20
-203.7223201231333
 30
0.0
 40
0.5000000000000004
  0
MTEXT
  5
FF
330
1F
100
AcDbEntity
  8
1
 62
     7
100
AcDbMText
 10
321.3958970446695
 20
-205.9345523316119
 30
0.0
 40
3.5
 41
0.0
 46
0.0
 71
     1
 72
     1
  1
{\fＭＳ ゴシック;\W0.845758;モルタル}
 73
     1
 44
1.0
  0
MTEXT
  5
100
330
1F
100
AcDbEntity
  8
1
 62
     7
100
AcDbMText
 10
321.3921635787604
 20
-210.3868250588849
 30
0.0
 40
3.5
 41
0.0
 46
0.0
 71
     1
 72
     1
  1
{\fＭＳ ゴシック;\W0.830113;（あり又はなし）}
 73
     1
 44
1.0
  0
LINE
  5
101
330
1F
100
AcDbEntity
  8
1
  6
Continuous
 62
     7
370
     9
100
AcDbLine
 10
321.1940684144325
 20
-214.6800067585669
 30
0.0
 11
347.894662137933
 21
-214.6800067585669
 31
0.0
  0
LINE
  5
102
330
1F
100
AcDbEntity
  8
1
  6
Continuous
 62
     7
370
     9
100
AcDbLine
 10
361.4605875439661
 20
-203.7223201231333
 30
0.0
 11
347.894662137933
 21
-210.1800067585667
 31
0.0
  0
LINE
  5
103
330
1F
100
AcDbEntity
  8
1
  6
Continuous
 62
     7
370
     9
100
AcDbLine
 10
347.894662137933
 20
-210.1800067585667
 30
0.0
 11
321.1940684144325
 21
-210.1800067585667
 31
0.0
  0
LINE
  5
104
330
1F
100
AcDbEntity
  8
1
  6
Continuous
 62
     7
370
     9
100
AcDbLine
 10
399.1458093167325
 20
-207.0436115547333
 30
0.0
 11
396.1324720775675
 21
-212.2628647533001
 31
0.0
  0
LINE
  5
105
330
1F
100
AcDbEntity
  8
1
  6
Continuous
 62
     7
370
     9
100
AcDbLine
 10
397.7154232229003
 20
-205.5211129437001
 30
0.0
 11
394.0987565562664
 21
-211.7853633643331
 31
0.0
  0
LINE
  5
106
330
1F
100
AcDbEntity
  8
1
  6
Continuous
 62
     7
370
     9
100
AcDbLine
 10
395.681720388566
 20
-205.0435895802665
 30
0.0
 11
392.6683577754662
 21
-210.2628867277666
 31
0.0
  0
CIRCLE
  5
107
330
1F
100
AcDbEntity
  8
1
  6
Continuous
 62
     7
370
     9
100
AcDbCircle
 10
359.0230372341662
 20
-336.1304241849332
 30
0.0
 40
0.5000000000000004
  0
MTEXT
  5
108
330
1F
100
AcDbEntity
  8
1
 62
     7
100
AcDbMText
 10
318.9583467113352
 20
-338.342656331612
 30
0.0
 40
3.5
 41
0.0
 46
0.0
 71
     1
 72
     1
  1
{\fＭＳ ゴシック;\W0.845758;モルタル}
 73
     1
 44
1.0
  0
MTEXT
  5
109
330
1F
100
AcDbEntity
  8
1
 62
     7
100
AcDbMText
 10
318.9546132454261
 20
-342.7949290588846
 30
0.0
 40
3.5
 41
0.0
 46
0.0
 71
     1
 72
     1
  1
{\fＭＳ ゴシック;\W0.830113;（あり又はなし）}
 73
     1
 44
1.0
  0
LINE
  5
10A
330
1F
100
AcDbEntity
  8
1
  6
Continuous
 62
     7
370
     9
100
AcDbLine
 10
318.7565181046338
 20
-347.0881108203999
 30
0.0
 11
345.4571118281331
 21
-347.0881108203999
 31
0.0
  0
LINE
  5
10B
330
1F
100
AcDbEntity
  8
1
  6
Continuous
 62
     7
370
     9
100
AcDbLine
 10
359.0230372341662
 20
-336.1304241849332
 30
0.0
 11
345.4571118281331
 21
-342.5881108204001
 31
0.0
  0
LINE
  5
10C
330
1F
100
AcDbEntity
  8
1
  6
Continuous
 62
     7
370
     9
100
AcDbLine
 10
345.4571118281331
 20
-342.5881108204001
 30
0.0
 11
318.7565181046337
 21
-342.5881108204001
 31
0.0
  0
CIRCLE
  5
10D
330
1F
100
AcDbEntity
  8
1
  6
Continuous
 62
     7
370
     9
100
AcDbCircle
 10
391.7737363000665
 20
-220.9775637803665
 30
0.0
 40
0.3333333333337407
  0
LINE
  5
10E
330
1F
100
AcDbEntity
  8
1
  6
Continuous
 62
     7
370
     9
100
AcDbLine
 10
391.7737363000665
 20
-220.9775637803665
 30
0.0
 11
408.3320898215001
 21
-184.8880755570332
 31
0.0
  0
LINE
  5
10F
330
1F
100
AcDbEntity
  8
1
  6
Continuous
 62
     7
370
     9
100
AcDbLine
 10
428.5234631753995
 20
-407.7883316779332
 30
0.0
 11
432.9522284399998
 21
-407.7883316779332
 31
0.0
  0
LINE
  5
110
330
1F
100
AcDbEntity
  8
1
  6
Continuous
 62
     7
370
     9
100
AcDbLine
 10
428.5234631753995
 20
-408.1216650112666
 30
0.0
 11
432.9522284399998
 21
-408.1216650112666
 31
0.0
  0
LINE
  5
111
330
1F
100
AcDbEntity
  8
1
  6
Continuous
 62
     7
370
     9
100
AcDbLine
 10
430.1288265241333
 20
-408.4549983445997
 30
0.0
 11
431.3468650913003
 21
-408.4549983445997
 31
0.0
  0
LINE
  5
112
330
1F
100
AcDbEntity
  8
1
  6
Continuous
 62
     7
370
     9
100
AcDbLine
 10
430.2732211407335
 20
-408.7883316779332
 30
0.0
 11
431.2024704746659
 21
-408.7883316779332
 31
0.0
  0
LINE
  5
113
330
1F
100
AcDbEntity
  8
1
  6
Continuous
 62
     7
370
     9
100
AcDbLine
 10
430.2552893931658
 20
-409.1216650112666
 30
0.0
 11
431.2204022222667
 21
-409.1216650112666
 31
0.0
  0
LINE
  5
114
330
1F
100
AcDbEntity
  8
1
  6
Continuous
 62
     7
370
     9
100
AcDbLine
 10
430.2373576455993
 20
-409.4549983445998
 30
0.0
 11
431.2383339698332
 21
-409.4549983445998
 31
0.0
  0
LINE
  5
115
330
1F
100
AcDbEntity
  8
1
  6
Continuous
 62
     7
370
     9
100
AcDbLine
 10
430.2194258980339
 20
-409.7883316779332
 30
0.0
 11
431.2562657174009
 21
-409.7883316779332
 31
0.0
  0
LINE
  5
116
330
1F
100
AcDbEntity
  8
1
  6
Continuous
 62
     7
370
     9
100
AcDbLine
 10
430.2014941504674
 20
-410.1216650112667
 30
0.0
 11
431.2741974649674
 21
-410.1216650112667
 31
0.0
  0
LINE
  5
117
330
1F
100
AcDbEntity
  8
1
  6
Continuous
 62
     7
370
     9
100
AcDbLine
 10
430.1835624029009
 20
-410.4549983445998
 30
0.0
 11
431.2921292125328
 21
-410.4549983445998
 31
0.0
  0
LINE
  5
118
330
1F
100
AcDbEntity
  8
1
  6
Continuous
 62
     7
370
     9
100
AcDbLine
 10
430.1656306553332
 20
-410.7883316779333
 30
0.0
 11
431.3100609600992
 21
-410.7883316779333
 31
0.0
  0
LINE
  5
119
330
1F
100
AcDbEntity
  8
1
  6
Continuous
 62
     7
370
     9
100
AcDbLine
 10
430.1476989077667
 20
-411.1216650112664
 30
0.0
 11
431.3279927076658
 21
-411.1216650112664
 31
0.0
  0
LINE
  5
11A
330
1F
100
AcDbEntity
  8
1
  6
Continuous
 62
     7
370
     9
100
AcDbLine
 10
430.1297671601658
 20
-411.4549983445999
 30
0.0
 11
431.3459244552335
 21
-411.4549983445999
 31
0.0
  0
LINE
  5
11B
330
1F
100
AcDbEntity
  8
1
  6
Continuous
 62
     7
370
     9
100
AcDbLine
 10
430.1118354125993
 20
-411.7883316779333
 30
0.0
 11
431.3638562028
 21
-411.7883316779333
 31
0.0
  0
LINE
  5
11C
330
1F
100
AcDbEntity
  8
1
  6
Continuous
 62
     7
370
     9
100
AcDbLine
 10
430.0325147740998
 20
-412.1216650112664
 30
0.0
 11
431.4431768413339
 21
-412.1216650112664
 31
0.0
  0
LINE
  5
11D
330
1F
100
AcDbEntity
  8
1
  6
Continuous
 62
     7
370
     9
100
AcDbLine
 10
428.2181714521995
 20
-412.4549983445999
 30
0.0
 11
433.2575201631998
 21
-412.4549983445999
 31
0.0
  0
LINE
  5
11E
330
1F
100
AcDbEntity
  8
1
  6
Continuous
 62
     7
370
     9
100
AcDbLine
 10
428.2181714521995
 20
-412.7883316779333
 30
0.0
 11
433.2575201631998
 21
-412.7883316779333
 31
0.0
  0
LINE
  5
11F
330
1F
100
AcDbEntity
  8
1
  6
Continuous
 62
     7
370
     9
100
AcDbLine
 10
436.8464194586
 20
-407.3661942675668
 30
0.0
 11
437.4933397860004
 21
-407.3661942675668
 31
0.0
  0
LINE
  5
120
330
1F
100
AcDbEntity
  8
1
  6
Continuous
 62
     7
370
     9
100
AcDbLine
 10
435.8694859443336
 20
-407.3661942675668
 30
0.0
 11
436.516406271766
 21
-407.3661942675668
 31
0.0
  0
LINE
  5
121
330
1F
100
AcDbEntity
  8
1
  6
Continuous
 62
     7
370
     9
100
AcDbLine
 10
437.941238639999
 20
-407.6995276008999
 30
0.0
 11
438.6917438227
 21
-407.6995276008999
 31
0.0
  0
LINE
  5
122
330
1F
100
AcDbEntity
  8
1
  6
Continuous
 62
     7
370
     9
100
AcDbLine
 10
436.8360027919324
 20
-407.6995276008999
 30
0.0
 11
437.504400378633
 21
-407.6995276008999
 31
0.0
  0
LINE
  5
123
330
1F
100
AcDbEntity
  8
1
  6
Continuous
 62
     7
370
     9
100
AcDbLine
 10
435.8584253516998
 20
-407.6995276008999
 30
0.0
 11
436.5268229384004
 21
-407.6995276008999
 31
0.0
  0
LINE
  5
124
330
1F
100
AcDbEntity
  8
1
  6
Continuous
 62
     7
370
     9
100
AcDbLine
 10
434.6710819076327
 20
-407.6995276008999
 30
0.0
 11
435.4215870903669
 21
-407.6995276008999
 31
0.0
  0
LINE
  5
125
330
1F
100
AcDbEntity
  8
1
  6
Continuous
 62
     7
370
     9
100
AcDbLine
 10
434.8361778424995
 20
-408.0328609342333
 30
0.0
 11
438.5266478878332
 21
-408.0328609342333
 31
0.0
  0
LINE
  5
126
330
1F
100
AcDbEntity
  8
1
  6
Continuous
 62
     7
370
     9
100
AcDbLine
 10
433.9175051310996
 20
-408.3661942675665
 30
0.0
 11
439.4453205992331
 21
-408.3661942675665
 31
0.0
  0
LINE
  5
127
330
1F
100
AcDbEntity
  8
1
  6
Continuous
 62
     7
370
     9
100
AcDbLine
 10
433.9175051310996
 20
-408.6995276009
 30
0.0
 11
439.4453205992331
 21
-408.6995276009
 31
0.0
  0
LINE
  5
128
330
1F
100
AcDbEntity
  8
1
  6
Continuous
 62
     7
370
     9
100
AcDbLine
 10
437.0929945669657
 20
-409.0328609342333
 30
0.0
 11
438.0266478878332
 21
-409.0328609342333
 31
0.0
  0
LINE
  5
129
330
1F
100
AcDbEntity
  8
1
  6
Continuous
 62
     7
370
     9
100
AcDbLine
 10
435.3361778424995
 20
-409.0328609342333
 30
0.0
 11
436.269831163367
 21
-409.0328609342333
 31
0.0
  0
LINE
  5
12A
330
1F
100
AcDbEntity
  8
1
  6
Continuous
 62
     7
370
     9
100
AcDbLine
 10
434.6599802579342
 20
-409.3661942675665
 30
0.0
 11
438.7028454724328
 21
-409.3661942675665
 31
0.0
  0
LINE
  5
12B
330
1F
100
AcDbEntity
  8
1
  6
Continuous
 62
     7
370
     9
100
AcDbLine
 10
434.6502052667994
 20
-409.6995276009
 30
0.0
 11
438.7126204635333
 21
-409.6995276009
 31
0.0
  0
LINE
  5
12C
330
1F
100
AcDbEntity
  8
1
  6
Continuous
 62
     7
370
     9
100
AcDbLine
 10
436.2833764433994
 20
-410.0328609342334
 30
0.0
 11
437.0794492869333
 21
-410.0328609342334
 31
0.0
  0
LINE
  5
12D
330
1F
100
AcDbEntity
  8
1
  6
Continuous
 62
     7
370
     9
100
AcDbLine
 10
434.6502052667994
 20
-410.3661942675665
 30
0.0
 11
438.7126204635333
 21
-410.3661942675665
 31
0.0
  0
LINE
  5
12E
330
1F
100
AcDbEntity
  8
1
  6
Continuous
 62
     7
370
     9
100
AcDbLine
 10
434.6502052667994
 20
-410.6995276009
 30
0.0
 11
438.7126204635333
 21
-410.6995276009
 31
0.0
  0
LINE
  5
12F
330
1F
100
AcDbEntity
  8
1
  6
Continuous
 62
     7
370
     9
100
AcDbLine
 10
436.2698629298995
 20
-411.0328609342331
 30
0.0
 11
437.0929628004664
 21
-411.0328609342331
 31
0.0
  0
LINE
  5
130
330
1F
100
AcDbEntity
  8
1
  6
Continuous
 62
     7
370
     9
100
AcDbLine
 10
434.6502052667994
 20
-411.3661942675666
 30
0.0
 11
438.7126204635333
 21
-411.3661942675666
 31
0.0
  0
LINE
  5
131
330
1F
100
AcDbEntity
  8
1
  6
Continuous
 62
     7
370
     9
100
AcDbLine
 10
434.6502052667994
 20
-411.6995276009001
 30
0.0
 11
438.7126204635333
 21
-411.6995276009001
 31
0.0
  0
LINE
  5
132
330
1F
100
AcDbEntity
  8
1
  6
Continuous
 62
     7
370
     9
100
AcDbLine
 10
435.3944357956338
 20
-412.0328609342332
 30
0.0
 11
437.9683899347002
 21
-412.0328609342332
 31
0.0
  0
LINE
  5
133
330
1F
100
AcDbEntity
  8
1
  6
Continuous
 62
     7
370
     9
100
AcDbLine
 10
437.4003852020331
 20
-412.3661942675666
 30
0.0
 11
438.5292619831663
 21
-412.3661942675666
 31
0.0
  0
LINE
  5
134
330
1F
100
AcDbEntity
  8
1
  6
Continuous
 62
     7
370
     9
100
AcDbLine
 10
436.2518449118673
 20
-412.3661942675666
 30
0.0
 11
437.1109808184666
 21
-412.3661942675666
 31
0.0
  0
LINE
  5
135
330
1F
100
AcDbEntity
  8
1
  6
Continuous
 62
     7
370
     9
100
AcDbLine
 10
434.8335637471665
 20
-412.3661942675666
 30
0.0
 11
435.9624405282997
 21
-412.3661942675666
 31
0.0
  0
LINE
  5
136
330
1F
100
AcDbEntity
  8
1
  6
Continuous
 62
     7
370
     9
100
AcDbLine
 10
437.7861610850001
 20
-412.6995276009001
 30
0.0
 11
439.2256881830336
 21
-412.6995276009001
 31
0.0
  0
LINE
  5
137
330
1F
100
AcDbEntity
  8
1
  6
Continuous
 62
     7
370
     9
100
AcDbLine
 10
436.2473404073658
 20
-412.6995276009001
 30
0.0
 11
437.115485322967
 21
-412.6995276009001
 31
0.0
  0
LINE
  5
138
330
1F
100
AcDbEntity
  8
1
  6
Continuous
 62
     7
370
     9
100
AcDbLine
 10
434.1371375473335
 20
-412.6995276009001
 30
0.0
 11
435.5766646453338
 21
-412.6995276009001
 31
0.0
  0
LINE
  5
139
330
1F
100
AcDbEntity
  8
1
  6
Continuous
 62
     7
370
     9
100
AcDbLine
 10
438.2345984265999
 20
-413.0328609342332
 30
0.0
 11
438.9850085232333
 21
-413.0328609342332
 31
0.0
  0
LINE
  5
13A
330
1F
100
AcDbEntity
  8
1
  6
Continuous
 62
     7
370
     9
100
AcDbLine
 10
436.2428359028666
 20
-413.0328609342332
 30
0.0
 11
437.1199898274662
 21
-413.0328609342332
 31
0.0
  0
LINE
  5
13B
330
1F
100
AcDbEntity
  8
1
  6
Continuous
 62
     7
370
     9
100
AcDbLine
 10
434.3778172071006
 20
-413.0328609342332
 30
0.0
 11
435.1282273037672
 21
-413.0328609342332
 31
0.0
  0
CIRCLE
  5
13C
330
1F
100
AcDbEntity
  8
1
  6
Continuous
 62
     7
370
     9
100
AcDbCircle
 10
361.9358762177329
 20
-270.2323659170333
 30
0.0
 40
0.5000000000000004
  0
MTEXT
  5
13D
330
1F
100
AcDbEntity
  8
1
 62
     7
100
AcDbMText
 10
310.3397270181543
 20
-254.627082392218
 30
0.0
 40
3.5
 41
0.0
 46
0.0
 71
     1
 72
     1
  1
{\fＭＳ ゴシック;\W0.827053;バックアップスリーブ}
 73
     1
 44
1.0
  0
LINE
  5
13E
330
1F
100
AcDbEntity
  8
1
  6
Continuous
 62
     7
370
     9
100
AcDbLine
 10
361.9358762177329
 20
-270.2323659170333
 30
0.0
 11
343.5181041218671
 21
-259.0952642918335
 31
0.0
  0
LINE
  5
13F
330
1F
100
AcDbEntity
  8
1
  6
Continuous
 62
     7
370
     9
100
AcDbLine
 10
343.5181041218671
 20
-259.0952642918334
 30
0.0
 11
310.1423619675
 21
-259.0952642918334
 31
0.0
  0
LINE
  5
140
330
1F
100
AcDbEntity
  8
1
  6
Continuous
 62
     7
370
     9
100
AcDbLine
 10
346.0271216787325
 20
-307.4928956442333
 30
0.0
 11
348.9542996375674
 21
-304.5657176853999
 31
0.0
  0
LINE
  5
141
330
1F
100
AcDbEntity
  8
1
  6
Continuous
 62
     7
370
     9
100
AcDbLine
 10
346.0271216787325
 20
-328.7060990798333
 30
0.0
 11
356.9358762177339
 21
-317.7973445408335
 31
0.0
  0
LINE
  5
142
330
1F
100
AcDbEntity
  8
1
  6
Continuous
 62
     7
370
     9
100
AcDbLine
 10
421.9358762177328
 20
-316.4369548476002
 30
0.0
 11
432.9575584983003
 21
-305.4152725670667
 31
0.0
  0
LINE
  5
143
330
1F
100
AcDbEntity
  8
1
  6
Continuous
 62
     7
370
     9
100
AcDbLine
 10
421.9358762177328
 20
-337.6501582832001
 30
0.0
 11
432.9575584983003
 21
-326.6284760026666
 31
0.0
  0
LINE
  5
144
330
1F
100
AcDbEntity
  8
1
  6
Continuous
 62
     7
370
     9
100
AcDbLine
 10
346.0271216787325
 20
-324.4634583927333
 30
0.0
 11
356.9358762177339
 21
-313.5547038536999
 31
0.0
  0
LINE
  5
145
330
1F
100
AcDbEntity
  8
1
  6
Continuous
 62
     7
370
     9
100
AcDbLine
 10
353.8047324770999
 20
-337.8990510299333
 30
0.0
 11
356.9358762177339
 21
-334.7679072893
 31
0.0
  0
LINE
  5
146
330
1F
100
AcDbEntity
  8
1
  6
Continuous
 62
     7
370
     9
100
AcDbLine
 10
421.9358762177328
 20
-312.1943141605001
 30
0.0
 11
429.5644727002659
 21
-304.5657176779667
 31
0.0
  0
LINE
  5
147
330
1F
100
AcDbEntity
  8
1
  6
Continuous
 62
     7
370
     9
100
AcDbLine
 10
421.9358762177328
 20
-333.4075175961001
 30
0.0
 11
432.9575584983003
 21
-322.3858353155332
 31
0.0
  0
LINE
  5
148
330
1F
100
AcDbEntity
  8
1
  6
Continuous
 62
     7
370
     9
100
AcDbLine
 10
346.0271216787325
 20
-307.4928956442333
 30
0.0
 11
348.9542996375674
 21
-304.5657176853999
 31
0.0
  0
LINE
  5
149
330
1F
100
AcDbEntity
  8
1
  6
Continuous
 62
     7
370
     9
100
AcDbLine
 10
346.0271216787325
 20
-328.7060990798333
 30
0.0
 11
356.9358762177339
 21
-317.7973445408335
 31
0.0
  0
LINE
  5
14A
330
1F
100
AcDbEntity
  8
1
  6
Continuous
 62
     7
370
     9
100
AcDbLine
 10
421.9358762177328
 20
-316.4369548476002
 30
0.0
 11
432.9575584983003
 21
-305.4152725670667
 31
0.0
  0
LINE
  5
14B
330
1F
100
AcDbEntity
  8
1
  6
Continuous
 62
     7
370
     9
100
AcDbLine
 10
421.9358762177328
 20
-337.6501582832001
 30
0.0
 11
432.9575584983003
 21
-326.6284760026666
 31
0.0
  0
CIRCLE
  5
14C
330
1F
100
AcDbEntity
  8
1
  6
Continuous
 62
     7
370
     9
100
AcDbCircle
 10
378.9468460720006
 20
-230.4374263811668
 30
0.0
 40
0.5000000000000004
  0
MTEXT
  5
14D
330
1F
100
AcDbEntity
  8
1
 62
     7
100
AcDbMText
 10
351.3502269537599
 20
-246.0763359679758
 30
0.0
 40
3.5
 41
0.0
 46
0.0
 71
     1
 72
     1
  1
{\fＭＳ ゴシック;\W0.83943;パテエース}
 73
     1
 44
1.0
  0
LINE
  5
14E
330
1F
100
AcDbEntity
  8
1
  6
Continuous
 62
     7
370
     9
100
AcDbLine
 10
378.9468460720006
 20
-230.4374263811668
 30
0.0
 11
367.837779491567
 21
-250.2104268976335
 31
0.0
  0
LINE
  5
14F
330
1F
100
AcDbEntity
  8
1
  6
Continuous
 62
     7
370
     9
100
AcDbLine
 10
367.837779491567
 20
-250.2104268976335
 30
0.0
 11
351.1499084144
 21
-250.2104268976335
 31
0.0
  0
LINE
  5
150
330
1F
100
AcDbEntity
  8
1
  6
Continuous
 62
     7
370
     9
100
AcDbLine
 10
357.6018518143664
 20
-307.1052687831669
 30
0.0
 11
357.6254220404005
 21
-307.0816985571335
 31
0.0
  0
LINE
  5
151
330
1F
100
AcDbEntity
  8
1
  6
Continuous
 62
     7
370
     9
100
AcDbLine
 10
357.5234522374666
 20
-310.0886176152
 30
0.0
 11
357.5470224634994
 21
-310.0650473891337
 31
0.0
  0
LINE
  5
152
330
1F
100
AcDbEntity
  8
1
  6
Continuous
 62
     7
370
     9
100
AcDbLine
 10
362.2644578650673
 20
-305.3476119875998
 30
0.0
 11
362.2880280911002
 21
-305.3240417615335
 31
0.0
  0
LINE
  5
153
330
1F
100
AcDbEntity
  8
1
  6
Continuous
 62
     7
370
     9
100
AcDbLine
 10
356.9987383062332
 20
-314.0621360552664
 30
0.0
 11
357.0223085322672
 21
-314.0385658292333
 31
0.0
  0
LINE
  5
154
330
1F
100
AcDbEntity
  8
1
  6
Continuous
 62
     7
370
     9
100
AcDbLine
 10
361.4359212960669
 20
-309.6249530654666
 30
0.0
 11
361.4594915220997
 21
-309.6013828394331
 31
0.0
  0
LINE
  5
155
330
1F
100
AcDbEntity
  8
1
  6
Continuous
 62
     7
370
     9
100
AcDbLine
 10
357.0515657667998
 20
-318.0907478396667
 30
0.0
 11
357.0751359928339
 21
-318.0671776136332
 31
0.0
  0
LINE
  5
156
330
1F
100
AcDbEntity
  8
1
  6
Continuous
 62
     7
370
     9
100
AcDbLine
 10
362.1556307067341
 20
-312.9866828997665
 30
0.0
 11
362.1792009327658
 21
-312.9631126737002
 31
0.0
  0
LINE
  5
157
330
1F
100
AcDbEntity
  8
1
  6
Continuous
 62
     7
370
     9
100
AcDbLine
 10
358.6810598629333
 20
-320.6772217422668
 30
0.0
 11
358.7046300889662
 21
-320.6536515162002
 31
0.0
  0
LINE
  5
158
330
1F
100
AcDbEntity
  8
1
  6
Continuous
 62
     7
370
     9
100
AcDbLine
 10
357.672871084266
 20
-325.7774670496
 30
0.0
 11
357.6964413103
 21
-325.7538968235668
 31
0.0
  0
LINE
  5
159
330
1F
100
AcDbEntity
  8
1
  6
Continuous
 62
     7
370
     9
100
AcDbLine
 10
357.7069240796666
 20
-329.6316273670001
 30
0.0
 11
357.7304943056996
 21
-329.6080571409667
 31
0.0
  0
LINE
  5
15A
330
1F
100
AcDbEntity
  8
1
  6
Continuous
 62
     7
370
     9
100
AcDbLine
 10
362.8986463500003
 20
-324.4399050966668
 30
0.0
 11
362.9222165760331
 21
-324.4163348706334
 31
0.0
  0
LINE
  5
15B
330
1F
100
AcDbEntity
  8
1
  6
Continuous
 62
     7
370
     9
100
AcDbLine
 10
358.6501143652005
 20
-332.1914501609999
 30
0.0
 11
358.6736845912333
 21
-332.1678799349665
 31
0.0
  0
LINE
  5
15C
330
1F
100
AcDbEntity
  8
1
  6
Continuous
 62
     7
370
     9
100
AcDbLine
 10
363.2832639274671
 20
-327.5583005987001
 30
0.0
 11
363.3068341535
 21
-327.5347303726667
 31
0.0
  0
LINE
  5
15D
330
1F
100
AcDbEntity
  8
1
  6
Continuous
 62
     7
370
     9
100
AcDbLine
 10
357.7708867402676
 20
-336.254783916
 30
0.0
 11
357.7944569662993
 21
-336.2312136899668
 31
0.0
  0
LINE
  5
15E
330
1F
100
AcDbEntity
  8
1
  6
Continuous
 62
     7
370
     9
100
AcDbLine
 10
362.4918878515327
 20
-331.5337828046999
 30
0.0
 11
362.5154580775668
 21
-331.5102125786667
 31
0.0
  0
LINE
  5
15F
330
1F
100
AcDbEntity
  8
1
  6
Continuous
 62
     7
370
     9
100
AcDbLine
 10
359.5609225004006
 20
-337.5310714919
 30
0.0
 11
359.5844927264334
 21
-337.5075012658666
 31
0.0
  0
LINE
  5
160
330
1F
100
AcDbEntity
  8
1
  6
Continuous
 62
     7
370
     9
100
AcDbLine
 10
362.923386049433
 20
-337.0378209746665
 30
0.0
 11
362.946956275467
 21
-337.0142507486333
 31
0.0
  0
LINE
  5
161
330
1F
100
AcDbEntity
  8
1
  6
Continuous
 62
     7
370
     9
100
AcDbLine
 10
416.0990680143668
 20
-306.2898129623666
 30
0.0
 11
416.1226382404009
 21
-306.2662427363335
 31
0.0
  0
LINE
  5
162
330
1F
100
AcDbEntity
  8
1
  6
Continuous
 62
     7
370
     9
100
AcDbLine
 10
417.3225157468995
 20
-308.8282069703
 30
0.0
 11
417.3460859729335
 21
-308.8046367442668
 31
0.0
  0
LINE
  5
163
330
1F
100
AcDbEntity
  8
1
  6
Continuous
 62
     7
370
     9
100
AcDbLine
 10
416.4348719824338
 20
-313.5244775791997
 30
0.0
 11
416.4584422084666
 21
-313.5009073531668
 31
0.0
  0
LINE
  5
164
330
1F
100
AcDbEntity
  8
1
  6
Continuous
 62
     7
370
     9
100
AcDbLine
 10
421.820100722867
 20
-308.1392488387668
 30
0.0
 11
421.843670948933
 21
-308.1156786127002
 31
0.0
  0
LINE
  5
165
330
1F
100
AcDbEntity
  8
1
  6
Continuous
 62
     7
370
     9
100
AcDbLine
 10
416.4848509034663
 20
-316.4050416094666
 30
0.0
 11
416.5084211295004
 21
-316.3814713834334
 31
0.0
  0
LINE
  5
166
330
1F
100
AcDbEntity
  8
1
  6
Continuous
 62
     7
370
     9
100
AcDbLine
 10
415.6351445064988
 20
-321.422981388
 30
0.0
 11
415.6587147325329
 21
-321.3994111619666
 31
0.0
  0
LINE
  5
167
330
1F
100
AcDbEntity
  8
1
  6
Continuous
 62
     7
370
     9
100
AcDbLine
 10
420.8752919490009
 20
-316.1828339455
 30
0.0
 11
420.8988621750325
 21
-316.1592637194333
 31
0.0
  0
LINE
  5
168
330
1F
100
AcDbEntity
  8
1
  6
Continuous
 62
     7
370
     9
100
AcDbLine
 10
417.132505211667
 20
-322.7785193518
 30
0.0
 11
417.1560754376999
 21
-322.7549491257665
 31
0.0
  0
LINE
  5
169
330
1F
100
AcDbEntity
  8
1
  6
Continuous
 62
     7
370
     9
100
AcDbLine
 10
421.3990995267341
 20
-318.5119250367334
 30
0.0
 11
421.4226697527658
 21
-318.4883548107
 31
0.0
  0
LINE
  5
16A
330
1F
100
AcDbEntity
  8
1
  6
Continuous
 62
     7
370
     9
100
AcDbLine
 10
415.606723850634
 20
-327.4558644366336
 30
0.0
 11
415.6302940766656
 21
-327.4322942106002
 31
0.0
  0
LINE
  5
16B
330
1F
100
AcDbEntity
  8
1
  6
Continuous
 62
     7
370
     9
100
AcDbLine
 10
420.7386915301324
 20
-322.3238967571334
 30
0.0
 11
420.7622617561665
 21
-322.3003265310999
 31
0.0
  0
LINE
  5
16C
330
1F
100
AcDbEntity
  8
1
  6
Continuous
 62
     7
370
     9
100
AcDbLine
 10
416.5369014895998
 20
-329.7201944130333
 30
0.0
 11
416.5604717156326
 21
-329.6966241869998
 31
0.0
  0
LINE
  5
16D
330
1F
100
AcDbEntity
  8
1
  6
Continuous
 62
     7
370
     9
100
AcDbLine
 10
415.5059243946341
 20
-333.8892694085332
 30
0.0
 11
415.5294946206658
 21
-333.8656991825
 31
0.0
  0
LINE
  5
16E
330
1F
100
AcDbEntity
  8
1
  6
Continuous
 62
     7
370
     9
100
AcDbLine
 10
421.0765024237999
 20
-328.3186913793668
 30
0.0
 11
421.1000726498328
 21
-328.2951211533334
 31
0.0
  0
LINE
  5
16F
330
1F
100
AcDbEntity
  8
1
  6
Continuous
 62
     7
370
     9
100
AcDbLine
 10
416.3819150427991
 20
-336.9073186313332
 30
0.0
 11
416.4054852688332
 21
-336.8837484052666
 31
0.0
  0
LINE
  5
170
330
1F
100
AcDbEntity
  8
1
  6
Continuous
 62
     7
370
     9
100
AcDbLine
 10
421.0884792377666
 20
-332.2007544363332
 30
0.0
 11
421.1120494637995
 21
-332.1771842102998
 31
0.0
  0
LINE
  5
171
330
1F
100
AcDbEntity
  8
1
  6
Continuous
 62
     7
370
     9
100
AcDbLine
 10
418.5325533727004
 20
-337.7893822389666
 30
0.0
 11
418.5561235987333
 21
-337.7658120129335
 31
0.0
  0
LINE
  5
172
330
1F
100
AcDbEntity
  8
1
  6
Continuous
 62
     7
370
     9
100
AcDbLine
 10
360.3390177746002
 20
-337.7548113248669
 30
0.0
 11
360.3154475485661
 21
-337.7312410988334
 31
0.0
  0
LINE
  5
173
330
1F
100
AcDbEntity
  8
1
  6
Continuous
 62
     7
370
     9
100
AcDbLine
 10
362.399007825067
 20
-336.5599996730664
 30
0.0
 11
362.3754375990329
 21
-336.5364294470335
 31
0.0
  0
LINE
  5
174
330
1F
100
AcDbEntity
  8
1
  6
Continuous
 62
     7
370
     9
100
AcDbLine
 10
362.7513203746
 20
-333.8301492803
 30
0.0
 11
362.7277501485328
 21
-333.8065790542333
 31
0.0
  0
LINE
  5
175
330
1F
100
AcDbEntity
  8
1
  6
Continuous
 62
     7
370
     9
100
AcDbLine
 10
357.8860795793004
 20
-328.9649084849999
 30
0.0
 11
357.8625093532664
 21
-328.9413382589667
 31
0.0
  0
LINE
  5
176
330
1F
100
AcDbEntity
  8
1
  6
Continuous
 62
     7
370
     9
100
AcDbLine
 10
363.2384206359669
 20
-330.1520804981
 30
0.0
 11
363.2148504099328
 21
-330.1285102720669
 31
0.0
  0
LINE
  5
177
330
1F
100
AcDbEntity
  8
1
  6
Continuous
 62
     7
370
     9
100
AcDbLine
 10
358.3454713196999
 20
-325.2591311818665
 30
0.0
 11
358.321901093667
 21
-325.2355609557999
 31
0.0
  0
LINE
  5
178
330
1F
100
AcDbEntity
  8
1
  6
Continuous
 62
     7
370
     9
100
AcDbLine
 10
361.6482881771334
 20
-325.0253135612666
 30
0.0
 11
361.6247179511005
 21
-325.0017433352334
 31
0.0
  0
LINE
  5
179
330
1F
100
AcDbEntity
  8
1
  6
Continuous
 62
     7
370
     9
100
AcDbLine
 10
362.2700466713325
 20
-322.0241181974333
 30
0.0
 11
362.2464764453008
 21
-322.0005479714001
 31
0.0
  0
LINE
  5
17A
330
1F
100
AcDbEntity
  8
1
  6
Continuous
 62
     7
370
     9
100
AcDbLine
 10
356.9962994101674
 20
-316.7503709362667
 30
0.0
 11
356.9727291841333
 21
-316.7268007101998
 31
0.0
  0
LINE
  5
17B
330
1F
100
AcDbEntity
  8
1
  6
Continuous
 62
     7
370
     9
100
AcDbLine
 10
362.5582023416666
 20
-318.2920350631999
 30
0.0
 11
362.5346321156325
 21
-318.2684648371667
 31
0.0
  0
LINE
  5
17C
330
1F
100
AcDbEntity
  8
1
  6
Continuous
 62
     7
370
     9
100
AcDbLine
 10
363.1603447567674
 20
-314.9728175235665
 30
0.0
 11
363.1367745307334
 21
-314.9492472975333
 31
0.0
  0
LINE
  5
17D
330
1F
100
AcDbEntity
  8
1
  6
Continuous
 62
     7
370
     9
100
AcDbLine
 10
358.7641418926006
 20
-310.5766146594335
 30
0.0
 11
358.7405716665666
 21
-310.5530444334
 31
0.0
  0
LINE
  5
17E
330
1F
100
AcDbEntity
  8
1
  6
Continuous
 62
     7
370
     9
100
AcDbLine
 10
362.5679132719001
 20
-310.9702526121
 30
0.0
 11
362.5443430458661
 21
-310.9466823860666
 31
0.0
  0
LINE
  5
17F
330
1F
100
AcDbEntity
  8
1
  6
Continuous
 62
     7
370
     9
100
AcDbLine
 10
362.4019858436999
 20
-307.2063607863666
 30
0.0
 11
362.378415617667
 21
-307.1827905603332
 31
0.0
  0
LINE
  5
180
330
1F
100
AcDbEntity
  8
1
  6
Continuous
 62
     7
370
     9
100
AcDbLine
 10
417.4460421442664
 20
-336.8569387162668
 30
0.0
 11
417.4224719182004
 21
-336.8333684902334
 31
0.0
  0
LINE
  5
181
330
1F
100
AcDbEntity
  8
1
  6
Continuous
 62
     7
370
     9
100
AcDbLine
 10
420.7816997876329
 20
-336.0162921160666
 30
0.0
 11
420.7581295616001
 21
-335.9927218900334
 31
0.0
  0
LINE
  5
182
330
1F
100
AcDbEntity
  8
1
  6
Continuous
 62
     7
370
     9
100
AcDbLine
 10
420.7064724479663
 20
-332.0504776806332
 30
0.0
 11
420.6829022219334
 21
-332.0269074546
 31
0.0
  0
LINE
  5
183
330
1F
100
AcDbEntity
  8
1
  6
Continuous
 62
     7
370
     9
100
AcDbLine
 10
419.9382731256007
 20
-327.1865100962333
 30
0.0
 11
419.9147028995323
 21
-327.1629398701999
 31
0.0
  0
LINE
  5
184
330
1F
100
AcDbEntity
  8
1
  6
Continuous
 62
     7
370
     9
100
AcDbLine
 10
421.7696898313999
 20
-326.0689546630999
 30
0.0
 11
421.7461196053328
 21
-326.0453844370665
 31
0.0
  0
LINE
  5
185
330
1F
100
AcDbEntity
  8
1
  6
Continuous
 62
     7
370
     9
100
AcDbLine
 10
416.9006941430663
 20
-321.1999589748
 30
0.0
 11
416.8771239170334
 21
-321.1763887487666
 31
0.0
  0
LINE
  5
186
330
1F
100
AcDbEntity
  8
1
  6
Continuous
 62
     7
370
     9
100
AcDbLine
 10
420.5463715778998
 20
-321.5873387724333
 30
0.0
 11
420.5228013518669
 21
-321.5637685463998
 31
0.0
  0
LINE
  5
187
330
1F
100
AcDbEntity
  8
1
  6
Continuous
 62
     7
370
     9
100
AcDbLine
 10
421.437511277267
 20
-318.4197412237667
 30
0.0
 11
421.413941051233
 21
-318.3961709977332
 31
0.0
  0
LINE
  5
188
330
1F
100
AcDbEntity
  8
1
  6
Continuous
 62
     7
370
     9
100
AcDbLine
 10
415.5592909777334
 20
-312.5415209242665
 30
0.0
 11
415.5357207517005
 21
-312.5179506982002
 31
0.0
  0
LINE
  5
189
330
1F
100
AcDbEntity
  8
1
  6
Continuous
 62
     7
370
     9
100
AcDbLine
 10
421.6226016078339
 20
-314.9361284249333
 30
0.0
 11
421.5990313817998
 21
-314.9125581988666
 31
0.0
  0
LINE
  5
18A
330
1F
100
AcDbEntity
  8
1
  6
Continuous
 62
     7
370
     9
100
AcDbLine
 10
420.5786766058669
 20
-310.7812529674332
 30
0.0
 11
420.5551063798328
 21
-310.7576827414
 31
0.0
  0
LINE
  5
18B
330
1F
100
AcDbEntity
  8
1
  6
Continuous
 62
     7
370
     9
100
AcDbLine
 10
415.4889191032001
 20
-305.6914954647334
 30
0.0
 11
415.465348877133
 21
-305.6679252387001
 31
0.0
  0
LINE
  5
18C
330
1F
100
AcDbEntity
  8
1
  6
Continuous
 62
     7
370
     9
100
AcDbLine
 10
420.4826031359335
 20
-307.7164402205333
 30
0.0
 11
420.4590329098663
 21
-307.6928699944999
 31
0.0
  0
LINE
  5
18D
330
1F
100
AcDbEntity
  8
1
  6
Continuous
 62
     7
370
     9
100
AcDbLine
 10
359.5762130398674
 20
-307.6839443360999
 30
0.0
 11
361.2492456473666
 21
-307.2356566000334
 31
0.0
  0
LINE
  5
18E
330
1F
100
AcDbEntity
  8
1
  6
Continuous
 62
     7
370
     9
100
AcDbLine
 10
361.2492456473666
 20
-307.2356566000334
 30
0.0
 11
360.0245007759671
 21
-306.0109117286333
 31
0.0
  0
LINE
  5
18F
330
1F
100
AcDbEntity
  8
1
  6
Continuous
 62
     7
370
     9
100
AcDbLine
 10
360.0245007759672
 20
-306.0109117286333
 30
0.0
 11
359.5762130398675
 21
-307.6839443360999
 31
0.0
  0
LINE
  5
190
330
1F
100
AcDbEntity
  8
1
  6
Continuous
 62
     7
370
     9
100
AcDbLine
 10
359.5762130398674
 20
-307.6839443360999
 30
0.0
 11
361.2492456473666
 21
-307.2356566000334
 31
0.0
  0
LINE
  5
191
330
1F
100
AcDbEntity
  8
1
  6
Continuous
 62
     7
370
     9
100
AcDbLine
 10
361.2492456473666
 20
-307.2356566000334
 30
0.0
 11
360.0245007759671
 21
-306.0109117286333
 31
0.0
  0
LINE
  5
192
330
1F
100
AcDbEntity
  8
1
  6
Continuous
 62
     7
370
     9
100
AcDbLine
 10
360.0245007759672
 20
-306.0109117286333
 30
0.0
 11
359.5762130398675
 21
-307.6839443360999
 31
0.0
  0
LINE
  5
193
330
1F
100
AcDbEntity
  8
1
  6
Continuous
 62
     7
370
     9
100
AcDbLine
 10
424.1283676017658
 20
-407.5266845229999
 30
0.0
 11
424.9068848145004
 21
-407.5266845229999
 31
0.0
  0
LINE
  5
194
330
1F
100
AcDbEntity
  8
1
  6
Continuous
 62
     7
370
     9
100
AcDbLine
 10
424.0757812571666
 20
-407.8600178563333
 30
0.0
 11
424.9594711591327
 21
-407.8600178563333
 31
0.0
  0
LINE
  5
195
330
1F
100
AcDbEntity
  8
1
  6
Continuous
 62
     7
370
     9
100
AcDbLine
 10
422.3032435758335
 20
-408.1933511896665
 30
0.0
 11
426.7320088404338
 21
-408.1933511896665
 31
0.0
  0
LINE
  5
196
330
1F
100
AcDbEntity
  8
1
  6
Continuous
 62
     7
370
     9
100
AcDbLine
 10
425.8087950509332
 20
-408.5266845229999
 30
0.0
 11
426.1312843286673
 21
-408.5266845229999
 31
0.0
  0
LINE
  5
197
330
1F
100
AcDbEntity
  8
1
  6
Continuous
 62
     7
370
     9
100
AcDbLine
 10
423.9895401248003
 20
-408.5266845229999
 30
0.0
 11
425.045712291466
 21
-408.5266845229999
 31
0.0
  0
LINE
  5
198
330
1F
100
AcDbEntity
  8
1
  6
Continuous
 62
     7
370
     9
100
AcDbLine
 10
422.9039680876332
 20
-408.5266845229999
 30
0.0
 11
423.2264573653662
 21
-408.5266845229999
 31
0.0
  0
LINE
  5
199
330
1F
100
AcDbEntity
  8
1
  6
Continuous
 62
     7
370
     9
100
AcDbLine
 10
425.6667945074328
 20
-408.8600178563333
 30
0.0
 11
426.3668857201337
 21
-408.8600178563333
 31
0.0
  0
LINE
  5
19A
330
1F
100
AcDbEntity
  8
1
  6
Continuous
 62
     7
370
     9
100
AcDbLine
 10
424.0883676017661
 20
-408.8600178563333
 30
0.0
 11
424.9468848145001
 21
-408.8600178563333
 31
0.0
  0
LINE
  5
19B
330
1F
100
AcDbEntity
  8
1
  6
Continuous
 62
     7
370
     9
100
AcDbLine
 10
422.6683666961337
 20
-408.8600178563333
 30
0.0
 11
423.3684579088334
 21
-408.8600178563333
 31
0.0
  0
LINE
  5
19C
330
1F
100
AcDbEntity
  8
1
  6
Continuous
 62
     7
370
     9
100
AcDbLine
 10
425.4434611740996
 20
-409.1933511896665
 30
0.0
 11
426.2710828602
 21
-409.1933511896665
 31
0.0
  0
LINE
  5
19D
330
1F
100
AcDbEntity
  8
1
  6
Continuous
 62
     7
370
     9
100
AcDbLine
 10
424.0783676017664
 20
-409.1933511896665
 30
0.0
 11
424.9568848144997
 21
-409.1933511896665
 31
0.0
  0
LINE
  5
19E
330
1F
100
AcDbEntity
  8
1
  6
Continuous
 62
     7
370
     9
100
AcDbLine
 10
422.7641695560662
 20
-409.1933511896665
 30
0.0
 11
423.5917912421666
 21
-409.1933511896665
 31
0.0
  0
LINE
  5
19F
330
1F
100
AcDbEntity
  8
1
  6
Continuous
 62
     7
370
     9
100
AcDbLine
 10
425.2201278407676
 20
-409.5266845229999
 30
0.0
 11
426.1044161935337
 21
-409.5266845229999
 31
0.0
  0
LINE
  5
1A0
330
1F
100
AcDbEntity
  8
1
  6
Continuous
 62
     7
370
     9
100
AcDbLine
 10
424.0683676017669
 20
-409.5266845229999
 30
0.0
 11
424.9668848144993
 21
-409.5266845229999
 31
0.0
  0
LINE
  5
1A1
330
1F
100
AcDbEntity
  8
1
  6
Continuous
 62
     7
370
     9
100
AcDbLine
 10
422.9308362227325
 20
-409.5266845229999
 30
0.0
 11
423.8151245755009
 21
-409.5266845229999
 31
0.0
  0
LINE
  5
1A2
330
1F
100
AcDbEntity
  8
1
  6
Continuous
 62
     7
370
     9
100
AcDbLine
 10
421.8758351633668
 20
-409.8600178563331
 30
0.0
 11
427.1594172528993
 21
-409.8600178563331
 31
0.0
  0
LINE
  5
1A3
330
1F
100
AcDbEntity
  8
1
  6
Continuous
 62
     7
370
     9
100
AcDbLine
 10
421.8758351633668
 20
-410.1933511896665
 30
0.0
 11
427.1594172528993
 21
-410.1933511896665
 31
0.0
  0
LINE
  5
1A4
330
1F
100
AcDbEntity
  8
1
  6
Continuous
 62
     7
370
     9
100
AcDbLine
 10
423.4710238743663
 20
-410.526684523
 30
0.0
 11
425.5642285418999
 21
-410.526684523
 31
0.0
  0
LINE
  5
1A5
330
1F
100
AcDbEntity
  8
1
  6
Continuous
 62
     7
370
     9
100
AcDbLine
 10
423.3747978998331
 20
-410.8600178563331
 30
0.0
 11
425.660454516433
 21
-410.8600178563331
 31
0.0
  0
LINE
  5
1A6
330
1F
100
AcDbEntity
  8
1
  6
Continuous
 62
     7
370
     9
100
AcDbLine
 10
423.126008274201
 20
-411.1933511896666
 30
0.0
 11
425.9092441420676
 21
-411.1933511896666
 31
0.0
  0
LINE
  5
1A7
330
1F
100
AcDbEntity
  8
1
  6
Continuous
 62
     7
370
     9
100
AcDbLine
 10
422.8458567651675
 20
-411.526684523
 30
0.0
 11
426.1893956511331
 21
-411.526684523
 31
0.0
  0
LINE
  5
1A8
330
1F
100
AcDbEntity
  8
1
  6
Continuous
 62
     7
370
     9
100
AcDbLine
 10
425.4797967482675
 20
-411.8600178563332
 30
0.0
 11
426.5059908835668
 21
-411.8600178563332
 31
0.0
  0
LINE
  5
1A9
330
1F
100
AcDbEntity
  8
1
  6
Continuous
 62
     7
370
     9
100
AcDbLine
 10
423.9982760348673
 20
-411.8600178563332
 30
0.0
 11
425.0369763814332
 21
-411.8600178563332
 31
0.0
  0
LINE
  5
1AA
330
1F
100
AcDbEntity
  8
1
  6
Continuous
 62
     7
370
     9
100
AcDbLine
 10
422.5292615327337
 20
-411.8600178563332
 30
0.0
 11
423.5554556679999
 21
-411.8600178563332
 31
0.0
  0
LINE
  5
1AB
330
1F
100
AcDbEntity
  8
1
  6
Continuous
 62
     7
370
     9
100
AcDbLine
 10
425.7029394622332
 20
-412.1933511896667
 30
0.0
 11
426.8661998262996
 21
-412.1933511896667
 31
0.0
  0
LINE
  5
1AC
330
1F
100
AcDbEntity
  8
1
  6
Continuous
 62
     7
370
     9
100
AcDbLine
 10
423.9883676017663
 20
-412.1933511896667
 30
0.0
 11
425.0468848144998
 21
-412.1933511896667
 31
0.0
  0
LINE
  5
1AD
330
1F
100
AcDbEntity
  8
1
  6
Continuous
 62
     7
370
     9
100
AcDbLine
 10
422.1690525899666
 20
-412.1933511896667
 30
0.0
 11
423.3323129540341
 21
-412.1933511896667
 31
0.0
  0
LINE
  5
1AE
330
1F
100
AcDbEntity
  8
1
  6
Continuous
 62
     7
370
     9
100
AcDbLine
 10
425.9543092723001
 20
-412.5266845229998
 30
0.0
 11
427.2806978697672
 21
-412.5266845229998
 31
0.0
  0
LINE
  5
1AF
330
1F
100
AcDbEntity
  8
1
  6
Continuous
 62
     7
370
     9
100
AcDbLine
 10
423.9783676017667
 20
-412.5266845229998
 30
0.0
 11
425.0568848144995
 21
-412.5266845229998
 31
0.0
  0
LINE
  5
1B0
330
1F
100
AcDbEntity
  8
1
  6
Continuous
 62
     7
370
     9
100
AcDbLine
 10
421.754554546499
 20
-412.5266845229998
 30
0.0
 11
423.0809431439661
 21
-412.5266845229998
 31
0.0
  0
LINE
  5
1B1
330
1F
100
AcDbEntity
  8
1
  6
Continuous
 62
     7
370
     9
100
AcDbLine
 10
426.2378446972675
 20
-412.8600178563332
 30
0.0
 11
427.1952638589336
 21
-412.8600178563332
 31
0.0
  0
LINE
  5
1B2
330
1F
100
AcDbEntity
  8
1
  6
Continuous
 62
     7
370
     9
100
AcDbLine
 10
423.9683676017659
 20
-412.8600178563332
 30
0.0
 11
425.0668848145003
 21
-412.8600178563332
 31
0.0
  0
LINE
  5
1B3
330
1F
100
AcDbEntity
  8
1
  6
Continuous
 62
     7
370
     9
100
AcDbLine
 10
422.1608600323335
 20
-412.8600178563332
 30
0.0
 11
422.7974077190331
 21
-412.8600178563332
 31
0.0
  0
LINE
  5
1B4
330
1F
100
AcDbEntity
  8
1
  6
Continuous
 62
     7
370
     9
100
AcDbLine
 10
426.5589270732989
 20
-413.1933511896667
 30
0.0
 11
426.6619305255992
 21
-413.1933511896667
 31
0.0
  0
LINE
  5
1B5
330
1F
100
AcDbEntity
  8
1
  6
Continuous
 62
     7
370
     9
100
AcDbLine
 10
423.9583676017663
 20
-413.1933511896667
 30
0.0
 11
425.0768848144999
 21
-413.1933511896667
 31
0.0
  0
CIRCLE
  5
1B6
330
1F
100
AcDbEntity
  8
1
  6
Continuous
 62
     7
370
     9
100
AcDbCircle
 10
367.1231376955334
 20
-272.4052024696999
 30
0.0
 40
0.5000000000000004
  0
MTEXT
  5
1B7
330
1F
100
AcDbEntity
  8
1
 62
     7
100
AcDbMText
 10
341.8484529537608
 20
-277.2482606346424
 30
0.0
 40
3.5
 41
0.0
 46
0.0
 71
     1
 72
     1
  1
{\fＭＳ ゴシック;\W0.83943;パテエース}
 73
     1
 44
1.0
  0
LINE
  5
1B8
330
1F
100
AcDbEntity
  8
1
  6
Continuous
 62
     7
370
     9
100
AcDbLine
 10
367.1231376955334
 20
-272.4052024696999
 30
0.0
 11
358.3360054509
 21
-281.3823516566334
 31
0.0
  0
LINE
  5
1B9
330
1F
100
AcDbEntity
  8
1
  6
Continuous
 62
     7
370
     9
100
AcDbLine
 10
358.3360054509
 20
-281.3823516566334
 30
0.0
 11
341.648134373733
 21
-281.3823516566334
 31
0.0
  0
LINE
  5
1BA
330
1F
100
AcDbEntity
  8
1
  6
Continuous
 62
     7
370
     9
100
AcDbLine
 10
443.7979315982329
 20
-407.3661942675668
 30
0.0
 11
444.4447027063675
 21
-407.3661942675668
 31
0.0
  0
LINE
  5
1BB
330
1F
100
AcDbEntity
  8
1
  6
Continuous
 62
     7
370
     9
100
AcDbLine
 10
441.1730221717672
 20
-407.3661942675668
 30
0.0
 11
441.6964778044993
 21
-407.3661942675668
 31
0.0
  0
LINE
  5
1BC
330
1F
100
AcDbEntity
  8
1
  6
Continuous
 62
     7
370
     9
100
AcDbLine
 10
443.7879315982332
 20
-407.6995276008999
 30
0.0
 11
444.4547027063671
 21
-407.6995276008999
 31
0.0
  0
LINE
  5
1BD
330
1F
100
AcDbEntity
  8
1
  6
Continuous
 62
     7
370
     9
100
AcDbLine
 10
441.1663555050996
 20
-407.6995276008999
 30
0.0
 11
441.7031444711669
 21
-407.6995276008999
 31
0.0
  0
LINE
  5
1BE
330
1F
100
AcDbEntity
  8
1
  6
Continuous
 62
     7
370
     9
100
AcDbLine
 10
443.7779315982324
 20
-408.0328609342333
 30
0.0
 11
444.4647027063668
 21
-408.0328609342333
 31
0.0
  0
LINE
  5
1BF
330
1F
100
AcDbEntity
  8
1
  6
Continuous
 62
     7
370
     9
100
AcDbLine
 10
442.8305115895006
 20
-408.0328609342333
 30
0.0
 11
443.4271036403005
 21
-408.0328609342333
 31
0.0
  0
LINE
  5
1C0
330
1F
100
AcDbEntity
  8
1
  6
Continuous
 62
     7
370
     9
100
AcDbLine
 10
441.1596888384332
 20
-408.0328609342333
 30
0.0
 11
441.7098111378334
 21
-408.0328609342333
 31
0.0
  0
LINE
  5
1C1
330
1F
100
AcDbEntity
  8
1
  6
Continuous
 62
     7
370
     9
100
AcDbLine
 10
442.6553333870334
 20
-408.3661942675665
 30
0.0
 11
445.3587662703334
 21
-408.3661942675665
 31
0.0
  0
LINE
  5
1C2
330
1F
100
AcDbEntity
  8
1
  6
Continuous
 62
     7
370
     9
100
AcDbLine
 10
440.2583592147009
 20
-408.3661942675665
 30
0.0
 11
442.366907382967
 21
-408.3661942675665
 31
0.0
  0
LINE
  5
1C3
330
1F
100
AcDbEntity
  8
1
  6
Continuous
 62
     7
370
     9
100
AcDbLine
 10
440.2583592147009
 20
-408.6995276009
 30
0.0
 11
445.3587662703333
 21
-408.6995276009
 31
0.0
  0
LINE
  5
1C4
330
1F
100
AcDbEntity
  8
1
  6
Continuous
 62
     7
370
     9
100
AcDbLine
 10
443.7479315982324
 20
-409.0328609342333
 30
0.0
 11
444.4947027063668
 21
-409.0328609342333
 31
0.0
  0
LINE
  5
1C5
330
1F
100
AcDbEntity
  8
1
  6
Continuous
 62
     7
370
     9
100
AcDbLine
 10
442.1118349707334
 20
-409.0328609342333
 30
0.0
 11
443.0831713814997
 21
-409.0328609342333
 31
0.0
  0
LINE
  5
1C6
330
1F
100
AcDbEntity
  8
1
  6
Continuous
 62
     7
370
     9
100
AcDbLine
 10
441.1032933334999
 20
-409.0328609342333
 30
0.0
 11
441.7794014626
 21
-409.0328609342333
 31
0.0
  0
LINE
  5
1C7
330
1F
100
AcDbEntity
  8
1
  6
Continuous
 62
     7
370
     9
100
AcDbLine
 10
443.7379315982328
 20
-409.3661942675665
 30
0.0
 11
444.5047027063664
 21
-409.3661942675665
 31
0.0
  0
LINE
  5
1C8
330
1F
100
AcDbEntity
  8
1
  6
Continuous
 62
     7
370
     9
100
AcDbLine
 10
442.2683288861668
 20
-409.3661942675665
 30
0.0
 11
442.8872626865999
 21
-409.3661942675665
 31
0.0
  0
LINE
  5
1C9
330
1F
100
AcDbEntity
  8
1
  6
Continuous
 62
     7
370
     9
100
AcDbLine
 10
440.9991046471661
 20
-409.3661942675665
 30
0.0
 11
441.9214464015329
 21
-409.3661942675665
 31
0.0
  0
LINE
  5
1CA
330
1F
100
AcDbEntity
  8
1
  6
Continuous
 62
     7
370
     9
100
AcDbLine
 10
442.456459621766
 20
-409.6995276009
 30
0.0
 11
445.6640579935333
 21
-409.6995276009
 31
0.0
  0
LINE
  5
1CB
330
1F
100
AcDbEntity
  8
1
  6
Continuous
 62
     7
370
     9
100
AcDbLine
 10
440.8683242266002
 20
-409.6995276009
 30
0.0
 11
442.1209572166005
 21
-409.6995276009
 31
0.0
  0
LINE
  5
1CC
330
1F
100
AcDbEntity
  8
1
  6
Continuous
 62
     7
370
     9
100
AcDbLine
 10
440.7116181150666
 20
-410.0328609342334
 30
0.0
 11
445.6640579935333
 21
-410.0328609342334
 31
0.0
  0
LINE
  5
1CD
330
1F
100
AcDbEntity
  8
1
  6
Continuous
 62
     7
370
     9
100
AcDbLine
 10
443.6064989694996
 20
-410.3661942675665
 30
0.0
 11
444.6361353351007
 21
-410.3661942675665
 31
0.0
  0
LINE
  5
1CE
330
1F
100
AcDbEntity
  8
1
  6
Continuous
 62
     7
370
     9
100
AcDbLine
 10
440.526419625
 20
-410.3661942675665
 30
0.0
 11
442.4943692283334
 21
-410.3661942675665
 31
0.0
  0
LINE
  5
1CF
330
1F
100
AcDbEntity
  8
1
  6
Continuous
 62
     7
370
     9
100
AcDbLine
 10
443.4263009530328
 20
-410.6995276009
 30
0.0
 11
444.8163333515664
 21
-410.6995276009
 31
0.0
  0
LINE
  5
1D0
330
1F
100
AcDbEntity
  8
1
  6
Continuous
 62
     7
370
     9
100
AcDbLine
 10
442.0752866793001
 20
-410.6995276009
 30
0.0
 11
442.2277025616673
 21
-410.6995276009
 31
0.0
  0
LINE
  5
1D1
330
1F
100
AcDbEntity
  8
1
  6
Continuous
 62
     7
370
     9
100
AcDbLine
 10
440.3092356629676
 20
-410.6995276009
 30
0.0
 11
441.763144471167
 21
-410.6995276009
 31
0.0
  0
LINE
  5
1D2
330
1F
100
AcDbEntity
  8
1
  6
Continuous
 62
     7
370
     9
100
AcDbLine
 10
443.2051356409667
 20
-411.0328609342331
 30
0.0
 11
445.0374986636337
 21
-411.0328609342331
 31
0.0
  0
LINE
  5
1D3
330
1F
100
AcDbEntity
  8
1
  6
Continuous
 62
     7
370
     9
100
AcDbLine
 10
440.0551953358002
 20
-411.0328609342331
 30
0.0
 11
441.7698111378334
 21
-411.0328609342331
 31
0.0
  0
LINE
  5
1D4
330
1F
100
AcDbEntity
  8
1
  6
Continuous
 62
     7
370
     9
100
AcDbLine
 10
442.9345561980335
 20
-411.3661942675666
 30
0.0
 11
445.3080781065657
 21
-411.3661942675666
 31
0.0
  0
LINE
  5
1D5
330
1F
100
AcDbEntity
  8
1
  6
Continuous
 62
     7
370
     9
100
AcDbLine
 10
441.0930221717667
 20
-411.3661942675666
 30
0.0
 11
441.7764778044998
 21
-411.3661942675666
 31
0.0
  0
LINE
  5
1D6
330
1F
100
AcDbEntity
  8
1
  6
Continuous
 62
     7
370
     9
100
AcDbLine
 10
439.7572440399667
 20
-411.3661942675666
 30
0.0
 11
440.797774164167
 21
-411.3661942675666
 31
0.0
  0
LINE
  5
1D7
330
1F
100
AcDbEntity
  8
1
  6
Continuous
 62
     7
370
     9
100
AcDbLine
 10
442.6006678922336
 20
-411.6995276009001
 30
0.0
 11
445.6419664123656
 21
-411.6995276009001
 31
0.0
  0
LINE
  5
1D8
330
1F
100
AcDbEntity
  8
1
  6
Continuous
 62
     7
370
     9
100
AcDbLine
 10
441.0863555050991
 20
-411.6995276009001
 30
0.0
 11
441.7831444711674
 21
-411.6995276009001
 31
0.0
  0
LINE
  5
1D9
330
1F
100
AcDbEntity
  8
1
  6
Continuous
 62
     7
370
     9
100
AcDbLine
 10
440.0473573097664
 20
-411.6995276009001
 30
0.0
 11
440.5135041152338
 21
-411.6995276009001
 31
0.0
  0
LINE
  5
1DA
330
1F
100
AcDbEntity
  8
1
  6
Continuous
 62
     7
370
     9
100
AcDbLine
 10
442.1777950592995
 20
-412.0328609342332
 30
0.0
 11
446.0648392452997
 21
-412.0328609342332
 31
0.0
  0
LINE
  5
1DB
330
1F
100
AcDbEntity
  8
1
  6
Continuous
 62
     7
370
     9
100
AcDbLine
 10
441.0796888384327
 20
-412.0328609342332
 30
0.0
 11
441.7898111378327
 21
-412.0328609342332
 31
0.0
  0
LINE
  5
1DC
330
1F
100
AcDbEntity
  8
1
  6
Continuous
 62
     7
370
     9
100
AcDbLine
 10
444.969766864833
 20
-412.3661942675666
 30
0.0
 11
445.8354704120669
 21
-412.3661942675666
 31
0.0
  0
LINE
  5
1DD
330
1F
100
AcDbEntity
  8
1
  6
Continuous
 62
     7
370
     9
100
AcDbLine
 10
443.6479315982326
 20
-412.3661942675666
 30
0.0
 11
444.5947027063665
 21
-412.3661942675666
 31
0.0
  0
LINE
  5
1DE
330
1F
100
AcDbEntity
  8
1
  6
Continuous
 62
     7
370
     9
100
AcDbLine
 10
442.4071638925334
 20
-412.3661942675666
 30
0.0
 11
443.2728674397662
 21
-412.3661942675666
 31
0.0
  0
LINE
  5
1DF
330
1F
100
AcDbEntity
  8
1
  6
Continuous
 62
     7
370
     9
100
AcDbLine
 10
441.0730221717674
 20
-412.3661942675666
 30
0.0
 11
441.7964778044991
 21
-412.3661942675666
 31
0.0
  0
LINE
  5
1E0
330
1F
100
AcDbEntity
  8
1
  6
Continuous
 62
     7
370
     9
100
AcDbLine
 10
445.3941310553324
 20
-412.6995276009001
 30
0.0
 11
445.5021370787331
 21
-412.6995276009001
 31
0.0
  0
LINE
  5
1E1
330
1F
100
AcDbEntity
  8
1
  6
Continuous
 62
     7
370
     9
100
AcDbLine
 10
443.637931598233
 20
-412.6995276009001
 30
0.0
 11
444.6047027063674
 21
-412.6995276009001
 31
0.0
  0
LINE
  5
1E2
330
1F
100
AcDbEntity
  8
1
  6
Continuous
 62
     7
370
     9
100
AcDbLine
 10
442.7404972258672
 20
-412.6995276009001
 30
0.0
 11
442.8485032492667
 21
-412.6995276009001
 31
0.0
  0
LINE
  5
1E3
330
1F
100
AcDbEntity
  8
1
  6
Continuous
 62
     7
370
     9
100
AcDbLine
 10
441.0663555050999
 20
-412.6995276009001
 30
0.0
 11
441.8031444711667
 21
-412.6995276009001
 31
0.0
  0
LINE
  5
1E4
330
1F
100
AcDbEntity
  8
1
  6
Continuous
 62
     7
370
     9
100
AcDbLine
 10
443.6279315982334
 20
-413.0328609342332
 30
0.0
 11
444.614702706367
 21
-413.0328609342332
 31
0.0
  0
LINE
  5
1E5
330
1F
100
AcDbEntity
  8
1
  6
Continuous
 62
     7
370
     9
100
AcDbLine
 10
441.0596888384334
 20
-413.0328609342332
 30
0.0
 11
441.8098111378331
 21
-413.0328609342332
 31
0.0
  0
LINE
  5
1E6
330
1F
100
AcDbEntity
  8
1
  6
Continuous
 62
     7
370
     9
100
AcDbLine
 10
443.6347096155997
 20
-413.3661942675666
 30
0.0
 11
444.6079246889995
 21
-413.3661942675666
 31
0.0
  0
LINE
  5
1E7
330
1F
100
AcDbEntity
  8
1
  6
Continuous
 62
     7
370
     9
100
AcDbLine
 10
441.0696332976332
 20
-413.3661942675666
 30
0.0
 11
441.7998666786333
 21
-413.3661942675666
 31
0.0
  0
CIRCLE
  5
1E8
330
1F
100
AcDbEntity
  8
1
  6
Continuous
 62
     7
370
     9
100
AcDbCircle
 10
403.2904791202662
 20
-237.0367461612665
 30
0.0
 40
0.5000000000000004
  0
MTEXT
  5
1E9
330
1F
100
AcDbEntity
  8
1
 62
     7
100
AcDbMText
 10
413.368104684821
 20
-244.773592058885
 30
0.0
 40
3.5
 41
0.0
 46
0.0
 71
     1
 72
     1
  1
{\fＭＳ ゴシック;\W0.827053;バックアップスリーブ}
 73
     1
 44
1.0
  0
LINE
  5
1EA
330
1F
100
AcDbEntity
  8
1
  6
Continuous
 62
     7
370
     9
100
AcDbLine
 10
403.2904791202662
 20
-237.0367461612665
 30
0.0
 11
413.1707396725004
 21
-249.2417739023001
 31
0.0
  0
LINE
  5
1EB
330
1F
100
AcDbEntity
  8
1
  6
Continuous
 62
     7
370
     9
100
AcDbLine
 10
413.1707396725004
 20
-249.2417739023001
 30
0.0
 11
456.0124579515998
 21
-249.2417739023001
 31
0.0
  0
LINE
  5
1EC
330
1F
100
AcDbEntity
  8
1
  6
Continuous
 62
     7
370
     9
100
AcDbLine
 10
365.4351851477004
 20
-272.7719222063666
 30
0.0
 11
365.4587553737333
 21
-272.7483519803335
 31
0.0
  0
LINE
  5
1ED
330
1F
100
AcDbEntity
  8
1
  6
Continuous
 62
     7
370
     9
100
AcDbLine
 10
365.3567855707994
 20
-275.7552710383668
 30
0.0
 11
365.3803557968335
 21
-275.7317008123333
 31
0.0
  0
LINE
  5
1EE
330
1F
100
AcDbEntity
  8
1
  6
Continuous
 62
     7
370
     9
100
AcDbLine
 10
370.0977911984002
 20
-271.0142654107666
 30
0.0
 11
370.121361424433
 21
-270.9906951847335
 31
0.0
  0
LINE
  5
1EF
330
1F
100
AcDbEntity
  8
1
  6
Continuous
 62
     7
370
     9
100
AcDbLine
 10
364.832071639566
 20
-279.7287894784668
 30
0.0
 11
364.8556418656001
 21
-279.7052192524336
 31
0.0
  0
LINE
  5
1F0
330
1F
100
AcDbEntity
  8
1
  6
Continuous
 62
     7
370
     9
100
AcDbLine
 10
369.2692546294008
 20
-275.2916064886668
 30
0.0
 11
369.2928248554325
 21
-275.2680362626334
 31
0.0
  0
LINE
  5
1F1
330
1F
100
AcDbEntity
  8
1
  6
Continuous
 62
     7
370
     9
100
AcDbLine
 10
364.8848991001327
 20
-283.7574012628667
 30
0.0
 11
364.9084693261667
 21
-283.7338310368332
 31
0.0
  0
LINE
  5
1F2
330
1F
100
AcDbEntity
  8
1
  6
Continuous
 62
     7
370
     9
100
AcDbLine
 10
369.9889640400669
 20
-278.6533363229333
 30
0.0
 11
370.0125342660997
 21
-278.6297660969001
 31
0.0
  0
LINE
  5
1F3
330
1F
100
AcDbEntity
  8
1
  6
Continuous
 62
     7
370
     9
100
AcDbLine
 10
375.4979747714329
 20
-273.1443255915664
 30
0.0
 11
375.5215449974669
 21
-273.1207553655335
 31
0.0
  0
LINE
  5
1F4
330
1F
100
AcDbEntity
  8
1
  6
Continuous
 62
     7
370
     9
100
AcDbLine
 10
366.6319601918337
 20
-286.2332568799666
 30
0.0
 11
366.6555304178667
 21
-286.2096866539332
 31
0.0
  0
LINE
  5
1F5
330
1F
100
AcDbEntity
  8
1
  6
Continuous
 62
     7
370
     9
100
AcDbLine
 10
370.9205012092668
 20
-281.9447158625333
 30
0.0
 11
370.9440714352997
 21
-281.9211456364663
 31
0.0
  0
LINE
  5
1F6
330
1F
100
AcDbEntity
  8
1
  6
Continuous
 62
     7
370
     9
100
AcDbLine
 10
375.9001367628996
 20
-276.9650803088999
 30
0.0
 11
375.9237069889336
 21
-276.9415100828333
 31
0.0
  0
LINE
  5
1F7
330
1F
100
AcDbEntity
  8
1
  6
Continuous
 62
     7
370
     9
100
AcDbLine
 10
368.9587607211668
 20
-287.7946696633999
 30
0.0
 11
368.9823309472339
 21
-287.7710994373667
 31
0.0
  0
LINE
  5
1F8
330
1F
100
AcDbEntity
  8
1
  6
Continuous
 62
     7
370
     9
100
AcDbLine
 10
374.1504829915003
 20
-282.6029473931001
 30
0.0
 11
374.1740532175332
 21
-282.5793771670666
 31
0.0
  0
LINE
  5
1F9
330
1F
100
AcDbEntity
  8
1
  6
Continuous
 62
     7
370
     9
100
AcDbLine
 10
373.377125986966
 20
-286.8793174771333
 30
0.0
 11
373.400696213
 21
-286.8557472510999
 31
0.0
  0
LINE
  5
1FA
330
1F
100
AcDbEntity
  8
1
  6
Continuous
 62
     7
370
     9
100
AcDbLine
 10
388.5433764683338
 20
-275.4770235610667
 30
0.0
 11
388.5669466943667
 21
-275.4534533350001
 31
0.0
  0
LINE
  5
1FB
330
1F
100
AcDbEntity
  8
1
  6
Continuous
 62
     7
370
     9
100
AcDbLine
 10
389.1745869346339
 20
-278.2483935755999
 30
0.0
 11
389.1981571606655
 21
-278.2248233495667
 31
0.0
  0
LINE
  5
1FC
330
1F
100
AcDbEntity
  8
1
  6
Continuous
 62
     7
370
     9
100
AcDbLine
 10
389.591833237767
 20
-282.0550998138334
 30
0.0
 11
389.6154034637999
 21
-282.0315295877999
 31
0.0
  0
LINE
  5
1FD
330
1F
100
AcDbEntity
  8
1
  6
Continuous
 62
     7
370
     9
100
AcDbLine
 10
403.7285096203998
 20
-272.1081934980667
 30
0.0
 11
403.7520798464327
 21
-272.0846232720332
 31
0.0
  0
LINE
  5
1FE
330
1F
100
AcDbEntity
  8
1
  6
Continuous
 62
     7
370
     9
100
AcDbLine
 10
403.5375927316673
 20
-275.4649168083001
 30
0.0
 11
403.5611629577002
 21
-275.4413465822667
 31
0.0
  0
LINE
  5
1FF
330
1F
100
AcDbEntity
  8
1
  6
Continuous
 62
     7
370
     9
100
AcDbLine
 10
404.2615749516326
 20
-278.2686781702
 30
0.0
 11
404.2851451776998
 21
-278.2451079441666
 31
0.0
  0
LINE
  5
200
330
1F
100
AcDbEntity
  8
1
  6
Continuous
 62
     7
370
     9
100
AcDbLine
 10
410.4376618517327
 20
-272.0925912701334
 30
0.0
 11
410.4612320777667
 21
-272.0690210440999
 31
0.0
  0
LINE
  5
201
330
1F
100
AcDbEntity
  8
1
  6
Continuous
 62
     7
370
     9
100
AcDbLine
 10
403.2364891543662
 20
-283.3778359535666
 30
0.0
 11
403.2600593804002
 21
-283.3542657274999
 31
0.0
  0
LINE
  5
202
330
1F
100
AcDbEntity
  8
1
  6
Continuous
 62
     7
370
     9
100
AcDbLine
 10
408.5341900434669
 20
-278.0801350644333
 30
0.0
 11
408.5577602694998
 21
-278.0565648384
 31
0.0
  0
LINE
  5
203
330
1F
100
AcDbEntity
  8
1
  6
Continuous
 62
     7
370
     9
100
AcDbLine
 10
403.2915824986338
 20
-286.7514347025999
 30
0.0
 11
403.3151527246999
 21
-286.7278644765332
 31
0.0
  0
LINE
  5
204
330
1F
100
AcDbEntity
  8
1
  6
Continuous
 62
     7
370
     9
100
AcDbLine
 10
408.1428395543674
 20
-281.9001776468667
 30
0.0
 11
408.166409780399
 21
-281.8766074208335
 31
0.0
  0
LINE
  5
205
330
1F
100
AcDbEntity
  8
1
  6
Continuous
 62
     7
370
     9
100
AcDbLine
 10
414.0669601842003
 20
-275.9760570170332
 30
0.0
 11
414.0905304102344
 21
-275.952486791
 31
0.0
  0
LINE
  5
206
330
1F
100
AcDbEntity
  8
1
  6
Continuous
 62
     7
370
     9
100
AcDbLine
 10
404.9332748970669
 20
-288.5367511696003
 30
0.0
 11
404.9568451230998
 21
-288.5131809435333
 31
0.0
  0
LINE
  5
207
330
1F
100
AcDbEntity
  8
1
  6
Continuous
 62
     7
370
     9
100
AcDbLine
 10
409.5125611662331
 20
-283.9574649004331
 30
0.0
 11
409.536131392266
 21
-283.9338946743999
 31
0.0
  0
LINE
  5
208
330
1F
100
AcDbEntity
  8
1
  6
Continuous
 62
     7
370
     9
100
AcDbLine
 10
409.8963343692334
 20
-287.4646240706668
 30
0.0
 11
409.9199045952994
 21
-287.4410538446334
 31
0.0
  0
LINE
  5
209
330
1F
100
AcDbEntity
  8
1
  6
Continuous
 62
     7
370
     9
100
AcDbLine
 10
367.5573256174671
 20
-288.1017940127668
 30
0.0
 11
367.5337553913999
 21
-288.0782237867334
 31
0.0
  0
LINE
  5
20A
330
1F
100
AcDbEntity
  8
1
  6
Continuous
 62
     7
370
     9
100
AcDbLine
 10
370.9266948078336
 20
-288.2593053924
 30
0.0
 11
370.9031245817664
 21
-288.2357351663331
 31
0.0
  0
LINE
  5
20B
330
1F
100
AcDbEntity
  8
1
  6
Continuous
 62
     7
370
     9
100
AcDbLine
 10
366.4442588830339
 20
-283.7768694676
 30
0.0
 11
366.4206886569999
 21
-283.7532992415665
 31
0.0
  0
LINE
  5
20C
330
1F
100
AcDbEntity
  8
1
  6
Continuous
 62
     7
370
     9
100
AcDbLine
 10
373.3397747386329
 20
-287.7477984091333
 30
0.0
 11
373.3162045125999
 21
-287.7242281830664
 31
0.0
  0
LINE
  5
20D
330
1F
100
AcDbEntity
  8
1
  6
Continuous
 62
     7
370
     9
100
AcDbLine
 10
368.7834710044007
 20
-283.1914946749
 30
0.0
 11
368.7599007783666
 21
-283.1679244488665
 31
0.0
  0
LINE
  5
20E
330
1F
100
AcDbEntity
  8
1
  6
Continuous
 62
     7
370
     9
100
AcDbLine
 10
375.4315224495003
 20
-286.7687341761667
 30
0.0
 11
375.4079522234663
 21
-286.7451639501332
 31
0.0
  0
LINE
  5
20F
330
1F
100
AcDbEntity
  8
1
  6
Continuous
 62
     7
370
     9
100
AcDbLine
 10
369.7288110293657
 20
-281.0660227560332
 30
0.0
 11
369.705240803334
 21
-281.0424525299998
 31
0.0
  0
LINE
  5
210
330
1F
100
AcDbEntity
  8
1
  6
Continuous
 62
     7
370
     9
100
AcDbLine
 10
364.9089526481334
 20
-276.2461643747998
 30
0.0
 11
364.8853824221006
 21
-276.2225941487666
 31
0.0
  0
LINE
  5
211
330
1F
100
AcDbEntity
  8
1
  6
Continuous
 62
     7
370
     9
100
AcDbLine
 10
375.2743995980323
 20
-283.3683332596332
 30
0.0
 11
375.2508293720007
 21
-283.3447630335998
 31
0.0
  0
LINE
  5
212
330
1F
100
AcDbEntity
  8
1
  6
Continuous
 62
     7
370
     9
100
AcDbLine
 10
370.8343033291337
 20
-278.9282369907668
 30
0.0
 11
370.8107331030996
 21
-278.9046667646999
 31
0.0
  0
LINE
  5
213
330
1F
100
AcDbEntity
  8
1
  6
Continuous
 62
     7
370
     9
100
AcDbLine
 10
365.9308662081999
 20
-274.0247998698333
 30
0.0
 11
365.9072959821658
 21
-274.0012296437666
 31
0.0
  0
LINE
  5
214
330
1F
100
AcDbEntity
  8
1
  6
Continuous
 62
     7
370
     9
100
AcDbLine
 10
375.6344161521995
 20
-279.7081973286669
 30
0.0
 11
375.6108459261667
 21
-279.6846271026334
 31
0.0
  0
LINE
  5
215
330
1F
100
AcDbEntity
  8
1
  6
Continuous
 62
     7
370
     9
100
AcDbLine
 10
370.9584090177336
 20
-275.0321901942
 30
0.0
 11
370.9348387916995
 21
-275.0086199681669
 31
0.0
  0
LINE
  5
216
330
1F
100
AcDbEntity
  8
1
  6
Continuous
 62
     7
370
     9
100
AcDbLine
 10
366.5730176559327
 20
-270.6467988324001
 30
0.0
 11
366.5494474298999
 21
-270.6232286063667
 31
0.0
  0
LINE
  5
217
330
1F
100
AcDbEntity
  8
1
  6
Continuous
 62
     7
370
     9
100
AcDbLine
 10
376.2105332742331
 20
-276.0932927527999
 30
0.0
 11
376.1869630482002
 21
-276.0697225267667
 31
0.0
  0
LINE
  5
218
330
1F
100
AcDbEntity
  8
1
  6
Continuous
 62
     7
370
     9
100
AcDbLine
 10
371.8367302891675
 20
-271.7194897677668
 30
0.0
 11
371.8131600631335
 21
-271.6959195417334
 31
0.0
  0
LINE
  5
219
330
1F
100
AcDbEntity
  8
1
  6
Continuous
 62
     7
370
     9
100
AcDbLine
 10
376.7277374194006
 20
-272.4070020497
 30
0.0
 11
376.7041671933665
 21
-272.3834318236665
 31
0.0
  0
LINE
  5
21A
330
1F
100
AcDbEntity
  8
1
  6
Continuous
 62
     7
370
     9
100
AcDbLine
 10
389.2896833157329
 20
-276.6591970310666
 30
0.0
 11
389.2661130897
 21
-276.6356268050334
 31
0.0
  0
LINE
  5
21B
330
1F
100
AcDbEntity
  8
1
  6
Continuous
 62
     7
370
     9
100
AcDbLine
 10
403.7838240044999
 20
-288.2892606911002
 30
0.0
 11
403.7602537784327
 21
-288.2656904650668
 31
0.0
  0
LINE
  5
21C
330
1F
100
AcDbEntity
  8
1
  6
Continuous
 62
     7
370
     9
100
AcDbLine
 10
407.8185873841665
 20
-288.2961460011331
 30
0.0
 11
407.7950171581336
 21
-288.2725757750999
 31
0.0
  0
LINE
  5
21D
330
1F
100
AcDbEntity
  8
1
  6
Continuous
 62
     7
370
     9
100
AcDbLine
 10
411.5671413852004
 20
-288.4122510123334
 30
0.0
 11
411.5435711591664
 21
-288.3886807863003
 31
0.0
  0
LINE
  5
21E
330
1F
100
AcDbEntity
  8
1
  6
Continuous
 62
     7
370
     9
100
AcDbLine
 10
405.3817319920662
 20
-282.2268416192
 30
0.0
 11
405.3581617660333
 21
-282.2032713931669
 31
0.0
  0
LINE
  5
21F
330
1F
100
AcDbEntity
  8
1
  6
Continuous
 62
     7
370
     9
100
AcDbLine
 10
412.0370927595671
 20
-284.8326149929665
 30
0.0
 11
412.0135225335331
 21
-284.8090447669334
 31
0.0
  0
LINE
  5
220
330
1F
100
AcDbEntity
  8
1
  6
Continuous
 62
     7
370
     9
100
AcDbLine
 10
406.5309953072662
 20
-279.3265175406665
 30
0.0
 11
406.5074250812002
 21
-279.3029473146333
 31
0.0
  0
LINE
  5
221
330
1F
100
AcDbEntity
  8
1
  6
Continuous
 62
     7
370
     9
100
AcDbLine
 10
414.0495859447665
 20
-283.3325999668667
 30
0.0
 11
414.0260157187336
 21
-283.3090297408333
 31
0.0
  0
LINE
  5
222
330
1F
100
AcDbEntity
  8
1
  6
Continuous
 62
     7
370
     9
100
AcDbLine
 10
409.3085803171669
 20
-278.5915943392666
 30
0.0
 11
409.2850100911328
 21
-278.5680241132331
 31
0.0
  0
LINE
  5
223
330
1F
100
AcDbEntity
  8
1
  6
Continuous
 62
     7
370
     9
100
AcDbLine
 10
403.9151943953003
 20
-273.1982084173999
 30
0.0
 11
403.8916241692662
 21
-273.1746381913667
 31
0.0
  0
LINE
  5
224
330
1F
100
AcDbEntity
  8
1
  6
Continuous
 62
     7
370
     9
100
AcDbLine
 10
413.2031812641002
 20
-279.4489184215001
 30
0.0
 11
413.1796110380673
 21
-279.4253481954667
 31
0.0
  0
LINE
  5
225
330
1F
100
AcDbEntity
  8
1
  6
Continuous
 62
     7
370
     9
100
AcDbLine
 10
408.3701160177328
 20
-274.6158531751333
 30
0.0
 11
408.3465457916668
 21
-274.5922829491001
 31
0.0
  0
LINE
  5
226
330
1F
100
AcDbEntity
  8
1
  6
Continuous
 62
     7
370
     9
100
AcDbLine
 10
412.6009093699325
 20
-275.6861919073999
 30
0.0
 11
412.5773391439008
 21
-275.6626216813664
 31
0.0
  0
LINE
  5
227
330
1F
100
AcDbEntity
  8
1
  6
Continuous
 62
     7
370
     9
100
AcDbLine
 10
408.2089145755671
 20
-271.2941971130001
 30
0.0
 11
408.1853443494999
 21
-271.2706268869667
 31
0.0
  0
LINE
  5
228
330
1F
100
AcDbEntity
  8
1
  6
Continuous
 62
     7
370
     9
100
AcDbLine
 10
413.2761427200668
 20
-273.0194841411
 30
0.0
 11
413.2525724939997
 21
-272.9959139150668
 31
0.0
  0
LINE
  5
229
330
1F
100
AcDbEntity
  8
1
  6
Continuous
 62
     7
370
     9
100
AcDbLine
 10
413.8271409025
 20
-270.2735999234666
 30
0.0
 11
413.8035706764672
 21
-270.2500296974334
 31
0.0
  0
LINE
  5
22A
330
1F
100
AcDbEntity
  8
1
  6
Continuous
 62
     7
370
     9
100
AcDbLine
 10
366.6205877103327
 20
-286.9972080712332
 30
0.0
 11
366.5970174842998
 21
-286.9736378451998
 31
0.0
  0
LINE
  5
22B
330
1F
100
AcDbEntity
  8
1
  6
Continuous
 62
     7
370
     9
100
AcDbLine
 10
370.3150357113675
 20
-286.5782786566999
 30
0.0
 11
370.2914654853334
 21
-286.5547084306668
 31
0.0
  0
LINE
  5
22C
330
1F
100
AcDbEntity
  8
1
  6
Continuous
 62
     7
370
     9
100
AcDbLine
 10
365.3214164181675
 20
-281.5846593635
 30
0.0
 11
365.2978461921335
 21
-281.5610891374666
 31
0.0
  0
LINE
  5
22D
330
1F
100
AcDbEntity
  8
1
  6
Continuous
 62
     7
370
     9
100
AcDbLine
 10
376.0911187118667
 20
-288.5619628562332
 30
0.0
 11
376.0675484858338
 21
-288.5383926301666
 31
0.0
  0
LINE
  5
22E
330
1F
100
AcDbEntity
  8
1
  6
Continuous
 62
     7
370
     9
100
AcDbLine
 10
371.731299466399
 20
-284.2021436107336
 30
0.0
 11
371.7077292403674
 21
-284.1785733847001
 31
0.0
  0
LINE
  5
22F
330
1F
100
AcDbEntity
  8
1
  6
Continuous
 62
     7
370
     9
100
AcDbLine
 10
366.7367090801667
 20
-279.2075532244998
 30
0.0
 11
366.7131388541327
 21
-279.1839829984667
 31
0.0
  0
LINE
  5
230
330
1F
100
AcDbEntity
  8
1
  6
Continuous
 62
     7
370
     9
100
AcDbLine
 10
376.3477810884336
 20
-285.7706879246666
 30
0.0
 11
376.3242108623995
 21
-285.7471176986334
 31
0.0
  0
LINE
  5
231
330
1F
100
AcDbEntity
  8
1
  6
Continuous
 62
     7
370
     9
100
AcDbLine
 10
370.7152473242674
 20
-280.1381541605001
 30
0.0
 11
370.6916770982333
 21
-280.1145839344666
 31
0.0
  0
LINE
  5
232
330
1F
100
AcDbEntity
  8
1
  6
Continuous
 62
     7
370
     9
100
AcDbLine
 10
365.1503663741661
 20
-274.5732732104003
 30
0.0
 11
365.1267961481332
 21
-274.5497029843668
 31
0.0
  0
LINE
  5
233
330
1F
100
AcDbEntity
  8
1
  6
Continuous
 62
     7
370
     9
100
AcDbLine
 10
375.2382101979667
 20
-281.4838301351331
 30
0.0
 11
375.2146399719338
 21
-281.4602599091002
 31
0.0
  0
LINE
  5
234
330
1F
100
AcDbEntity
  8
1
  6
Continuous
 62
     7
370
     9
100
AcDbLine
 10
370.3031801839336
 20
-276.5488001211335
 30
0.0
 11
370.2796099578995
 21
-276.5252298950666
 31
0.0
  0
LINE
  5
235
330
1F
100
AcDbEntity
  8
1
  6
Continuous
 62
     7
370
     9
100
AcDbLine
 10
365.2355636022332
 20
-271.4811835393999
 30
0.0
 11
365.2119933762003
 21
-271.4576133133668
 31
0.0
  0
LINE
  5
236
330
1F
100
AcDbEntity
  8
1
  6
Continuous
 62
     7
370
     9
100
AcDbLine
 10
375.6635489429666
 20
-278.2709364918334
 30
0.0
 11
375.6399787169006
 21
-278.2473662658
 31
0.0
  0
LINE
  5
237
330
1F
100
AcDbEntity
  8
1
  6
Continuous
 62
     7
370
     9
100
AcDbLine
 10
371.1844147344669
 20
-273.7918022833335
 30
0.0
 11
371.1608445084009
 21
-273.7682320573001
 31
0.0
  0
LINE
  5
238
330
1F
100
AcDbEntity
  8
1
  6
Continuous
 62
     7
370
     9
100
AcDbLine
 10
376.4593920468006
 20
-275.6096452666335
 30
0.0
 11
376.4358218207321
 21
-275.5860750406001
 31
0.0
  0
LINE
  5
239
330
1F
100
AcDbEntity
  8
1
  6
Continuous
 62
     7
370
     9
100
AcDbLine
 10
375.5068792682327
 20
-271.7909406345669
 30
0.0
 11
375.483309042201
 21
-271.7673704085335
 31
0.0
  0
LINE
  5
23A
330
1F
100
AcDbEntity
  8
1
  6
Continuous
 62
     7
370
     9
100
AcDbLine
 10
388.8686821196
 20
-282.1848242431001
 30
0.0
 11
388.8451118935672
 21
-282.1612540170667
 31
0.0
  0
LINE
  5
23B
330
1F
100
AcDbEntity
  8
1
  6
Continuous
 62
     7
370
     9
100
AcDbLine
 10
389.3184276692993
 20
-279.4365662425333
 30
0.0
 11
389.2948574432333
 21
-279.4129960165001
 31
0.0
  0
LINE
  5
23C
330
1F
100
AcDbEntity
  8
1
  6
Continuous
 62
     7
370
     9
100
AcDbLine
 10
388.7272909751328
 20
-275.3874320255332
 30
0.0
 11
388.7037207490999
 21
-275.3638617995001
 31
0.0
  0
LINE
  5
23D
330
1F
100
AcDbEntity
  8
1
  6
Continuous
 62
     7
370
     9
100
AcDbLine
 10
388.8845433056665
 20
-271.7734338031666
 30
0.0
 11
388.8609730796336
 21
-271.7498635771332
 31
0.0
  0
LINE
  5
23E
330
1F
100
AcDbEntity
  8
1
  6
Continuous
 62
     7
370
     9
100
AcDbLine
 10
405.5011528654993
 20
-288.390043363
 30
0.0
 11
405.4775826394676
 21
-288.3664731369665
 31
0.0
  0
LINE
  5
23F
330
1F
100
AcDbEntity
  8
1
  6
Continuous
 62
     7
370
     9
100
AcDbLine
 10
407.5303080513335
 20
-286.489638253
 30
0.0
 11
407.5067378253006
 21
-286.4660680269665
 31
0.0
  0
LINE
  5
240
330
1F
100
AcDbEntity
  8
1
  6
Continuous
 62
     7
370
     9
100
AcDbLine
 10
412.0528092247323
 20
-288.1127577712999
 30
0.0
 11
412.0292389987006
 21
-288.0891875452667
 31
0.0
  0
LINE
  5
241
330
1F
100
AcDbEntity
  8
1
  6
Continuous
 62
     7
370
     9
100
AcDbLine
 10
407.3907858298335
 20
-283.4507343763999
 30
0.0
 11
407.3672156038006
 21
-283.4271641503664
 31
0.0
  0
LINE
  5
242
330
1F
100
AcDbEntity
  8
1
  6
Continuous
 62
     7
370
     9
100
AcDbLine
 10
413.674614558034
 20
-286.1560637272665
 30
0.0
 11
413.6510443319668
 21
-286.1324935012333
 31
0.0
  0
LINE
  5
243
330
1F
100
AcDbEntity
  8
1
  6
Continuous
 62
     7
370
     9
100
AcDbLine
 10
408.6688889717674
 20
-281.1503381410333
 30
0.0
 11
408.6453187457334
 21
-281.1267679149667
 31
0.0
  0
LINE
  5
244
330
1F
100
AcDbEntity
  8
1
  6
Continuous
 62
     7
370
     9
100
AcDbLine
 10
403.9810992419671
 20
-276.4625484112001
 30
0.0
 11
403.9575290158999
 21
-276.4389781851667
 31
0.0
  0
LINE
  5
245
330
1F
100
AcDbEntity
  8
1
  6
Continuous
 62
     7
370
     9
100
AcDbLine
 10
412.8946973797988
 20
-281.5987241604665
 30
0.0
 11
412.8711271537671
 21
-281.5751539344336
 31
0.0
  0
LINE
  5
246
330
1F
100
AcDbEntity
  8
1
  6
Continuous
 62
     7
370
     9
100
AcDbLine
 10
408.5854397111671
 20
-277.2894664918335
 30
0.0
 11
408.5618694850999
 21
-277.2658962658001
 31
0.0
  0
LINE
  5
247
330
1F
100
AcDbEntity
  8
1
  6
Continuous
 62
     7
370
     9
100
AcDbLine
 10
404.3258372658664
 20
-273.0298640465332
 30
0.0
 11
404.3022670398335
 21
-273.0062938204997
 31
0.0
  0
LINE
  5
248
330
1F
100
AcDbEntity
  8
1
  6
Continuous
 62
     7
370
     9
100
AcDbLine
 10
413.6748735161666
 20
-279.3594483841331
 30
0.0
 11
413.6513032901325
 21
-279.3358781580999
 31
0.0
  0
LINE
  5
249
330
1F
100
AcDbEntity
  8
1
  6
Continuous
 62
     7
370
     9
100
AcDbLine
 10
407.5846959790334
 20
-273.2692708470002
 30
0.0
 11
407.5611257529662
 21
-273.2457006209668
 31
0.0
  0
LINE
  5
24A
330
1F
100
AcDbEntity
  8
1
  6
Continuous
 62
     7
370
     9
100
AcDbLine
 10
412.2850451786333
 20
-274.1856373851667
 30
0.0
 11
412.2614749525993
 21
-274.1620671591332
 31
0.0
  0
LINE
  5
24B
330
1F
100
AcDbEntity
  8
1
  6
Continuous
 62
     7
370
     9
100
AcDbLine
 10
413.3085772270996
 20
-272.0927376974667
 30
0.0
 11
413.2850070010667
 21
-272.0691674714333
 31
0.0
  0
LINE
  5
24C
330
1F
100
AcDbEntity
  8
1
  6
Continuous
 62
     7
370
     9
100
AcDbLine
 10
363.4358762177329
 20
-272.3259628727336
 30
0.0
 11
363.7692095510667
 21
-271.9926295394002
 31
0.0
  0
LINE
  5
24D
330
1F
100
AcDbEntity
  8
1
  6
Continuous
 62
     7
370
     9
100
AcDbLine
 10
363.4358762177329
 20
-273.7401764351001
 30
0.0
 11
363.7692095510667
 21
-273.406843101767
 31
0.0
  0
LINE
  5
24E
330
1F
100
AcDbEntity
  8
1
  6
Continuous
 62
     7
370
     9
100
AcDbLine
 10
363.4358762177329
 20
-275.1543899974669
 30
0.0
 11
363.7692095510667
 21
-274.8210566641334
 31
0.0
  0
LINE
  5
24F
330
1F
100
AcDbEntity
  8
1
  6
Continuous
 62
     7
370
     9
100
AcDbLine
 10
363.4358762177329
 20
-276.5686035598334
 30
0.0
 11
363.7692095510667
 21
-276.2352702265002
 31
0.0
  0
LINE
  5
250
330
1F
100
AcDbEntity
  8
1
  6
Continuous
 62
     7
370
     9
100
AcDbLine
 10
363.4358762177329
 20
-277.9828171222333
 30
0.0
 11
363.7692095510667
 21
-277.6494837888999
 31
0.0
  0
LINE
  5
251
330
1F
100
AcDbEntity
  8
1
  6
Continuous
 62
     7
370
     9
100
AcDbLine
 10
363.4358762177329
 20
-279.3970306846001
 30
0.0
 11
363.7692095510667
 21
-279.063697351267
 31
0.0
  0
LINE
  5
252
330
1F
100
AcDbEntity
  8
1
  6
Continuous
 62
     7
370
     9
100
AcDbLine
 10
363.4358762177329
 20
-280.8112442469669
 30
0.0
 11
363.7692095510667
 21
-280.4779109136334
 31
0.0
  0
LINE
  5
253
330
1F
100
AcDbEntity
  8
1
  6
Continuous
 62
     7
370
     9
100
AcDbLine
 10
363.4358762177329
 20
-282.2254578093333
 30
0.0
 11
363.7692095510667
 21
-281.8921244760002
 31
0.0
  0
LINE
  5
254
330
1F
100
AcDbEntity
  8
1
  6
Continuous
 62
     7
370
     9
100
AcDbLine
 10
363.4358762177329
 20
-283.6396713717002
 30
0.0
 11
363.7692095510667
 21
-283.3063380383667
 31
0.0
  0
LINE
  5
255
330
1F
100
AcDbEntity
  8
1
  6
Continuous
 62
     7
370
     9
100
AcDbLine
 10
363.4358762177329
 20
-285.0538849340998
 30
0.0
 11
363.7692095510667
 21
-284.7205516007667
 31
0.0
  0
LINE
  5
256
330
1F
100
AcDbEntity
  8
1
  6
Continuous
 62
     7
370
     9
100
AcDbLine
 10
363.4358762177329
 20
-286.4680984964666
 30
0.0
 11
363.7692095510667
 21
-286.1347651631331
 31
0.0
  0
LINE
  5
257
330
1F
100
AcDbEntity
  8
1
  6
Continuous
 62
     7
370
     9
100
AcDbLine
 10
363.4358762177329
 20
-287.8823120588336
 30
0.0
 11
363.7692095510667
 21
-287.5489787255001
 31
0.0
  0
LINE
  5
258
330
1F
100
AcDbEntity
  8
1
  6
Continuous
 62
     7
370
     9
100
AcDbLine
 10
363.4358762177329
 20
-289.2965256212001
 30
0.0
 11
363.7692095510667
 21
-288.9631922878667
 31
0.0
  0
LINE
  5
259
330
1F
100
AcDbEntity
  8
1
  6
Continuous
 62
     7
370
     9
100
AcDbLine
 10
363.4358762177329
 20
-290.7107391835669
 30
0.0
 11
363.7692095510667
 21
-290.3774058502334
 31
0.0
  0
LINE
  5
25A
330
1F
100
AcDbEntity
  8
1
  6
Continuous
 62
     7
370
     9
100
AcDbLine
 10
363.4358762177329
 20
-292.1249527459665
 30
0.0
 11
363.7692095510667
 21
-291.7916194126331
 31
0.0
  0
LINE
  5
25B
330
1F
100
AcDbEntity
  8
1
  6
Continuous
 62
     7
370
     9
100
AcDbLine
 10
363.4358762177329
 20
-293.5391663083333
 30
0.0
 11
363.7692095510667
 21
-293.2058329749999
 31
0.0
  0
LINE
  5
25C
330
1F
100
AcDbEntity
  8
1
  6
Continuous
 62
     7
370
     9
100
AcDbLine
 10
363.4358762177329
 20
-294.9533798706998
 30
0.0
 11
363.7692095510667
 21
-294.6200465373666
 31
0.0
  0
LINE
  5
25D
330
1F
100
AcDbEntity
  8
1
  6
Continuous
 62
     7
370
     9
100
AcDbLine
 10
363.4358762177329
 20
-296.3675934330669
 30
0.0
 11
363.7692095510667
 21
-296.0342600997334
 31
0.0
  0
LINE
  5
25E
330
1F
100
AcDbEntity
  8
1
  6
Continuous
 62
     7
370
     9
100
AcDbLine
 10
363.4358762177329
 20
-297.7818069954334
 30
0.0
 11
363.7692095510667
 21
-297.4484736621002
 31
0.0
  0
LINE
  5
25F
330
1F
100
AcDbEntity
  8
1
  6
Continuous
 62
     7
370
     9
100
AcDbLine
 10
363.4358762177329
 20
-299.1960205578001
 30
0.0
 11
363.7692095510667
 21
-298.8626872244667
 31
0.0
  0
LINE
  5
260
330
1F
100
AcDbEntity
  8
1
  6
Continuous
 62
     7
370
     9
100
AcDbLine
 10
363.4358762177329
 20
-300.6102341201998
 30
0.0
 11
363.7692095510667
 21
-300.2769007868666
 31
0.0
  0
LINE
  5
261
330
1F
100
AcDbEntity
  8
1
  6
Continuous
 62
     7
370
     9
100
AcDbLine
 10
363.4358762177329
 20
-302.0244476825666
 30
0.0
 11
363.7692095510667
 21
-301.6911143492331
 31
0.0
  0
LINE
  5
262
330
1F
100
AcDbEntity
  8
1
  6
Continuous
 62
     7
370
     9
100
AcDbLine
 10
363.4358762177329
 20
-303.4386612449331
 30
0.0
 11
363.7692095510667
 21
-303.1053279115999
 31
0.0
  0
LINE
  5
263
330
1F
100
AcDbEntity
  8
1
  6
Continuous
 62
     7
370
     9
100
AcDbLine
 10
363.4358762177329
 20
-304.8528748073001
 30
0.0
 11
363.7692095510667
 21
-304.5195414739666
 31
0.0
  0
LINE
  5
264
330
1F
100
AcDbEntity
  8
1
  6
Continuous
 62
     7
370
     9
100
AcDbLine
 10
363.4358762177329
 20
-306.2670883696669
 30
0.0
 11
363.7692095510667
 21
-305.9337550363335
 31
0.0
  0
LINE
  5
265
330
1F
100
AcDbEntity
  8
1
  6
Continuous
 62
     7
370
     9
100
AcDbLine
 10
363.4358762177329
 20
-307.6813019320666
 30
0.0
 11
363.7692095510667
 21
-307.3479685987331
 31
0.0
  0
LINE
  5
266
330
1F
100
AcDbEntity
  8
1
  6
Continuous
 62
     7
370
     9
100
AcDbLine
 10
363.4358762177329
 20
-309.0955154944333
 30
0.0
 11
363.7692095510667
 21
-308.7621821610999
 31
0.0
  0
LINE
  5
267
330
1F
100
AcDbEntity
  8
1
  6
Continuous
 62
     7
370
     9
100
AcDbLine
 10
363.4358762177329
 20
-310.5097290567998
 30
0.0
 11
363.7692095510667
 21
-310.1763957234667
 31
0.0
  0
LINE
  5
268
330
1F
100
AcDbEntity
  8
1
  6
Continuous
 62
     7
370
     9
100
AcDbLine
 10
363.4358762177329
 20
-311.9239426191666
 30
0.0
 11
363.7692095510667
 21
-311.5906092858331
 31
0.0
  0
LINE
  5
269
330
1F
100
AcDbEntity
  8
1
  6
Continuous
 62
     7
370
     9
100
AcDbLine
 10
363.4358762177329
 20
-313.3381561815333
 30
0.0
 11
363.7692095510667
 21
-313.0048228482003
 31
0.0
  0
LINE
  5
26A
330
1F
100
AcDbEntity
  8
1
  6
Continuous
 62
     7
370
     9
100
AcDbLine
 10
363.4358762177329
 20
-314.7523697439333
 30
0.0
 11
363.7692095510667
 21
-314.4190364105999
 31
0.0
  0
LINE
  5
26B
330
1F
100
AcDbEntity
  8
1
  6
Continuous
 62
     7
370
     9
100
AcDbLine
 10
363.4358762177329
 20
-316.1665833062998
 30
0.0
 11
363.7692095510667
 21
-315.8332499729667
 31
0.0
  0
LINE
  5
26C
330
1F
100
AcDbEntity
  8
1
  6
Continuous
 62
     7
370
     9
100
AcDbLine
 10
363.4358762177329
 20
-317.5807968686666
 30
0.0
 11
363.7692095510667
 21
-317.2474635353331
 31
0.0
  0
LINE
  5
26D
330
1F
100
AcDbEntity
  8
1
  6
Continuous
 62
     7
370
     9
100
AcDbLine
 10
363.4358762177329
 20
-318.9950104310331
 30
0.0
 11
363.7692095510667
 21
-318.6616770976999
 31
0.0
  0
LINE
  5
26E
330
1F
100
AcDbEntity
  8
1
  6
Continuous
 62
     7
370
     9
100
AcDbLine
 10
363.4358762177329
 20
-320.4092239933998
 30
0.0
 11
363.7692095510667
 21
-320.0758906600664
 31
0.0
  0
LINE
  5
26F
330
1F
100
AcDbEntity
  8
1
  6
Continuous
 62
     7
370
     9
100
AcDbLine
 10
363.4358762177329
 20
-321.8234375557998
 30
0.0
 11
363.7692095510667
 21
-321.4901042224666
 31
0.0
  0
LINE
  5
270
330
1F
100
AcDbEntity
  8
1
  6
Continuous
 62
     7
370
     9
100
AcDbLine
 10
415.1025428844
 20
-271.5709844514998
 30
0.0
 11
415.4358762177337
 21
-271.2376511181666
 31
0.0
  0
LINE
  5
271
330
1F
100
AcDbEntity
  8
1
  6
Continuous
 62
     7
370
     9
100
AcDbLine
 10
363.4358762177329
 20
-323.2376511181665
 30
0.0
 11
363.7692095510667
 21
-322.9043177848331
 31
0.0
  0
LINE
  5
272
330
1F
100
AcDbEntity
  8
1
  6
Continuous
 62
     7
370
     9
100
AcDbLine
 10
415.1025428844
 20
-272.9851980138666
 30
0.0
 11
415.4358762177337
 21
-272.6518646805332
 31
0.0
  0
LINE
  5
273
330
1F
100
AcDbEntity
  8
1
  6
Continuous
 62
     7
370
     9
100
AcDbLine
 10
363.4358762177329
 20
-324.651864680533
 30
0.0
 11
363.7692095510667
 21
-324.3185313471999
 31
0.0
  0
LINE
  5
274
330
1F
100
AcDbEntity
  8
1
  6
Continuous
 62
     7
370
     9
100
AcDbLine
 10
415.1025428844
 20
-274.3994115762331
 30
0.0
 11
415.4358762177337
 21
-274.0660782428999
 31
0.0
  0
LINE
  5
275
330
1F
100
AcDbEntity
  8
1
  6
Continuous
 62
     7
370
     9
100
AcDbLine
 10
363.4358762177329
 20
-326.0660782428998
 30
0.0
 11
363.7692095510667
 21
-325.7327449095664
 31
0.0
  0
LINE
  5
276
330
1F
100
AcDbEntity
  8
1
  6
Continuous
 62
     7
370
     9
100
AcDbLine
 10
415.1025428844
 20
-275.8136251385998
 30
0.0
 11
415.4358762177337
 21
-275.4802918052664
 31
0.0
  0
LINE
  5
277
330
1F
100
AcDbEntity
  8
1
  6
Continuous
 62
     7
370
     9
100
AcDbLine
 10
363.4358762177329
 20
-327.4802918052666
 30
0.0
 11
363.7692095510667
 21
-327.1469584719331
 31
0.0
  0
LINE
  5
278
330
1F
100
AcDbEntity
  8
1
  6
Continuous
 62
     7
370
     9
100
AcDbLine
 10
415.1025428844
 20
-277.2278387009998
 30
0.0
 11
415.4358762177337
 21
-276.8945053676667
 31
0.0
  0
LINE
  5
279
330
1F
100
AcDbEntity
  8
1
  6
Continuous
 62
     7
370
     9
100
AcDbLine
 10
363.4358762177329
 20
-328.8945053676666
 30
0.0
 11
363.7692095510667
 21
-328.5611720343331
 31
0.0
  0
LINE
  5
27A
330
1F
100
AcDbEntity
  8
1
  6
Continuous
 62
     7
370
     9
100
AcDbLine
 10
415.1025428844
 20
-278.6420522633666
 30
0.0
 11
415.4358762177337
 21
-278.3087189300331
 31
0.0
  0
LINE
  5
27B
330
1F
100
AcDbEntity
  8
1
  6
Continuous
 62
     7
370
     9
100
AcDbLine
 10
363.4358762177329
 20
-330.3087189300333
 30
0.0
 11
363.7692095510667
 21
-329.9753855966999
 31
0.0
  0
LINE
  5
27C
330
1F
100
AcDbEntity
  8
1
  6
Continuous
 62
     7
370
     9
100
AcDbLine
 10
415.1025428844
 20
-280.0562658257331
 30
0.0
 11
415.4358762177337
 21
-279.7229324923999
 31
0.0
  0
LINE
  5
27D
330
1F
100
AcDbEntity
  8
1
  6
Continuous
 62
     7
370
     9
100
AcDbLine
 10
363.4358762177329
 20
-331.7229324923998
 30
0.0
 11
363.7692095510667
 21
-331.3895991590667
 31
0.0
  0
LINE
  5
27E
330
1F
100
AcDbEntity
  8
1
  6
Continuous
 62
     7
370
     9
100
AcDbLine
 10
415.1025428844
 20
-281.4704793880998
 30
0.0
 11
415.4358762177337
 21
-281.1371460547663
 31
0.0
  0
LINE
  5
27F
330
1F
100
AcDbEntity
  8
1
  6
Continuous
 62
     7
370
     9
100
AcDbLine
 10
363.4358762177329
 20
-333.1371460547666
 30
0.0
 11
363.7692095510667
 21
-332.8038127214331
 31
0.0
  0
LINE
  5
280
330
1F
100
AcDbEntity
  8
1
  6
Continuous
 62
     7
370
     9
100
AcDbLine
 10
415.1025428844
 20
-282.8846929504666
 30
0.0
 11
415.4358762177337
 21
-282.5513596171332
 31
0.0
  0
LINE
  5
281
330
1F
100
AcDbEntity
  8
1
  6
Continuous
 62
     7
370
     9
100
AcDbLine
 10
363.4358762177329
 20
-334.5513596171331
 30
0.0
 11
363.7692095510667
 21
-334.2180262837999
 31
0.0
  0
LINE
  5
282
330
1F
100
AcDbEntity
  8
1
  6
Continuous
 62
     7
370
     9
100
AcDbLine
 10
415.1025428844
 20
-284.2989065128331
 30
0.0
 11
415.4358762177337
 21
-283.9655731795
 31
0.0
  0
LINE
  5
283
330
1F
100
AcDbEntity
  8
1
  6
Continuous
 62
     7
370
     9
100
AcDbLine
 10
363.4358762177329
 20
-335.9655731794999
 30
0.0
 11
363.7692095510667
 21
-335.6322398461664
 31
0.0
  0
LINE
  5
284
330
1F
100
AcDbEntity
  8
1
  6
Continuous
 62
     7
370
     9
100
AcDbLine
 10
415.1025428844
 20
-285.7131200752333
 30
0.0
 11
415.4358762177337
 21
-285.3797867418999
 31
0.0
  0
LINE
  5
285
330
1F
100
AcDbEntity
  8
1
  6
Continuous
 62
     7
370
     9
100
AcDbLine
 10
363.4358762177329
 20
-337.3797867418997
 30
0.0
 11
363.7692095510667
 21
-337.0464534085667
 31
0.0
  0
LINE
  5
286
330
1F
100
AcDbEntity
  8
1
  6
Continuous
 62
     7
370
     9
100
AcDbLine
 10
415.1025428844
 20
-287.1273336375999
 30
0.0
 11
415.4358762177337
 21
-286.7940003042667
 31
0.0
  0
LINE
  5
287
330
1F
100
AcDbEntity
  8
1
  6
Continuous
 62
     7
370
     9
100
AcDbLine
 10
415.1025428844
 20
-288.5415471999666
 30
0.0
 11
415.4358762177337
 21
-288.2082138666331
 31
0.0
  0
LINE
  5
288
330
1F
100
AcDbEntity
  8
1
  6
Continuous
 62
     7
370
     9
100
AcDbLine
 10
415.1025428844
 20
-289.9557607623331
 30
0.0
 11
415.4358762177337
 21
-289.622427429
 31
0.0
  0
LINE
  5
289
330
1F
100
AcDbEntity
  8
1
  6
Continuous
 62
     7
370
     9
100
AcDbLine
 10
415.1025428844
 20
-291.3699743246999
 30
0.0
 11
415.4358762177337
 21
-291.0366409913664
 31
0.0
  0
LINE
  5
28A
330
1F
100
AcDbEntity
  8
1
  6
Continuous
 62
     7
370
     9
100
AcDbLine
 10
415.1025428844
 20
-292.7841878870998
 30
0.0
 11
415.4358762177337
 21
-292.4508545537667
 31
0.0
  0
LINE
  5
28B
330
1F
100
AcDbEntity
  8
1
  6
Continuous
 62
     7
370
     9
100
AcDbLine
 10
415.1025428844
 20
-294.1984014494666
 30
0.0
 11
415.4358762177337
 21
-293.8650681161331
 31
0.0
  0
LINE
  5
28C
330
1F
100
AcDbEntity
  8
1
  6
Continuous
 62
     7
370
     9
100
AcDbLine
 10
415.1025428844
 20
-295.612615011833
 30
0.0
 11
415.4358762177337
 21
-295.2792816784999
 31
0.0
  0
LINE
  5
28D
330
1F
100
AcDbEntity
  8
1
  6
Continuous
 62
     7
370
     9
100
AcDbLine
 10
415.1025428844
 20
-297.0268285741999
 30
0.0
 11
415.4358762177337
 21
-296.6934952408664
 31
0.0
  0
LINE
  5
28E
330
1F
100
AcDbEntity
  8
1
  6
Continuous
 62
     7
370
     9
100
AcDbLine
 10
415.1025428844
 20
-298.4410421365666
 30
0.0
 11
415.4358762177337
 21
-298.1077088032332
 31
0.0
  0
LINE
  5
28F
330
1F
100
AcDbEntity
  8
1
  6
Continuous
 62
     7
370
     9
100
AcDbLine
 10
415.1025428844
 20
-299.8552556989666
 30
0.0
 11
415.4358762177337
 21
-299.5219223656331
 31
0.0
  0
LINE
  5
290
330
1F
100
AcDbEntity
  8
1
  6
Continuous
 62
     7
370
     9
100
AcDbLine
 10
415.1025428844
 20
-301.2694692613331
 30
0.0
 11
415.4358762177337
 21
-300.9361359279999
 31
0.0
  0
LINE
  5
291
330
1F
100
AcDbEntity
  8
1
  6
Continuous
 62
     7
370
     9
100
AcDbLine
 10
415.1025428844
 20
-302.6836828236998
 30
0.0
 11
415.4358762177337
 21
-302.3503494903664
 31
0.0
  0
LINE
  5
292
330
1F
100
AcDbEntity
  8
1
  6
Continuous
 62
     7
370
     9
100
AcDbLine
 10
415.1025428844
 20
-304.0978963860666
 30
0.0
 11
415.4358762177337
 21
-303.7645630527331
 31
0.0
  0
LINE
  5
293
330
1F
100
AcDbEntity
  8
1
  6
Continuous
 62
     7
370
     9
100
AcDbLine
 10
415.1025428844
 20
-305.5121099484331
 30
0.0
 11
415.4358762177337
 21
-305.1787766150999
 31
0.0
  0
LINE
  5
294
330
1F
100
AcDbEntity
  8
1
  6
Continuous
 62
     7
370
     9
100
AcDbLine
 10
415.1025428844
 20
-306.9263235108333
 30
0.0
 11
415.4358762177337
 21
-306.5929901774999
 31
0.0
  0
LINE
  5
295
330
1F
100
AcDbEntity
  8
1
  6
Continuous
 62
     7
370
     9
100
AcDbLine
 10
415.1025428844
 20
-308.3405370731998
 30
0.0
 11
415.4358762177337
 21
-308.0072037398667
 31
0.0
  0
LINE
  5
296
330
1F
100
AcDbEntity
  8
1
  6
Continuous
 62
     7
370
     9
100
AcDbLine
 10
415.1025428844
 20
-309.7547506355666
 30
0.0
 11
415.4358762177337
 21
-309.4214173022332
 31
0.0
  0
LINE
  5
297
330
1F
100
AcDbEntity
  8
1
  6
Continuous
 62
     7
370
     9
100
AcDbLine
 10
415.1025428844
 20
-311.1689641979331
 30
0.0
 11
415.4358762177337
 21
-310.8356308646
 31
0.0
  0
LINE
  5
298
330
1F
100
AcDbEntity
  8
1
  6
Continuous
 62
     7
370
     9
100
AcDbLine
 10
415.1025428844
 20
-312.5831777602999
 30
0.0
 11
415.4358762177337
 21
-312.2498444269664
 31
0.0
  0
LINE
  5
299
330
1F
100
AcDbEntity
  8
1
  6
Continuous
 62
     7
370
     9
100
AcDbLine
 10
415.1025428844
 20
-313.9973913226998
 30
0.0
 11
415.4358762177337
 21
-313.6640579893667
 31
0.0
  0
LINE
  5
29A
330
1F
100
AcDbEntity
  8
1
  6
Continuous
 62
     7
370
     9
100
AcDbLine
 10
415.1025428844
 20
-315.4116048850666
 30
0.0
 11
415.4358762177337
 21
-315.0782715517331
 31
0.0
  0
LINE
  5
29B
330
1F
100
AcDbEntity
  8
1
  6
Continuous
 62
     7
370
     9
100
AcDbLine
 10
415.1025428844
 20
-316.8258184474331
 30
0.0
 11
415.4358762177337
 21
-316.4924851141
 31
0.0
  0
LINE
  5
29C
330
1F
100
AcDbEntity
  8
1
  6
Continuous
 62
     7
370
     9
100
AcDbLine
 10
415.1025428844
 20
-318.2400320097998
 30
0.0
 11
415.4358762177337
 21
-317.9066986764664
 31
0.0
  0
LINE
  5
29D
330
1F
100
AcDbEntity
  8
1
  6
Continuous
 62
     7
370
     9
100
AcDbLine
 10
415.1025428844
 20
-319.6542455721666
 30
0.0
 11
415.4358762177337
 21
-319.3209122388332
 31
0.0
  0
LINE
  5
29E
330
1F
100
AcDbEntity
  8
1
  6
Continuous
 62
     7
370
     9
100
AcDbLine
 10
415.1025428844
 20
-321.0684591345331
 30
0.0
 11
415.4358762177337
 21
-320.7351258012
 31
0.0
  0
LINE
  5
29F
330
1F
100
AcDbEntity
  8
1
  6
Continuous
 62
     7
370
     9
100
AcDbLine
 10
415.1025428844
 20
-322.4826726969334
 30
0.0
 11
415.4358762177337
 21
-322.1493393635999
 31
0.0
  0
LINE
  5
2A0
330
1F
100
AcDbEntity
  8
1
  6
Continuous
 62
     7
370
     9
100
AcDbLine
 10
415.1025428844
 20
-323.8968862592998
 30
0.0
 11
415.4358762177337
 21
-323.5635529259667
 31
0.0
  0
LINE
  5
2A1
330
1F
100
AcDbEntity
  8
1
  6
Continuous
 62
     7
370
     9
100
AcDbLine
 10
415.1025428844
 20
-325.3110998216666
 30
0.0
 11
415.4358762177337
 21
-324.9777664883331
 31
0.0
  0
LINE
  5
2A2
330
1F
100
AcDbEntity
  8
1
  6
Continuous
 62
     7
370
     9
100
AcDbLine
 10
415.1025428844
 20
-326.7253133840331
 30
0.0
 11
415.4358762177337
 21
-326.3919800506999
 31
0.0
  0
LINE
  5
2A3
330
1F
100
AcDbEntity
  8
1
  6
Continuous
 62
     7
370
     9
100
AcDbLine
 10
415.1025428844
 20
-328.1395269463999
 30
0.0
 11
415.4358762177337
 21
-327.8061936130664
 31
0.0
  0
LINE
  5
2A4
330
1F
100
AcDbEntity
  8
1
  6
Continuous
 62
     7
370
     9
100
AcDbLine
 10
415.1025428844
 20
-329.5537405087998
 30
0.0
 11
415.4358762177337
 21
-329.2204071754667
 31
0.0
  0
LINE
  5
2A5
330
1F
100
AcDbEntity
  8
1
  6
Continuous
 62
     7
370
     9
100
AcDbLine
 10
415.1025428844
 20
-330.9679540711666
 30
0.0
 11
415.4358762177337
 21
-330.6346207378331
 31
0.0
  0
LINE
  5
2A6
330
1F
100
AcDbEntity
  8
1
  6
Continuous
 62
     7
370
     9
100
AcDbLine
 10
415.1025428844
 20
-332.3821676335331
 30
0.0
 11
415.4358762177337
 21
-332.0488343001999
 31
0.0
  0
LINE
  5
2A7
330
1F
100
AcDbEntity
  8
1
  6
Continuous
 62
     7
370
     9
100
AcDbLine
 10
415.1025428844
 20
-333.7963811958999
 30
0.0
 11
415.4358762177337
 21
-333.4630478625664
 31
0.0
  0
LINE
  5
2A8
330
1F
100
AcDbEntity
  8
1
  6
Continuous
 62
     7
370
     9
100
AcDbLine
 10
415.1025428844
 20
-335.2105947582667
 30
0.0
 11
415.4358762177337
 21
-334.8772614249332
 31
0.0
  0
LINE
  5
2A9
330
1F
100
AcDbEntity
  8
1
  6
Continuous
 62
     7
370
     9
100
AcDbLine
 10
415.1025428844
 20
-336.6248083206666
 30
0.0
 11
415.4358762177337
 21
-336.2914749873331
 31
0.0
  0
LINE
  5
2AA
330
1F
100
AcDbEntity
  8
1
  6
Continuous
 62
     7
370
     9
100
AcDbLine
 10
415.2425137561665
 20
-337.8990510112665
 30
0.0
 11
415.4358762177337
 21
-337.7056885496999
 31
0.0
  0
LINE
  5
2AB
330
1F
100
AcDbEntity
  8
1
  6
Continuous
 62
     7
370
     9
100
AcDbLine
 10
418.024651345066
 20
-407.5266845230333
 30
0.0
 11
418.8031685577996
 21
-407.5266845230333
 31
0.0
  0
LINE
  5
2AC
330
1F
100
AcDbEntity
  8
1
  6
Continuous
 62
     7
370
     9
100
AcDbLine
 10
417.972065000467
 20
-407.8600178563665
 30
0.0
 11
418.855754902433
 21
-407.8600178563665
 31
0.0
  0
LINE
  5
2AD
330
1F
100
AcDbEntity
  8
1
  6
Continuous
 62
     7
370
     9
100
AcDbLine
 10
416.1995273191338
 20
-408.1933511897
 30
0.0
 11
420.6282925837342
 21
-408.1933511897
 31
0.0
  0
LINE
  5
2AE
330
1F
100
AcDbEntity
  8
1
  6
Continuous
 62
     7
370
     9
100
AcDbLine
 10
417.8858238680994
 20
-408.5266845230333
 30
0.0
 11
418.9419960347994
 21
-408.5266845230333
 31
0.0
  0
LINE
  5
2AF
330
1F
100
AcDbEntity
  8
1
  6
Continuous
 62
     7
370
     9
100
AcDbLine
 10
417.9846513450664
 20
-408.8600178563665
 30
0.0
 11
418.8431685578004
 21
-408.8600178563665
 31
0.0
  0
LINE
  5
2B0
330
1F
100
AcDbEntity
  8
1
  6
Continuous
 62
     7
370
     9
100
AcDbLine
 10
417.9746513450668
 20
-409.1933511897
 30
0.0
 11
418.8531685578
 21
-409.1933511897
 31
0.0
  0
LINE
  5
2B1
330
1F
100
AcDbEntity
  8
1
  6
Continuous
 62
     7
370
     9
100
AcDbLine
 10
415.7721189066671
 20
-409.5266845230331
 30
0.0
 11
421.0557009962328
 21
-409.5266845230331
 31
0.0
  0
LINE
  5
2B2
330
1F
100
AcDbEntity
  8
1
  6
Continuous
 62
     7
370
     9
100
AcDbLine
 10
415.7721189066671
 20
-409.8600178563665
 30
0.0
 11
421.0557009962328
 21
-409.8600178563665
 31
0.0
  0
LINE
  5
2B3
330
1F
100
AcDbEntity
  8
1
  6
Continuous
 62
     7
370
     9
100
AcDbLine
 10
417.5495914943671
 20
-410.1933511897
 30
0.0
 11
419.2782284084997
 21
-410.1933511897
 31
0.0
  0
LINE
  5
2B4
330
1F
100
AcDbEntity
  8
1
  6
Continuous
 62
     7
370
     9
100
AcDbLine
 10
417.4922551620332
 20
-410.5266845230331
 30
0.0
 11
419.3355647408335
 21
-410.5266845230331
 31
0.0
  0
LINE
  5
2B5
330
1F
100
AcDbEntity
  8
1
  6
Continuous
 62
     7
370
     9
100
AcDbLine
 10
417.2710816431335
 20
-410.8600178563666
 30
0.0
 11
419.5567382597333
 21
-410.8600178563666
 31
0.0
  0
LINE
  5
2B6
330
1F
100
AcDbEntity
  8
1
  6
Continuous
 62
     7
370
     9
100
AcDbLine
 10
417.0222920175001
 20
-411.1933511897001
 30
0.0
 11
419.8055278853666
 21
-411.1933511897001
 31
0.0
  0
LINE
  5
2B7
330
1F
100
AcDbEntity
  8
1
  6
Continuous
 62
     7
370
     9
100
AcDbLine
 10
416.7421405084666
 20
-411.5266845230332
 30
0.0
 11
420.0856793944333
 21
-411.5266845230332
 31
0.0
  0
LINE
  5
2B8
330
1F
100
AcDbEntity
  8
1
  6
Continuous
 62
     7
370
     9
100
AcDbLine
 10
419.3760804915666
 20
-411.8600178563667
 30
0.0
 11
420.4022746268671
 21
-411.8600178563667
 31
0.0
  0
LINE
  5
2B9
330
1F
100
AcDbEntity
  8
1
  6
Continuous
 62
     7
370
     9
100
AcDbLine
 10
417.8945597781676
 20
-411.8600178563667
 30
0.0
 11
418.9332601247323
 21
-411.8600178563667
 31
0.0
  0
LINE
  5
2BA
330
1F
100
AcDbEntity
  8
1
  6
Continuous
 62
     7
370
     9
100
AcDbLine
 10
416.4255452760328
 20
-411.8600178563667
 30
0.0
 11
417.4517394113002
 21
-411.8600178563667
 31
0.0
  0
LINE
  5
2BB
330
1F
100
AcDbEntity
  8
1
  6
Continuous
 62
     7
370
     9
100
AcDbLine
 10
419.5992232055335
 20
-412.1933511896998
 30
0.0
 11
420.762483569633
 21
-412.1933511896998
 31
0.0
  0
LINE
  5
2BC
330
1F
100
AcDbEntity
  8
1
  6
Continuous
 62
     7
370
     9
100
AcDbLine
 10
417.8846513450666
 20
-412.1933511896998
 30
0.0
 11
418.9431685578002
 21
-412.1933511896998
 31
0.0
  0
LINE
  5
2BD
330
1F
100
AcDbEntity
  8
1
  6
Continuous
 62
     7
370
     9
100
AcDbLine
 10
416.0653363332669
 20
-412.1933511896998
 30
0.0
 11
417.2285966973333
 21
-412.1933511896998
 31
0.0
  0
LINE
  5
2BE
330
1F
100
AcDbEntity
  8
1
  6
Continuous
 62
     7
370
     9
100
AcDbLine
 10
419.8505930155992
 20
-412.5266845230332
 30
0.0
 11
421.1769816130663
 21
-412.5266845230332
 31
0.0
  0
LINE
  5
2BF
330
1F
100
AcDbEntity
  8
1
  6
Continuous
 62
     7
370
     9
100
AcDbLine
 10
417.8746513450658
 20
-412.5266845230332
 30
0.0
 11
418.9531685577998
 21
-412.5266845230332
 31
0.0
  0
LINE
  5
2C0
330
1F
100
AcDbEntity
  8
1
  6
Continuous
 62
     7
370
     9
100
AcDbLine
 10
415.6508382898336
 20
-412.5266845230332
 30
0.0
 11
416.9772268872664
 21
-412.5266845230332
 31
0.0
  0
LINE
  5
2C1
330
1F
100
AcDbEntity
  8
1
  6
Continuous
 62
     7
370
     9
100
AcDbLine
 10
420.1341284405665
 20
-412.8600178563667
 30
0.0
 11
421.0915476022328
 21
-412.8600178563667
 31
0.0
  0
LINE
  5
2C2
330
1F
100
AcDbEntity
  8
1
  6
Continuous
 62
     7
370
     9
100
AcDbLine
 10
417.8646513450662
 20
-412.8600178563667
 30
0.0
 11
418.9631685577994
 21
-412.8600178563667
 31
0.0
  0
LINE
  5
2C3
330
1F
100
AcDbEntity
  8
1
  6
Continuous
 62
     7
370
     9
100
AcDbLine
 10
416.0571437756325
 20
-412.8600178563667
 30
0.0
 11
416.6936914623334
 21
-412.8600178563667
 31
0.0
  0
LINE
  5
2C4
330
1F
100
AcDbEntity
  8
1
  6
Continuous
 62
     7
370
     9
100
AcDbLine
 10
420.4552108165992
 20
-413.1933511896999
 30
0.0
 11
420.5582142688995
 21
-413.1933511896999
 31
0.0
  0
LINE
  5
2C5
330
1F
100
AcDbEntity
  8
1
  6
Continuous
 62
     7
370
     9
100
AcDbLine
 10
417.8546513450666
 20
-413.1933511896999
 30
0.0
 11
418.9731685578002
 21
-413.1933511896999
 31
0.0
  0
CIRCLE
  5
2C6
330
1F
100
AcDbEntity
  8
1
  6
Continuous
 62
     7
370
     9
100
AcDbCircle
 10
378.3341487079659
 20
-303.0369676232334
 30
0.0
 40
0.500000000000056
  0
MTEXT
  5
2C7
330
1F
100
AcDbEntity
  8
1
 62
     7
100
AcDbMText
 10
341.0584935825489
 20
-292.5838689679753
 30
0.0
 40
3.5
 41
0.0
 46
0.0
 71
     1
 72
     1
  1
{\fＭＳ ゴシック;\W0.85652;配管等}
 73
     1
 44
1.0
  0
LINE
  5
2C8
330
1F
100
AcDbEntity
  8
1
  6
Continuous
 62
     7
370
     9
100
AcDbLine
 10
378.3341487079659
 20
-303.0369676232334
 30
0.0
 11
350.8668194151332
 21
-296.8929597551
 31
0.0
  0
LINE
  5
2C9
330
1F
100
AcDbEntity
  8
1
  6
Continuous
 62
     7
370
     9
100
AcDbLine
 10
350.8668194151332
 20
-296.8929597551
 30
0.0
 11
340.8540967688328
 21
-296.8929597551
 31
0.0
  0
CIRCLE
  5
2CA
330
1F
100
AcDbEntity
  8
1
  6
Continuous
 62
     7
370
     9
100
AcDbCircle
 10
391.9526543646331
 20
-197.7337395985999
 30
0.0
 40
0.3333333333337407
  0
MTEXT
  5
2CB
330
1F
100
AcDbEntity
  8
1
 62
     7
100
AcDbMText
 10
408.5339183780029
 20
-180.4358028164605
 30
0.0
 40
3.5
 41
0.0
 46
0.0
 71
     1
 72
     1
  1
{\fＭＳ ゴシック;\W0.845758;ケーブル}
 73
     1
 44
1.0
  0
LINE
  5
2CC
330
1F
100
AcDbEntity
  8
1
  6
Continuous
 62
     7
370
     9
100
AcDbLine
 10
391.9526543646331
 20
-197.7337395985999
 30
0.0
 11
408.3320898215001
 21
-184.8880755570331
 31
0.0
  0
LINE
  5
2CD
330
1F
100
AcDbEntity
  8
1
  6
Continuous
 62
     7
370
     9
100
AcDbLine
 10
408.3320898215001
 20
-184.8880755570332
 30
0.0
 11
425.468777133133
 21
-184.8880755570332
 31
0.0
  0
CIRCLE
  5
2CE
330
1F
100
AcDbEntity
  8
1
  6
Continuous
 62
     7
370
     9
100
AcDbCircle
 10
351.8942491624661
 20
-326.1039900324001
 30
0.0
 40
0.5000000000000004
  0
MTEXT
  5
2CF
330
1F
100
AcDbEntity
  8
1
 62
     7
100
AcDbMText
 10
306.516269396942
 20
-326.8947609679758
 30
0.0
 40
3.5
 41
0.0
 46
0.0
 71
     1
 72
     1
  1
{\fＭＳ ゴシック;\W0.953593;床}
 73
     1
 44
1.0
  0
MTEXT
  5
2D0
330
1F
100
AcDbEntity
  8
1
 62
     7
100
AcDbMText
 10
306.4820809196692
 20
-331.2356700588847
 30
0.0
 40
3.5
 41
0.0
 46
0.0
 71
     1
 72
     1
  1
{\fＭＳ ゴシック;\W0.810327;ALCパネル又はコンクリート}
 73
     1
 44
1.0
  0
LINE
  5
2D1
330
1F
100
AcDbEntity
  8
1
  6
Continuous
 62
     7
370
     9
100
AcDbLine
 10
306.2887075615998
 20
-335.5288517429334
 30
0.0
 11
348.008385254567
 21
-335.5288517429334
 31
0.0
  0
LINE
  5
2D2
330
1F
100
AcDbEntity
  8
1
  6
Continuous
 62
     7
370
     9
100
AcDbLine
 10
351.8942491624661
 20
-326.1039900324001
 30
0.0
 11
348.008385254567
 21
-331.0288517429332
 31
0.0
  0
LINE
  5
2D3
330
1F
100
AcDbEntity
  8
1
  6
Continuous
 62
     7
370
     9
100
AcDbLine
 10
348.008385254567
 20
-331.0288517429332
 30
0.0
 11
306.2887075615998
 21
-331.0288517429332
 31
0.0
  0
LINE
  5
2D4
330
1F
100
AcDbEntity
  8
1
  6
Continuous
 62
     7
370
     9
100
AcDbLine
 10
392.8124481579671
 20
-196.0740046352332
 30
0.0
 11
389.7990855448663
 21
-201.2933017826998
 31
0.0
  0
LINE
  5
2D5
330
1F
100
AcDbEntity
  8
1
  6
Continuous
 62
     7
370
     9
100
AcDbLine
 10
391.382049377167
 20
-194.5515279986332
 30
0.0
 11
387.7653827105331
 21
-200.8157784192666
 31
0.0
  0
LINE
  5
2D6
330
1F
100
AcDbEntity
  8
1
  6
Continuous
 62
     7
370
     9
100
AcDbLine
 10
389.3483338558659
 20
-194.0740266096667
 30
0.0
 11
386.3349966166996
 21
-199.2932798082335
 31
0.0
  0
LINE
  5
2D7
330
1F
100
AcDbEntity
  8
1
  6
Continuous
 62
     7
370
     9
100
AcDbLine
 10
360.2917356915004
 20
-200.1757886424666
 30
0.0
 11
360.3153059175333
 21
-200.1522184164332
 31
0.0
  0
LINE
  5
2D8
330
1F
100
AcDbEntity
  8
1
  6
Continuous
 62
     7
370
     9
100
AcDbLine
 10
365.9212266975335
 20
-194.5462976364333
 30
0.0
 11
365.9447969235663
 21
-194.5227274104002
 31
0.0
  0
LINE
  5
2D9
330
1F
100
AcDbEntity
  8
1
  6
Continuous
 62
     7
370
     9
100
AcDbLine
 10
371.8603668995005
 20
-188.6071574344665
 30
0.0
 11
371.8839371255322
 21
-188.5835872084334
 31
0.0
  0
LINE
  5
2DA
330
1F
100
AcDbEntity
  8
1
  6
Continuous
 62
     7
370
     9
100
AcDbLine
 10
374.9702538956336
 20
-188.3929835197667
 30
0.0
 11
374.9938241216996
 21
-188.3694132937335
 31
0.0
  0
LINE
  5
2DB
330
1F
100
AcDbEntity
  8
1
  6
Continuous
 62
     7
370
     9
100
AcDbLine
 10
380.8142917206997
 20
-182.5489456947335
 30
0.0
 11
380.8378619467338
 21
-182.5253754687
 31
0.0
  0
LINE
  5
2DC
330
1F
100
AcDbEntity
  8
1
  6
Continuous
 62
     7
370
     9
100
AcDbLine
 10
358.594261094501
 20
-204.7689763209333
 30
0.0
 11
358.6178313205327
 21
-204.7454060949001
 31
0.0
  0
LINE
  5
2DD
330
1F
100
AcDbEntity
  8
1
  6
Continuous
 62
     7
370
     9
100
AcDbLine
 10
363.7453916763672
 20
-199.6178457390669
 30
0.0
 11
363.7689619024001
 21
-199.5942755130334
 31
0.0
  0
LINE
  5
2DE
330
1F
100
AcDbEntity
  8
1
  6
Continuous
 62
     7
370
     9
100
AcDbLine
 10
381.7846646056996
 20
-184.7688076157666
 30
0.0
 11
381.8082348317668
 21
-184.7452373897334
 31
0.0
  0
LINE
  5
2DF
330
1F
100
AcDbEntity
  8
1
  6
Continuous
 62
     7
370
     9
100
AcDbLine
 10
358.5690096706999
 20
-207.9844625507669
 30
0.0
 11
358.5925798967659
 21
-207.9608923247334
 31
0.0
  0
LINE
  5
2E0
330
1F
100
AcDbEntity
  8
1
  6
Continuous
 62
     7
370
     9
100
AcDbLine
 10
384.9240598567999
 20
-184.9491694004334
 30
0.0
 11
384.9476300828339
 21
-184.9255991744
 31
0.0
  0
LINE
  5
2E1
330
1F
100
AcDbEntity
  8
1
  6
Continuous
 62
     7
370
     9
100
AcDbLine
 10
357.718361788567
 20
-212.1548674686669
 30
0.0
 11
357.7419320145999
 21
-212.1312972426334
 31
0.0
  0
LINE
  5
2E2
330
1F
100
AcDbEntity
  8
1
  6
Continuous
 62
     7
370
     9
100
AcDbLine
 10
390.0371455302655
 20
-183.7977979918334
 30
0.0
 11
390.0607157563339
 21
-183.7742277658
 31
0.0
  0
LINE
  5
2E3
330
1F
100
AcDbEntity
  8
1
  6
Continuous
 62
     7
370
     9
100
AcDbLine
 10
359.0355786900329
 20
-214.7993648320667
 30
0.0
 11
359.0591489160669
 21
-214.7757946060332
 31
0.0
  0
LINE
  5
2E4
330
1F
100
AcDbEntity
  8
1
  6
Continuous
 62
     7
370
     9
100
AcDbLine
 10
392.9793546483333
 20
-184.5727171754001
 30
0.0
 11
393.0029248743662
 21
-184.5491469493667
 31
0.0
  0
LINE
  5
2E5
330
1F
100
AcDbEntity
  8
1
  6
Continuous
 62
     7
370
     9
100
AcDbLine
 10
358.8722478385
 20
-218.6798239852334
 30
0.0
 11
358.8958180645672
 21
-218.6562537591999
 31
0.0
  0
LINE
  5
2E6
330
1F
100
AcDbEntity
  8
1
  6
Continuous
 62
     7
370
     9
100
AcDbLine
 10
396.9135750647661
 20
-183.9683531622001
 30
0.0
 11
396.9371452908001
 21
-183.9447829361666
 31
0.0
  0
LINE
  5
2E7
330
1F
100
AcDbEntity
  8
1
  6
Continuous
 62
     7
370
     9
100
AcDbLine
 10
359.4284539186327
 20
-221.4534743083331
 30
0.0
 11
359.4520241446668
 21
-221.4299040822999
 31
0.0
  0
LINE
  5
2E8
330
1F
100
AcDbEntity
  8
1
  6
Continuous
 62
     7
370
     9
100
AcDbLine
 10
398.4978370593994
 20
-185.6546461567001
 30
0.0
 11
398.5214072854334
 21
-185.6310759306667
 31
0.0
  0
LINE
  5
2E9
330
1F
100
AcDbEntity
  8
1
  6
Continuous
 62
     7
370
     9
100
AcDbLine
 10
360.8775784278994
 20
-223.2749047881999
 30
0.0
 11
360.9011486539334
 21
-223.2513345621667
 31
0.0
  0
LINE
  5
2EA
330
1F
100
AcDbEntity
  8
1
  6
Continuous
 62
     7
370
     9
100
AcDbLine
 10
401.7604133213336
 20
-186.2006967392
 30
0.0
 11
401.7839835473665
 21
-186.1771265131669
 31
0.0
  0
LINE
  5
2EB
330
1F
100
AcDbEntity
  8
1
  6
Continuous
 62
     7
370
     9
100
AcDbLine
 10
360.5625766924669
 20
-227.3985333680999
 30
0.0
 11
360.5861469184998
 21
-227.3749631420667
 31
0.0
  0
LINE
  5
2EC
330
1F
100
AcDbEntity
  8
1
  6
Continuous
 62
     7
370
     9
100
AcDbLine
 10
404.2449562546339
 20
-187.8687633796667
 30
0.0
 11
404.2685264806656
 21
-187.8451931536335
 31
0.0
  0
LINE
  5
2ED
330
1F
100
AcDbEntity
  8
1
  6
Continuous
 62
     7
370
     9
100
AcDbLine
 10
362.5773878091675
 20
-229.5363318251666
 30
0.0
 11
362.6009580351991
 21
-229.5127615991334
 31
0.0
  0
LINE
  5
2EE
330
1F
100
AcDbEntity
  8
1
  6
Continuous
 62
     7
370
     9
100
AcDbLine
 10
406.5054793831324
 20
-189.5677533718668
 30
0.0
 11
406.5290496091664
 21
-189.5441831458333
 31
0.0
  0
LINE
  5
2EF
330
1F
100
AcDbEntity
  8
1
  6
Continuous
 62
     7
370
     9
100
AcDbLine
 10
365.1048634375001
 20
-230.9683693175
 30
0.0
 11
365.1284336635329
 21
-230.9447990914665
 31
0.0
  0
LINE
  5
2F0
330
1F
100
AcDbEntity
  8
1
  6
Continuous
 62
     7
370
     9
100
AcDbLine
 10
408.6950417069674
 20
-190.5726555037
 30
0.0
 11
408.7186119329991
 21
-190.5490852776665
 31
0.0
  0
LINE
  5
2F1
330
1F
100
AcDbEntity
  8
1
  6
Continuous
 62
     7
370
     9
100
AcDbLine
 10
365.7083504227663
 20
-233.5593467879331
 30
0.0
 11
365.7319206488003
 21
-233.5357765618668
 31
0.0
  0
LINE
  5
2F2
330
1F
100
AcDbEntity
  8
1
  6
Continuous
 62
     7
370
     9
100
AcDbLine
 10
410.1887267513998
 20
-192.7421923081001
 30
0.0
 11
410.2122969774339
 21
-192.7186220820666
 31
0.0
  0
LINE
  5
2F3
330
1F
100
AcDbEntity
  8
1
  6
Continuous
 62
     7
370
     9
100
AcDbLine
 10
368.0947613502671
 20
-234.8361577092334
 30
0.0
 11
368.1183315763
 21
-234.8125874832
 31
0.0
  0
LINE
  5
2F4
330
1F
100
AcDbEntity
  8
1
  6
Continuous
 62
     7
370
     9
100
AcDbLine
 10
413.6437075808337
 20
-193.1094767851332
 30
0.0
 11
413.6672778068665
 21
-193.0859065591
 31
0.0
  0
LINE
  5
2F5
330
1F
100
AcDbEntity
  8
1
  6
Continuous
 62
     7
370
     9
100
AcDbLine
 10
368.3970399502666
 20
-238.3561444157
 30
0.0
 11
368.4206101762995
 21
-238.3325741896668
 31
0.0
  0
LINE
  5
2F6
330
1F
100
AcDbEntity
  8
1
  6
Continuous
 62
     7
370
     9
100
AcDbLine
 10
414.4220815414998
 20
-196.4730087950999
 30
0.0
 11
414.4456517675338
 21
-196.4494385690667
 31
0.0
  0
LINE
  5
2F7
330
1F
100
AcDbEntity
  8
1
  6
Continuous
 62
     7
370
     9
100
AcDbLine
 10
371.5918090681329
 20
-239.3032812684999
 30
0.0
 11
371.6153792941669
 21
-239.2797110424333
 31
0.0
  0
LINE
  5
2F8
330
1F
100
AcDbEntity
  8
1
  6
Continuous
 62
     7
370
     9
100
AcDbLine
 10
415.2400842044672
 20
-199.4568137455666
 30
0.0
 11
415.2636544304988
 21
-199.4332435195334
 31
0.0
  0
LINE
  5
2F9
330
1F
100
AcDbEntity
  8
1
  6
Continuous
 62
     7
370
     9
100
AcDbLine
 10
373.6486020107993
 20
-241.0482959392333
 30
0.0
 11
373.6721722368334
 21
-241.0247257131666
 31
0.0
  0
LINE
  5
2FA
330
1F
100
AcDbEntity
  8
1
  6
Continuous
 62
     7
370
     9
100
AcDbLine
 10
417.2390484274339
 20
-200.7198157334334
 30
0.0
 11
417.2626186534656
 21
-200.6962455073999
 31
0.0
  0
LINE
  5
2FB
330
1F
100
AcDbEntity
  8
1
  6
Continuous
 62
     7
370
     9
100
AcDbLine
 10
376.0976488329671
 20
-241.8612153279002
 30
0.0
 11
376.121219059
 21
-241.8376451018667
 31
0.0
  0
LINE
  5
2FC
330
1F
100
AcDbEntity
  8
1
  6
Continuous
 62
     7
370
     9
100
AcDbLine
 10
417.886496021567
 20
-202.9959623804999
 30
0.0
 11
417.9100662476
 21
-202.9723921544668
 31
0.0
  0
LINE
  5
2FD
330
1F
100
AcDbEntity
  8
1
  6
Continuous
 62
     7
370
     9
100
AcDbLine
 10
377.7444690206334
 20
-243.1379893814336
 30
0.0
 11
377.7680392467006
 21
-243.1144191554001
 31
0.0
  0
LINE
  5
2FE
330
1F
100
AcDbEntity
  8
1
  6
Continuous
 62
     7
370
     9
100
AcDbLine
 10
418.0624319597999
 20
-206.4735373608333
 30
0.0
 11
418.086002185834
 21
-206.4499671348002
 31
0.0
  0
LINE
  5
2FF
330
1F
100
AcDbEntity
  8
1
  6
Continuous
 62
     7
370
     9
100
AcDbLine
 10
379.8939265605338
 20
-244.6420427601001
 30
0.0
 11
379.9174967865666
 21
-244.6184725340667
 31
0.0
  0
LINE
  5
300
330
1F
100
AcDbEntity
  8
1
  6
Continuous
 62
     7
370
     9
100
AcDbLine
 10
418.9378619189338
 20
-209.0082408283334
 30
0.0
 11
418.9614321449666
 21
-208.9846706022999
 31
0.0
  0
LINE
  5
301
330
1F
100
AcDbEntity
  8
1
  6
Continuous
 62
     7
370
     9
100
AcDbLine
 10
383.5778528317665
 20
-244.3682499154998
 30
0.0
 11
383.6014230577994
 21
-244.3446796894667
 31
0.0
  0
LINE
  5
302
330
1F
100
AcDbEntity
  8
1
  6
Continuous
 62
     7
370
     9
100
AcDbLine
 10
419.4350949987001
 20
-212.2854089588332
 30
0.0
 11
419.458665224733
 21
-212.2618387327666
 31
0.0
  0
LINE
  5
303
330
1F
100
AcDbEntity
  8
1
  6
Continuous
 62
     7
370
     9
100
AcDbLine
 10
386.2351143832668
 20
-245.4853895742666
 30
0.0
 11
386.2586846092996
 21
-245.4618193482
 31
0.0
  0
LINE
  5
304
330
1F
100
AcDbEntity
  8
1
  6
Continuous
 62
     7
370
     9
100
AcDbLine
 10
419.1036130159994
 20
-215.5818321657665
 30
0.0
 11
419.1271832420335
 21
-215.5582619397336
 31
0.0
  0
LINE
  5
305
330
1F
100
AcDbEntity
  8
1
  6
Continuous
 62
     7
370
     9
100
AcDbLine
 10
389.2527391449999
 20
-245.4327060367666
 30
0.0
 11
389.2763093710328
 21
-245.4091358107332
 31
0.0
  0
LINE
  5
306
330
1F
100
AcDbEntity
  8
1
  6
Continuous
 62
     7
370
     9
100
AcDbLine
 10
418.5674292617666
 20
-219.7660455579333
 30
0.0
 11
418.5909994878006
 21
-219.7424753318999
 31
0.0
  0
LINE
  5
307
330
1F
100
AcDbEntity
  8
1
  6
Continuous
 62
     7
370
     9
100
AcDbLine
 10
394.1573491568665
 20
-244.1761256627999
 30
0.0
 11
394.1809193829325
 21
-244.1525554367668
 31
0.0
  0
LINE
  5
308
330
1F
100
AcDbEntity
  8
1
  6
Continuous
 62
     7
370
     9
100
AcDbLine
 10
416.0806548709325
 20
-225.2017920876999
 30
0.0
 11
416.1042250969666
 21
-225.1782218616333
 31
0.0
  0
LINE
  5
309
330
1F
100
AcDbEntity
  8
1
  6
Continuous
 62
     7
370
     9
100
AcDbLine
 10
420.949650559233
 20
-220.3327963993669
 30
0.0
 11
420.9732207852671
 21
-220.3092261733334
 31
0.0
  0
LINE
  5
30A
330
1F
100
AcDbEntity
  8
1
  6
Continuous
 62
     7
370
     9
100
AcDbLine
 10
396.2253366051007
 20
-245.0571103535
 30
0.0
 11
396.2489068311668
 21
-245.0335401274666
 31
0.0
  0
LINE
  5
30B
330
1F
100
AcDbEntity
  8
1
  6
Continuous
 62
     7
370
     9
100
AcDbLine
 10
401.2797670859334
 20
-242.8664116238668
 30
0.0
 11
401.3033373119674
 21
-242.8428413977999
 31
0.0
  0
LINE
  5
30C
330
1F
100
AcDbEntity
  8
1
  6
Continuous
 62
     7
370
     9
100
AcDbLine
 10
405.5686965405659
 20
-238.5774821691999
 30
0.0
 11
405.5922667666331
 21
-238.5539119431668
 31
0.0
  0
LINE
  5
30D
330
1F
100
AcDbEntity
  8
1
  6
Continuous
 62
     7
370
     9
100
AcDbLine
 10
409.9136904325328
 20
-234.2324882772333
 30
0.0
 11
409.9372606585669
 21
-234.2089180512001
 31
0.0
  0
LINE
  5
30E
330
1F
100
AcDbEntity
  8
1
  6
Continuous
 62
     7
370
     9
100
AcDbLine
 10
414.9213582048334
 20
-229.2248205049334
 30
0.0
 11
414.9449284308662
 21
-229.2012502788999
 31
0.0
  0
LINE
  5
30F
330
1F
100
AcDbEntity
  8
1
  6
Continuous
 62
     7
370
     9
100
AcDbLine
 10
405.0437153351996
 20
-242.0530324220333
 30
0.0
 11
405.0672855612326
 21
-242.0294621959999
 31
0.0
  0
LINE
  5
310
330
1F
100
AcDbEntity
  8
1
  6
Continuous
 62
     7
370
     9
100
AcDbLine
 10
410.6883553924325
 20
-236.4083923647999
 30
0.0
 11
410.7119256184666
 21
-236.3848221387667
 31
0.0
  0
LINE
  5
311
330
1F
100
AcDbEntity
  8
1
  6
Continuous
 62
     7
370
     9
100
AcDbLine
 10
415.7781128951004
 20
-231.3186348621335
 30
0.0
 11
415.8016831211334
 21
-231.2950646361
 31
0.0
  0
LINE
  5
312
330
1F
100
AcDbEntity
  8
1
  6
Continuous
 62
     7
370
     9
100
AcDbLine
 10
374.6113427596992
 20
-241.9567435991666
 30
0.0
 11
374.5877725336663
 21
-241.9331733731334
 31
0.0
  0
LINE
  5
313
330
1F
100
AcDbEntity
  8
1
  6
Continuous
 62
     7
370
     9
100
AcDbLine
 10
368.4002965106995
 20
-235.7456973501666
 30
0.0
 11
368.3767262846666
 21
-235.7221271241334
 31
0.0
  0
LINE
  5
314
330
1F
100
AcDbEntity
  8
1
  6
Continuous
 62
     7
370
     9
100
AcDbLine
 10
364.0550436606
 20
-231.4004445000668
 30
0.0
 11
364.031473434566
 21
-231.3768742740333
 31
0.0
  0
LINE
  5
315
330
1F
100
AcDbEntity
  8
1
  6
Continuous
 62
     7
370
     9
100
AcDbLine
 10
363.8240745497656
 20
-227.7059534260666
 30
0.0
 11
363.8005043237339
 21
-227.6823832000335
 31
0.0
  0
LINE
  5
316
330
1F
100
AcDbEntity
  8
1
  6
Continuous
 62
     7
370
     9
100
AcDbLine
 10
358.8902098473676
 20
-222.7720887236666
 30
0.0
 11
358.8666396213335
 21
-222.7485184976334
 31
0.0
  0
LINE
  5
317
330
1F
100
AcDbEntity
  8
1
  6
Continuous
 62
     7
370
     9
100
AcDbLine
 10
379.6464711521337
 20
-243.5283500284333
 30
0.0
 11
379.6229009260996
 21
-243.5047798024002
 31
0.0
  0
LINE
  5
318
330
1F
100
AcDbEntity
  8
1
  6
Continuous
 62
     7
370
     9
100
AcDbLine
 10
359.8083416391668
 20
-220.3611409866998
 30
0.0
 11
359.7847714131328
 21
-220.3375707606332
 31
0.0
  0
LINE
  5
319
330
1F
100
AcDbEntity
  8
1
  6
Continuous
 62
     7
370
     9
100
AcDbLine
 10
384.0495671370674
 20
-244.6023664845667
 30
0.0
 11
384.0259969110334
 21
-244.5787962585335
 31
0.0
  0
LINE
  5
31A
330
1F
100
AcDbEntity
  8
1
  6
Continuous
 62
     7
370
     9
100
AcDbLine
 10
359.756629527267
 20
-216.8638181829665
 30
0.0
 11
359.7330593012329
 21
-216.8402479569333
 31
0.0
  0
LINE
  5
31B
330
1F
100
AcDbEntity
  8
1
  6
Continuous
 62
     7
370
     9
100
AcDbLine
 10
388.983005732799
 20
-246.0901943884999
 30
0.0
 11
388.9594355067673
 21
-246.0666241624668
 31
0.0
  0
LINE
  5
31C
330
1F
100
AcDbEntity
  8
1
  6
Continuous
 62
     7
370
     9
100
AcDbLine
 10
360.1555604216335
 20
-214.2996205601
 30
0.0
 11
360.1319901955995
 21
-214.2760503340334
 31
0.0
  0
LINE
  5
31D
330
1F
100
AcDbEntity
  8
1
  6
Continuous
 62
     7
370
     9
100
AcDbLine
 10
391.1774167841004
 20
-245.3214769225334
 30
0.0
 11
391.1538465580663
 21
-245.2979066965
 31
0.0
  0
LINE
  5
31E
330
1F
100
AcDbEntity
  8
1
  6
Continuous
 62
     7
370
     9
100
AcDbLine
 10
359.5275237953344
 20
-209.8647266366334
 30
0.0
 11
359.5039535693003
 21
-209.8411564106
 31
0.0
  0
LINE
  5
31F
330
1F
100
AcDbEntity
  8
1
  6
Continuous
 62
     7
370
     9
100
AcDbLine
 10
394.4144861125329
 20
-244.7516889538332
 30
0.0
 11
394.3909158864669
 21
-244.7281187277669
 31
0.0
  0
LINE
  5
320
330
1F
100
AcDbEntity
  8
1
  6
Continuous
 62
     7
370
     9
100
AcDbLine
 10
359.2683155750326
 20
-205.9583951319001
 30
0.0
 11
359.2447453490009
 21
-205.9348249058666
 31
0.0
  0
LINE
  5
321
330
1F
100
AcDbEntity
  8
1
  6
Continuous
 62
     7
370
     9
100
AcDbLine
 10
397.5914048751336
 20
-244.2814844320003
 30
0.0
 11
397.5678346490996
 21
-244.2579142059668
 31
0.0
  0
LINE
  5
322
330
1F
100
AcDbEntity
  8
1
  6
Continuous
 62
     7
370
     9
100
AcDbLine
 10
359.9734069874331
 20
-202.4559778448334
 30
0.0
 11
359.9498367614003
 21
-202.4324076188
 31
0.0
  0
LINE
  5
323
330
1F
100
AcDbEntity
  8
1
  6
Continuous
 62
     7
370
     9
100
AcDbLine
 10
399.7322269242002
 20
-242.2147977815999
 30
0.0
 11
399.7086566981661
 21
-242.1912275555667
 31
0.0
  0
LINE
  5
324
330
1F
100
AcDbEntity
  8
1
  6
Continuous
 62
     7
370
     9
100
AcDbLine
 10
362.5213889159673
 20
-201.0946845318333
 30
0.0
 11
362.4978186899332
 21
-201.0711143058002
 31
0.0
  0
LINE
  5
325
330
1F
100
AcDbEntity
  8
1
  6
Continuous
 62
     7
370
     9
100
AcDbLine
 10
403.5418130457341
 20
-242.1151086616335
 30
0.0
 11
403.5182428197
 21
-242.0915384356001
 31
0.0
  0
LINE
  5
326
330
1F
100
AcDbEntity
  8
1
  6
Continuous
 62
     7
370
     9
100
AcDbLine
 10
362.8834545778672
 20
-197.8555488194666
 30
0.0
 11
362.8598843518332
 21
-197.8319785934334
 31
0.0
  0
LINE
  5
327
330
1F
100
AcDbEntity
  8
1
  6
Continuous
 62
     7
370
     9
100
AcDbLine
 10
405.4831220765994
 20
-240.4552163182003
 30
0.0
 11
405.4595518505334
 21
-240.4316460921333
 31
0.0
  0
LINE
  5
328
330
1F
100
AcDbEntity
  8
1
  6
Continuous
 62
     7
370
     9
100
AcDbLine
 10
364.5442409992331
 20
-196.5708158771333
 30
0.0
 11
364.5206707732002
 21
-196.5472456510667
 31
0.0
  0
LINE
  5
329
330
1F
100
AcDbEntity
  8
1
  6
Continuous
 62
     7
370
     9
100
AcDbLine
 10
406.1810394270676
 20
-238.2076143049332
 30
0.0
 11
406.1574692010336
 21
-238.1840440788997
 31
0.0
  0
LINE
  5
32A
330
1F
100
AcDbEntity
  8
1
  6
Continuous
 62
     7
370
     9
100
AcDbLine
 10
366.300086880033
 20
-195.4272801028001
 30
0.0
 11
366.276516653999
 21
-195.4037098767335
 31
0.0
  0
LINE
  5
32B
330
1F
100
AcDbEntity
  8
1
  6
Continuous
 62
     7
370
     9
100
AcDbLine
 10
409.0171564918998
 20
-238.1443497146334
 30
0.0
 11
408.9935862658338
 21
-238.1207794885999
 31
0.0
  0
LINE
  5
32C
330
1F
100
AcDbEntity
  8
1
  6
Continuous
 62
     7
370
     9
100
AcDbLine
 10
367.1056816953338
 20
-192.4117749232333
 30
0.0
 11
367.0821114692666
 21
-192.3882046972001
 31
0.0
  0
LINE
  5
32D
330
1F
100
AcDbEntity
  8
1
  6
Continuous
 62
     7
370
     9
100
AcDbLine
 10
410.151958318066
 20
-235.4580515459667
 30
0.0
 11
410.128388092033
 21
-235.4344813199332
 31
0.0
  0
LINE
  5
32E
330
1F
100
AcDbEntity
  8
1
  6
Continuous
 62
     7
370
     9
100
AcDbLine
 10
368.7974692881998
 20
-191.2638275525668
 30
0.0
 11
368.7738990621658
 21
-191.2402573265333
 31
0.0
  0
LINE
  5
32F
330
1F
100
AcDbEntity
  8
1
  6
Continuous
 62
     7
370
     9
100
AcDbLine
 10
412.9127453800333
 20
-235.3791036444
 30
0.0
 11
412.8891751539661
 21
-235.3555334183665
 31
0.0
  0
LINE
  5
330
330
1F
100
AcDbEntity
  8
1
  6
Continuous
 62
     7
370
     9
100
AcDbLine
 10
370.6366817966999
 20
-189.1834496536333
 30
0.0
 11
370.6131115706658
 21
-189.1598794276001
 31
0.0
  0
LINE
  5
331
330
1F
100
AcDbEntity
  8
1
  6
Continuous
 62
     7
370
     9
100
AcDbLine
 10
413.7683354366332
 20
-232.3151032935999
 30
0.0
 11
413.7447652106003
 21
-232.2915330675333
 31
0.0
  0
LINE
  5
332
330
1F
100
AcDbEntity
  8
1
  6
Continuous
 62
     7
370
     9
100
AcDbLine
 10
372.2745951083661
 20
-187.7521479300667
 30
0.0
 11
372.2510248823332
 21
-187.7285777040001
 31
0.0
  0
LINE
  5
333
330
1F
100
AcDbEntity
  8
1
  6
Continuous
 62
     7
370
     9
100
AcDbLine
 10
414.5829093388669
 20
-230.0604621605331
 30
0.0
 11
414.5593391128328
 21
-230.0368919345
 31
0.0
  0
LINE
  5
334
330
1F
100
AcDbEntity
  8
1
  6
Continuous
 62
     7
370
     9
100
AcDbLine
 10
373.9250022026003
 20
-186.1515513747
 30
0.0
 11
373.9014319765662
 21
-186.1279811486665
 31
0.0
  0
LINE
  5
335
330
1F
100
AcDbEntity
  8
1
  6
Continuous
 62
     7
370
     9
100
AcDbLine
 10
415.8006171829666
 20
-228.0271663550666
 30
0.0
 11
415.7770469569325
 21
-228.0035961290331
 31
0.0
  0
LINE
  5
336
330
1F
100
AcDbEntity
  8
1
  6
Continuous
 62
     7
370
     9
100
AcDbLine
 10
376.7488837617003
 20
-185.4501062945332
 30
0.0
 11
376.7253135356331
 21
-185.4265360685001
 31
0.0
  0
LINE
  5
337
330
1F
100
AcDbEntity
  8
1
  6
Continuous
 62
     7
370
     9
100
AcDbLine
 10
417.1161036103999
 20
-225.8173261432335
 30
0.0
 11
417.0925333843671
 21
-225.7937559172
 31
0.0
  0
LINE
  5
338
330
1F
100
AcDbEntity
  8
1
  6
Continuous
 62
     7
370
     9
100
AcDbLine
 10
380.067127352467
 20
-185.5946884002335
 30
0.0
 11
380.0435571264329
 21
-185.5711181742
 31
0.0
  0
LINE
  5
339
330
1F
100
AcDbEntity
  8
1
  6
Continuous
 62
     7
370
     9
100
AcDbLine
 10
417.9600096885325
 20
-223.4875707362998
 30
0.0
 11
417.9364394625008
 21
-223.4640005102667
 31
0.0
  0
LINE
  5
33A
330
1F
100
AcDbEntity
  8
1
  6
Continuous
 62
     7
370
     9
100
AcDbLine
 10
383.1475203118334
 20
-185.4407805100333
 30
0.0
 11
383.1239500857994
 21
-185.4172102839999
 31
0.0
  0
LINE
  5
33B
330
1F
100
AcDbEntity
  8
1
  6
Continuous
 62
     7
370
     9
100
AcDbLine
 10
419.6985495798329
 20
-221.9918097780334
 30
0.0
 11
419.6749793537668
 21
-221.9682395519999
 31
0.0
  0
LINE
  5
33C
330
1F
100
AcDbEntity
  8
1
  6
Continuous
 62
     7
370
     9
100
AcDbLine
 10
385.4989747340005
 20
-184.6708398317333
 30
0.0
 11
385.4754045079665
 21
-184.6472696056998
 31
0.0
  0
LINE
  5
33D
330
1F
100
AcDbEntity
  8
1
  6
Continuous
 62
     7
370
     9
100
AcDbLine
 10
420.2496423435996
 20
-219.4215074412999
 30
0.0
 11
420.2260721175668
 21
-219.3979372152667
 31
0.0
  0
LINE
  5
33E
330
1F
100
AcDbEntity
  8
1
  6
Continuous
 62
     7
370
     9
100
AcDbLine
 10
388.3450200116671
 20
-184.1338559681001
 30
0.0
 11
388.321449785633
 21
-184.1102857420666
 31
0.0
  0
LINE
  5
33F
330
1F
100
AcDbEntity
  8
1
  6
Continuous
 62
     7
370
     9
100
AcDbLine
 10
421.0229045398673
 20
-216.8117404962666
 30
0.0
 11
420.9993343137989
 21
-216.7881702702334
 31
0.0
  0
LINE
  5
340
330
1F
100
AcDbEntity
  8
1
  6
Continuous
 62
     7
370
     9
100
AcDbLine
 10
391.8347808923667
 20
-184.3718363247999
 30
0.0
 11
391.8112106663326
 21
-184.3482660987667
 31
0.0
  0
LINE
  5
341
330
1F
100
AcDbEntity
  8
1
  6
Continuous
 62
     7
370
     9
100
AcDbLine
 10
421.3546328799665
 20
-213.8916883124
 30
0.0
 11
421.3310626539335
 21
-213.8681180863333
 31
0.0
  0
LINE
  5
342
330
1F
100
AcDbEntity
  8
1
  6
Continuous
 62
     7
370
     9
100
AcDbLine
 10
394.5875626785329
 20
-184.0746091377001
 30
0.0
 11
394.5639924525
 21
-184.0510389116667
 31
0.0
  0
LINE
  5
343
330
1F
100
AcDbEntity
  8
1
  6
Continuous
 62
     7
370
     9
100
AcDbLine
 10
421.3147576513659
 20
-210.8018041105335
 30
0.0
 11
421.291187425333
 21
-210.7782338845
 31
0.0
  0
LINE
  5
344
330
1F
100
AcDbEntity
  8
1
  6
Continuous
 62
     7
370
     9
100
AcDbLine
 10
399.5505165440009
 20
-186.0582064424999
 30
0.0
 11
399.5269463179669
 21
-186.0346362164667
 31
0.0
  0
LINE
  5
345
330
1F
100
AcDbEntity
  8
1
  6
Continuous
 62
     7
370
     9
100
AcDbLine
 10
419.6900922602665
 20
-206.1977821587335
 30
0.0
 11
419.6665220342335
 21
-206.1742119327
 31
0.0
  0
LINE
  5
346
330
1F
100
AcDbEntity
  8
1
  6
Continuous
 62
     7
370
     9
100
AcDbLine
 10
419.4393788312327
 20
-202.0992960464666
 30
0.0
 11
419.4158086051998
 21
-202.0757258204
 31
0.0
  0
LINE
  5
347
330
1F
100
AcDbEntity
  8
1
  6
Continuous
 62
     7
370
     9
100
AcDbLine
 10
415.1710365486999
 20
-197.8309537639333
 30
0.0
 11
415.1474663226659
 21
-197.8073835378999
 31
0.0
  0
LINE
  5
348
330
1F
100
AcDbEntity
  8
1
  6
Continuous
 62
     7
370
     9
100
AcDbLine
 10
409.2191426583661
 20
-191.8790598735667
 30
0.0
 11
409.1955724323001
 21
-191.8554896475332
 31
0.0
  0
LINE
  5
349
330
1F
100
AcDbEntity
  8
1
  6
Continuous
 62
     7
370
     9
100
AcDbLine
 10
404.4734110447001
 20
-187.1333282599335
 30
0.0
 11
404.4498408186673
 21
-187.1097580338666
 31
0.0
  0
LINE
  5
34A
330
1F
100
AcDbEntity
  8
1
  6
Continuous
 62
     7
370
     9
100
AcDbLine
 10
415.1924519981339
 20
-194.9361984388333
 30
0.0
 11
415.1688817720998
 21
-194.9126282128001
 31
0.0
  0
LINE
  5
34B
330
1F
100
AcDbEntity
  8
1
  6
Continuous
 62
     7
370
     9
100
AcDbLine
 10
408.8947842513007
 20
-188.638530692
 30
0.0
 11
408.8712140252666
 21
-188.6149604659666
 31
0.0
  0
LINE
  5
34C
330
1F
100
AcDbEntity
  8
1
  6
Continuous
 62
     7
370
     9
100
AcDbLine
 10
360.3970761141003
 20
-226.1522373266998
 30
0.0
 11
362.0701087215995
 21
-225.7039495905998
 31
0.0
  0
LINE
  5
34D
330
1F
100
AcDbEntity
  8
1
  6
Continuous
 62
     7
370
     9
100
AcDbLine
 10
362.0701087215995
 20
-225.7039495905998
 30
0.0
 11
360.8453638502
 21
-224.4792047192333
 31
0.0
  0
LINE
  5
34E
330
1F
100
AcDbEntity
  8
1
  6
Continuous
 62
     7
370
     9
100
AcDbLine
 10
360.8453638502
 20
-224.4792047192332
 30
0.0
 11
360.3970761141003
 21
-226.1522373266998
 31
0.0
  0
LINE
  5
34F
330
1F
100
AcDbEntity
  8
1
  6
Continuous
 62
     7
370
     9
100
AcDbLine
 10
360.3970761141003
 20
-226.1522373266998
 30
0.0
 11
362.0701087215995
 21
-225.7039495905998
 31
0.0
  0
LINE
  5
350
330
1F
100
AcDbEntity
  8
1
  6
Continuous
 62
     7
370
     9
100
AcDbLine
 10
362.0701087215995
 20
-225.7039495905998
 30
0.0
 11
360.8453638502
 21
-224.4792047192333
 31
0.0
  0
LINE
  5
351
330
1F
100
AcDbEntity
  8
1
  6
Continuous
 62
     7
370
     9
100
AcDbLine
 10
360.8453638502
 20
-224.4792047192332
 30
0.0
 11
360.3970761141003
 21
-226.1522373266998
 31
0.0
  0
LINE
  5
352
330
1F
100
AcDbEntity
  8
1
  6
Continuous
 62
     7
370
     9
100
AcDbLine
 10
399.4947507503327
 20
-242.8305023597333
 30
0.0
 11
401.1677833578
 21
-242.3822146236665
 31
0.0
  0
LINE
  5
353
330
1F
100
AcDbEntity
  8
1
  6
Continuous
 62
     7
370
     9
100
AcDbLine
 10
401.1677833578
 20
-242.3822146236665
 30
0.0
 11
399.9430384863993
 21
-241.1574697522664
 31
0.0
  0
LINE
  5
354
330
1F
100
AcDbEntity
  8
1
  6
Continuous
 62
     7
370
     9
100
AcDbLine
 10
399.9430384863993
 20
-241.1574697522664
 30
0.0
 11
399.4947507503327
 21
-242.8305023597333
 31
0.0
  0
LINE
  5
355
330
1F
100
AcDbEntity
  8
1
  6
Continuous
 62
     7
370
     9
100
AcDbLine
 10
399.4947507503327
 20
-242.8305023597333
 30
0.0
 11
401.1677833578
 21
-242.3822146236665
 31
0.0
  0
LINE
  5
356
330
1F
100
AcDbEntity
  8
1
  6
Continuous
 62
     7
370
     9
100
AcDbLine
 10
401.1677833578
 20
-242.3822146236665
 30
0.0
 11
399.9430384863993
 21
-241.1574697522664
 31
0.0
  0
LINE
  5
357
330
1F
100
AcDbEntity
  8
1
  6
Continuous
 62
     7
370
     9
100
AcDbLine
 10
399.9430384863993
 20
-241.1574697522664
 30
0.0
 11
399.4947507503327
 21
-242.8305023597333
 31
0.0
  0
CIRCLE
  5
358
330
1F
100
AcDbEntity
  8
1
  6
Continuous
 62
     7
370
     9
100
AcDbCircle
 10
362.8330723490996
 20
-337.3908689467333
 30
0.0
 40
0.500000000000056
  0
MTEXT
  5
359
330
1F
100
AcDbEntity
  8
1
 62
     7
100
AcDbMText
 10
316.5586310446693
 20
-351.2610861497939
 30
0.0
 40
3.5
 41
0.0
 46
0.0
 71
     1
 72
     1
  1
{\fＭＳ ゴシック;\W0.845758;スリーブ}
 73
     1
 44
1.0
  0
MTEXT
  5
35A
330
1F
100
AcDbEntity
  8
1
 62
     7
100
AcDbMText
 10
316.5512996583056
 20
-355.9042679679755
 30
0.0
 40
3.5
 41
0.0
 46
0.0
 71
     1
 72
     1
  1
{\fＭＳ ゴシック;\W0.815036;ステンレス管 又は 鋼管}
 73
     1
 44
1.0
  0
LINE
  5
35B
330
1F
100
AcDbEntity
  8
1
  6
Continuous
 62
     7
370
     9
100
AcDbLine
 10
316.3568025934002
 20
-360.2133589069666
 30
0.0
 11
353.0701189631999
 21
-360.2133589069666
 31
0.0
  0
MTEXT
  5
35C
330
1F
100
AcDbEntity
  8
1
 62
     7
100
AcDbMText
 10
316.549150021942
 20
-360.5474497861575
 30
0.0
 40
3.5
 41
0.0
 46
0.0
 71
     1
 72
     1
  1
{\fＭＳ ゴシック;\W0.806028;（φ210以下）}
 73
     1
 44
1.0
  0
LINE
  5
35D
330
1F
100
AcDbEntity
  8
1
  6
Continuous
 62
     7
370
     9
100
AcDbLine
 10
316.3568025934002
 20
-364.7133589069667
 30
0.0
 11
338.0510349937333
 21
-364.7133589069667
 31
0.0
  0
LINE
  5
35E
330
1F
100
AcDbEntity
  8
1
  6
Continuous
 62
     7
370
     9
100
AcDbLine
 10
362.8330723490996
 20
-337.3908689467333
 30
0.0
 11
353.0701189631999
 21
-355.7133589069667
 31
0.0
  0
LINE
  5
35F
330
1F
100
AcDbEntity
  8
1
  6
Continuous
 62
     7
370
     9
100
AcDbLine
 10
353.0701189631999
 20
-355.7133589069667
 30
0.0
 11
316.3568025934002
 21
-355.7133589069667
 31
0.0
  0
CIRCLE
  5
360
330
1F
100
AcDbEntity
  8
1
  6
Continuous
 62
     7
370
     9
100
AcDbCircle
 10
393.5897866441667
 20
-233.8563936853335
 30
0.0
 40
0.3333333333337407
  0
MTEXT
  5
361
330
1F
100
AcDbEntity
  8
1
 62
     7
100
AcDbMText
 10
400.370456582549
 20
-246.3630755437332
 30
0.0
 40
3.5
 41
0.0
 46
0.0
 71
     1
 72
     1
  1
{\fＭＳ ゴシック;\W0.85652;電線管}
 73
     1
 44
1.0
  0
MTEXT
  5
362
330
1F
100
AcDbEntity
  8
1
 62
     7
100
AcDbMText
 10
400.3622338893672
 20
-251.8789846346421
 30
0.0
 40
3.5
 41
0.0
 46
0.0
 71
     1
 72
     1
  1
{\fＭＳ ゴシック;\W0.822063;(ＣＤ管、ＰＦ管、}
 73
     1
 44
1.0
  0
LINE
  5
363
330
1F
100
AcDbEntity
  8
1
  6
Continuous
 62
     7
370
     9
100
AcDbLine
 10
400.1660597319996
 20
-256.1880755570334
 30
0.0
 11
428.5354405631992
 21
-256.1880755570334
 31
0.0
  0
MTEXT
  5
364
330
1F
100
AcDbEntity
  8
1
 62
     7
100
AcDbMText
 10
400.3622338893672
 20
-257.3789846346423
 30
0.0
 40
3.5
 41
0.0
 46
0.0
 71
     1
 72
     1
  1
{\fＭＳ ゴシック;\W0.822063;ＶＥ管、ＦＥＰ管)}
 73
     1
 44
1.0
  0
LINE
  5
365
330
1F
100
AcDbEntity
  8
1
  6
Continuous
 62
     7
370
     9
100
AcDbLine
 10
400.1660597319996
 20
-261.6880755570336
 30
0.0
 11
428.5354405631992
 21
-261.6880755570336
 31
0.0
  0
LINE
  5
366
330
1F
100
AcDbEntity
  8
1
  6
Continuous
 62
     7
370
     9
100
AcDbLine
 10
393.5897866441667
 20
-233.8563936853335
 30
0.0
 11
400.1660597319996
 21
-250.6880755570335
 31
0.0
  0
LINE
  5
367
330
1F
100
AcDbEntity
  8
1
  6
Continuous
 62
     7
370
     9
100
AcDbLine
 10
400.1660597319996
 20
-250.6880755570335
 30
0.0
 11
413.0185752156991
 21
-250.6880755570335
 31
0.0
  0
LINE
  5
368
330
1F
100
AcDbEntity
  8
1
  6
Continuous
 62
     7
370
     9
100
AcDbLine
 10
454.5788112444997
 20
-407.5447169941334
 30
0.0
 11
455.4197365720004
 21
-407.5447169941334
 31
0.0
  0
LINE
  5
369
330
1F
100
AcDbEntity
  8
1
  6
Continuous
 62
     7
370
     9
100
AcDbLine
 10
454.3128965582659
 20
-407.8780503274666
 30
0.0
 11
455.6856512581998
 21
-407.8780503274666
 31
0.0
  0
LINE
  5
36A
330
1F
100
AcDbEntity
  8
1
  6
Continuous
 62
     7
370
     9
100
AcDbLine
 10
455.1245016224673
 20
-408.2113836607999
 30
0.0
 11
455.9930246004334
 21
-408.2113836607999
 31
0.0
  0
LINE
  5
36B
330
1F
100
AcDbEntity
  8
1
  6
Continuous
 62
     7
370
     9
100
AcDbLine
 10
454.0055232160666
 20
-408.2113836607999
 30
0.0
 11
454.8740461940008
 21
-408.2113836607999
 31
0.0
  0
LINE
  5
36C
330
1F
100
AcDbEntity
  8
1
  6
Continuous
 62
     7
370
     9
100
AcDbLine
 10
455.3631221075665
 20
-408.5447169941334
 30
0.0
 11
456.3513871651337
 21
-408.5447169941334
 31
0.0
  0
LINE
  5
36D
330
1F
100
AcDbEntity
  8
1
  6
Continuous
 62
     7
370
     9
100
AcDbLine
 10
453.6471606513332
 20
-408.5447169941334
 30
0.0
 11
454.6354257089004
 21
-408.5447169941334
 31
0.0
  0
LINE
  5
36E
330
1F
100
AcDbEntity
  8
1
  6
Continuous
 62
     7
370
     9
100
AcDbLine
 10
455.6088458497334
 20
-408.8780503274666
 30
0.0
 11
456.7760105313338
 21
-408.8780503274666
 31
0.0
  0
LINE
  5
36F
330
1F
100
AcDbEntity
  8
1
  6
Continuous
 62
     7
370
     9
100
AcDbLine
 10
453.2225372851661
 20
-408.8780503274666
 30
0.0
 11
454.3897019667666
 21
-408.8780503274666
 31
0.0
  0
LINE
  5
370
330
1F
100
AcDbEntity
  8
1
  6
Continuous
 62
     7
370
     9
100
AcDbLine
 10
452.7042240051335
 20
-409.2113836608
 30
0.0
 11
457.2943238113333
 21
-409.2113836608
 31
0.0
  0
LINE
  5
371
330
1F
100
AcDbEntity
  8
1
  6
Continuous
 62
     7
370
     9
100
AcDbLine
 10
452.0320589283999
 20
-409.5447169941331
 30
0.0
 11
457.9664888881002
 21
-409.5447169941331
 31
0.0
  0
LINE
  5
372
330
1F
100
AcDbEntity
  8
1
  6
Continuous
 62
     7
370
     9
100
AcDbLine
 10
456.6673502679323
 20
-409.8780503274666
 30
0.0
 11
458.0856865680008
 21
-409.8780503274666
 31
0.0
  0
LINE
  5
373
330
1F
100
AcDbEntity
  8
1
  6
Continuous
 62
     7
370
     9
100
AcDbLine
 10
451.9128612484992
 20
-409.8780503274666
 30
0.0
 11
453.3311975485334
 21
-409.8780503274666
 31
0.0
  0
LINE
  5
374
330
1F
100
AcDbEntity
  8
1
  6
Continuous
 62
     7
370
     9
100
AcDbLine
 10
456.8432524074663
 20
-410.2113836608
 30
0.0
 11
457.8773532346677
 21
-410.2113836608
 31
0.0
  0
LINE
  5
375
330
1F
100
AcDbEntity
  8
1
  6
Continuous
 62
     7
370
     9
100
AcDbLine
 10
452.1211945818335
 20
-410.2113836608
 30
0.0
 11
453.1552954090338
 21
-410.2113836608
 31
0.0
  0
LINE
  5
376
330
1F
100
AcDbEntity
  8
1
  6
Continuous
 62
     7
370
     9
100
AcDbLine
 10
452.5220440625992
 20
-410.5447169941332
 30
0.0
 11
457.4765037538996
 21
-410.5447169941332
 31
0.0
  0
LINE
  5
377
330
1F
100
AcDbEntity
  8
1
  6
Continuous
 62
     7
370
     9
100
AcDbLine
 10
455.4175602919008
 20
-410.8780503274667
 30
0.0
 11
456.2000527587323
 21
-410.8780503274667
 31
0.0
  0
LINE
  5
378
330
1F
100
AcDbEntity
  8
1
  6
Continuous
 62
     7
370
     9
100
AcDbLine
 10
453.7718982156002
 20
-410.8780503274667
 30
0.0
 11
454.5767170747009
 21
-410.8780503274667
 31
0.0
  0
LINE
  5
379
330
1F
100
AcDbEntity
  8
1
  6
Continuous
 62
     7
370
     9
100
AcDbLine
 10
455.4937331396328
 20
-411.2113836608
 30
0.0
 11
456.2858803504328
 21
-411.2113836608
 31
0.0
  0
LINE
  5
37A
330
1F
100
AcDbEntity
  8
1
  6
Continuous
 62
     7
370
     9
100
AcDbLine
 10
453.6114062458335
 20
-411.2113836608
 30
0.0
 11
454.4767170747
 21
-411.2113836608
 31
0.0
  0
LINE
  5
37B
330
1F
100
AcDbEntity
  8
1
  6
Continuous
 62
     7
370
     9
100
AcDbLine
 10
455.5820774136671
 20
-411.5447169941332
 30
0.0
 11
456.4040083070332
 21
-411.5447169941332
 31
0.0
  0
LINE
  5
37C
330
1F
100
AcDbEntity
  8
1
  6
Continuous
 62
     7
370
     9
100
AcDbLine
 10
453.4114062458327
 20
-411.5447169941332
 30
0.0
 11
454.3767170747001
 21
-411.5447169941332
 31
0.0
  0
LINE
  5
37D
330
1F
100
AcDbEntity
  8
1
  6
Continuous
 62
     7
370
     9
100
AcDbLine
 10
455.6832641153999
 20
-411.8780503274667
 30
0.0
 11
456.5379421487335
 21
-411.8780503274667
 31
0.0
  0
LINE
  5
37E
330
1F
100
AcDbEntity
  8
1
  6
Continuous
 62
     7
370
     9
100
AcDbLine
 10
453.2114062458332
 20
-411.8780503274667
 30
0.0
 11
454.2767170747004
 21
-411.8780503274667
 31
0.0
  0
LINE
  5
37F
330
1F
100
AcDbEntity
  8
1
  6
Continuous
 62
     7
370
     9
100
AcDbLine
 10
452.4795995527333
 20
-412.2113836607998
 30
0.0
 11
456.6885008588998
 21
-412.2113836607998
 31
0.0
  0
LINE
  5
380
330
1F
100
AcDbEntity
  8
1
  6
Continuous
 62
     7
370
     9
100
AcDbLine
 10
452.4795995527333
 20
-412.5447169941332
 30
0.0
 11
456.8566742372329
 21
-412.5447169941332
 31
0.0
  0
LINE
  5
381
330
1F
100
AcDbEntity
  8
1
  6
Continuous
 62
     7
370
     9
100
AcDbLine
 10
456.0685526668667
 20
-412.8780503274667
 30
0.0
 11
457.0436632956994
 21
-412.8780503274667
 31
0.0
  0
LINE
  5
382
330
1F
100
AcDbEntity
  8
1
  6
Continuous
 62
     7
370
     9
100
AcDbLine
 10
452.4795995527333
 20
-412.8780503274667
 30
0.0
 11
454.5052784117666
 21
-412.8780503274667
 31
0.0
  0
LINE
  5
383
330
1F
100
AcDbEntity
  8
1
  6
Continuous
 62
     7
370
     9
100
AcDbLine
 10
456.2262332036329
 20
-413.2113836607998
 30
0.0
 11
456.8152893134322
 21
-413.2113836607998
 31
0.0
  0
LINE
  5
384
330
1F
100
AcDbEntity
  8
1
  6
Continuous
 62
     7
370
     9
100
AcDbLine
 10
450.9718642856658
 20
-407.5145434308333
 30
0.0
 11
451.5136303603665
 21
-407.5145434308333
 31
0.0
  0
LINE
  5
385
330
1F
100
AcDbEntity
  8
1
  6
Continuous
 62
     7
370
     9
100
AcDbLine
 10
449.6239497916324
 20
-407.5145434308333
 30
0.0
 11
450.2380392660004
 21
-407.5145434308333
 31
0.0
  0
LINE
  5
386
330
1F
100
AcDbEntity
  8
1
  6
Continuous
 62
     7
370
     9
100
AcDbLine
 10
451.0324703462992
 20
-407.8478767641667
 30
0.0
 11
451.5742364209656
 21
-407.8478767641667
 31
0.0
  0
LINE
  5
387
330
1F
100
AcDbEntity
  8
1
  6
Continuous
 62
     7
370
     9
100
AcDbLine
 10
449.5945827307
 20
-407.8478767641667
 30
0.0
 11
450.2204222681322
 21
-407.8478767641667
 31
0.0
  0
LINE
  5
388
330
1F
100
AcDbEntity
  8
1
  6
Continuous
 62
     7
370
     9
100
AcDbLine
 10
451.0370614725329
 20
-408.1812100975002
 30
0.0
 11
451.6348424815671
 21
-408.1812100975002
 31
0.0
  0
LINE
  5
389
330
1F
100
AcDbEntity
  8
1
  6
Continuous
 62
     7
370
     9
100
AcDbLine
 10
449.4471621302666
 20
-408.1812100975002
 30
0.0
 11
450.3567733800671
 21
-408.1812100975002
 31
0.0
  0
LINE
  5
38A
330
1F
100
AcDbEntity
  8
1
  6
Continuous
 62
     7
370
     9
100
AcDbLine
 10
446.0705915728324
 20
-408.5145434308333
 30
0.0
 11
451.6954485421662
 21
-408.5145434308333
 31
0.0
  0
LINE
  5
38B
330
1F
100
AcDbEntity
  8
1
  6
Continuous
 62
     7
370
     9
100
AcDbLine
 10
446.0868737980989
 20
-408.8478767641668
 30
0.0
 11
451.4600081264327
 21
-408.8478767641668
 31
0.0
  0
LINE
  5
38C
330
1F
100
AcDbEntity
  8
1
  6
Continuous
 62
     7
370
     9
100
AcDbLine
 10
449.5908387237325
 20
-409.1812100974999
 30
0.0
 11
450.263399960467
 21
-409.1812100974999
 31
0.0
  0
LINE
  5
38D
330
1F
100
AcDbEntity
  8
1
  6
Continuous
 62
     7
370
     9
100
AcDbLine
 10
449.6183174245003
 20
-409.5145434308334
 30
0.0
 11
450.3026937984329
 21
-409.5145434308334
 31
0.0
  0
LINE
  5
38E
330
1F
100
AcDbEntity
  8
1
  6
Continuous
 62
     7
370
     9
100
AcDbLine
 10
449.6572949507664
 20
-409.8478767641668
 30
0.0
 11
450.3536250320326
 21
-409.8478767641668
 31
0.0
  0
LINE
  5
38F
330
1F
100
AcDbEntity
  8
1
  6
Continuous
 62
     7
370
     9
100
AcDbLine
 10
446.4369416407001
 20
-409.8478767641668
 30
0.0
 11
449.156073255333
 21
-409.8478767641668
 31
0.0
  0
LINE
  5
390
330
1F
100
AcDbEntity
  8
1
  6
Continuous
 62
     7
370
     9
100
AcDbLine
 10
449.7079103182323
 20
-410.1812100975
 30
0.0
 11
450.4163786517673
 21
-410.1812100975
 31
0.0
  0
LINE
  5
391
330
1F
100
AcDbEntity
  8
1
  6
Continuous
 62
     7
370
     9
100
AcDbLine
 10
447.2437239294662
 20
-410.1812100975
 30
0.0
 11
448.2271742757003
 21
-410.1812100975
 31
0.0
  0
LINE
  5
392
330
1F
100
AcDbEntity
  8
1
  6
Continuous
 62
     7
370
     9
100
AcDbLine
 10
449.7703474189001
 20
-410.5145434308334
 30
0.0
 11
450.4911880277673
 21
-410.5145434308334
 31
0.0
  0
LINE
  5
393
330
1F
100
AcDbEntity
  8
1
  6
Continuous
 62
     7
370
     9
100
AcDbLine
 10
447.3292804602661
 20
-410.5145434308334
 30
0.0
 11
448.141617746466
 21
-410.5145434308334
 31
0.0
  0
LINE
  5
394
330
1F
100
AcDbEntity
  8
1
  6
Continuous
 62
     7
370
     9
100
AcDbLine
 10
449.8448384784336
 20
-410.8478767641668
 30
0.0
 11
450.5783394708003
 21
-410.8478767641668
 31
0.0
  0
LINE
  5
395
330
1F
100
AcDbEntity
  8
1
  6
Continuous
 62
     7
370
     9
100
AcDbLine
 10
447.3060765334659
 20
-410.8478767641668
 30
0.0
 11
448.1648216733005
 21
-410.8478767641668
 31
0.0
  0
LINE
  5
396
330
1F
100
AcDbEntity
  8
1
  6
Continuous
 62
     7
370
     9
100
AcDbLine
 10
449.9316685933326
 20
-411.1812100975
 30
0.0
 11
450.6781780935004
 21
-411.1812100975
 31
0.0
  0
LINE
  5
397
330
1F
100
AcDbEntity
  8
1
  6
Continuous
 62
     7
370
     9
100
AcDbLine
 10
447.2828726066338
 20
-411.1812100975
 30
0.0
 11
448.1880256001338
 21
-411.1812100975
 31
0.0
  0
LINE
  5
398
330
1F
100
AcDbEntity
  8
1
  6
Continuous
 62
     7
370
     9
100
AcDbLine
 10
450.0311815646999
 20
-411.5145434308334
 30
0.0
 11
450.7911152711333
 21
-411.5145434308334
 31
0.0
  0
LINE
  5
399
330
1F
100
AcDbEntity
  8
1
  6
Continuous
 62
     7
370
     9
100
AcDbLine
 10
447.2596686797993
 20
-411.5145434308334
 30
0.0
 11
448.2117203634669
 21
-411.5145434308334
 31
0.0
  0
LINE
  5
39A
330
1F
100
AcDbEntity
  8
1
  6
Continuous
 62
     7
370
     9
100
AcDbLine
 10
450.1437873254998
 20
-411.8478767641666
 30
0.0
 11
450.9176381086664
 21
-411.8478767641666
 31
0.0
  0
LINE
  5
39B
330
1F
100
AcDbEntity
  8
1
  6
Continuous
 62
     7
370
     9
100
AcDbLine
 10
447.2263277216994
 20
-411.8478767641666
 30
0.0
 11
449.3432462149332
 21
-411.8478767641666
 31
0.0
  0
LINE
  5
39C
330
1F
100
AcDbEntity
  8
1
  6
Continuous
 62
     7
370
     9
100
AcDbLine
 10
450.2699713666666
 20
-412.1812100975
 30
0.0
 11
451.6159437830664
 21
-412.1812100975
 31
0.0
  0
LINE
  5
39D
330
1F
100
AcDbEntity
  8
1
  6
Continuous
 62
     7
370
     9
100
AcDbLine
 10
446.1996148381664
 20
-412.1812100975
 30
0.0
 11
449.1223164054665
 21
-412.1812100975
 31
0.0
  0
LINE
  5
39E
330
1F
100
AcDbEntity
  8
1
  6
Continuous
 62
     7
370
     9
100
AcDbLine
 10
450.4103067182004
 20
-412.5145434308335
 30
0.0
 11
451.6462532451663
 21
-412.5145434308335
 31
0.0
  0
LINE
  5
39F
330
1F
100
AcDbEntity
  8
1
  6
Continuous
 62
     7
370
     9
100
AcDbLine
 10
446.2412815048332
 20
-412.5145434308335
 30
0.0
 11
448.0389830721327
 21
-412.5145434308335
 31
0.0
  0
LINE
  5
3A0
330
1F
100
AcDbEntity
  8
1
  6
Continuous
 62
     7
370
     9
100
AcDbLine
 10
450.5654692567999
 20
-412.8478767641666
 30
0.0
 11
451.3719524220336
 21
-412.8478767641666
 31
0.0
  0
LINE
  5
3A1
330
1F
100
AcDbEntity
  8
1
  6
Continuous
 62
     7
370
     9
100
AcDbLine
 10
446.2829481715002
 20
-412.8478767641666
 30
0.0
 11
446.9556497388002
 21
-412.8478767641666
 31
0.0
  0
LINE
  5
3A2
330
1F
100
AcDbEntity
  8
1
  6
Continuous
 62
     7
370
     9
100
AcDbLine
 10
450.7374825201001
 20
-413.1812100975001
 30
0.0
 11
451.0713401044338
 21
-413.1812100975001
 31
0.0
  0
LINE
  5
3A3
330
1F
100
AcDbEntity
  8
1
  6
Continuous
 62
     7
370
     9
100
AcDbLine
 10
462.2303204779673
 20
-407.6827571285667
 30
0.0
 11
462.9007078155327
 21
-407.6827571285667
 31
0.0
  0
LINE
  5
3A4
330
1F
100
AcDbEntity
  8
1
  6
Continuous
 62
     7
370
     9
100
AcDbLine
 10
459.3628895087672
 20
-407.6827571285667
 30
0.0
 11
460.0286543885667
 21
-407.6827571285667
 31
0.0
  0
LINE
  5
3A5
330
1F
100
AcDbEntity
  8
1
  6
Continuous
 62
     7
370
     9
100
AcDbLine
 10
462.2182722851996
 20
-408.0160904619001
 30
0.0
 11
462.9127560083003
 21
-408.0160904619001
 31
0.0
  0
LINE
  5
3A6
330
1F
100
AcDbEntity
  8
1
  6
Continuous
 62
     7
370
     9
100
AcDbLine
 10
459.3528895087664
 20
-408.0160904619001
 30
0.0
 11
460.0386543885675
 21
-408.0160904619001
 31
0.0
  0
LINE
  5
3A7
330
1F
100
AcDbEntity
  8
1
  6
Continuous
 62
     7
370
     9
100
AcDbLine
 10
462.2062240924333
 20
-408.3494237952332
 30
0.0
 11
462.924804201101
 21
-408.3494237952332
 31
0.0
  0
LINE
  5
3A8
330
1F
100
AcDbEntity
  8
1
  6
Continuous
 62
     7
370
     9
100
AcDbLine
 10
458.2751477967
 20
-408.3494237952332
 30
0.0
 11
461.104200507866
 21
-408.3494237952332
 31
0.0
  0
LINE
  5
3A9
330
1F
100
AcDbEntity
  8
1
  6
Continuous
 62
     7
370
     9
100
AcDbLine
 10
462.1941758996657
 20
-408.6827571285667
 30
0.0
 11
462.9368523938663
 21
-408.6827571285667
 31
0.0
  0
LINE
  5
3AA
330
1F
100
AcDbEntity
  8
1
  6
Continuous
 62
     7
370
     9
100
AcDbLine
 10
458.2751477967
 20
-408.6827571285667
 30
0.0
 11
461.0321772925323
 21
-408.6827571285667
 31
0.0
  0
LINE
  5
3AB
330
1F
100
AcDbEntity
  8
1
  6
Continuous
 62
     7
370
     9
100
AcDbLine
 10
462.1431054992
 20
-409.0160904619001
 30
0.0
 11
462.987922794333
 21
-409.0160904619001
 31
0.0
  0
LINE
  5
3AC
330
1F
100
AcDbEntity
  8
1
  6
Continuous
 62
     7
370
     9
100
AcDbLine
 10
460.2835381511332
 20
-409.0160904619001
 30
0.0
 11
460.934910922733
 21
-409.0160904619001
 31
0.0
  0
LINE
  5
3AD
330
1F
100
AcDbEntity
  8
1
  6
Continuous
 62
     7
370
     9
100
AcDbLine
 10
461.0838316501674
 20
-409.3494237952333
 30
0.0
 11
464.0471966433669
 21
-409.3494237952333
 31
0.0
  0
LINE
  5
3AE
330
1F
100
AcDbEntity
  8
1
  6
Continuous
 62
     7
370
     9
100
AcDbLine
 10
460.1292016556657
 20
-409.3494237952333
 30
0.0
 11
460.8107539720333
 21
-409.3494237952333
 31
0.0
  0
LINE
  5
3AF
330
1F
100
AcDbEntity
  8
1
  6
Continuous
 62
     7
370
     9
100
AcDbLine
 10
462.0419276945992
 20
-409.6827571285668
 30
0.0
 11
463.0891005989008
 21
-409.6827571285668
 31
0.0
  0
LINE
  5
3B0
330
1F
100
AcDbEntity
  8
1
  6
Continuous
 62
     7
370
     9
100
AcDbLine
 10
459.9184337915665
 20
-409.6827571285668
 30
0.0
 11
460.6573869343657
 21
-409.6827571285668
 31
0.0
  0
LINE
  5
3B1
330
1F
100
AcDbEntity
  8
1
  6
Continuous
 62
     7
370
     9
100
AcDbLine
 10
462.1459831285987
 20
-410.0160904619001
 30
0.0
 11
462.9850451649331
 21
-410.0160904619001
 31
0.0
  0
LINE
  5
3B2
330
1F
100
AcDbEntity
  8
1
  6
Continuous
 62
     7
370
     9
100
AcDbLine
 10
459.6606323840335
 20
-410.0160904619001
 30
0.0
 11
460.8164020929672
 21
-410.0160904619001
 31
0.0
  0
LINE
  5
3B3
330
1F
100
AcDbEntity
  8
1
  6
Continuous
 62
     7
370
     9
100
AcDbLine
 10
462.1339349358004
 20
-410.3494237952333
 30
0.0
 11
462.9970933576996
 21
-410.3494237952333
 31
0.0
  0
LINE
  5
3B4
330
1F
100
AcDbEntity
  8
1
  6
Continuous
 62
     7
370
     9
100
AcDbLine
 10
459.3435595620667
 20
-410.3494237952333
 30
0.0
 11
461.2924514285667
 21
-410.3494237952333
 31
0.0
  0
LINE
  5
3B5
330
1F
100
AcDbEntity
  8
1
  6
Continuous
 62
     7
370
     9
100
AcDbLine
 10
462.1218867430327
 20
-410.6827571285668
 30
0.0
 11
463.0091415504991
 21
-410.6827571285668
 31
0.0
  0
LINE
  5
3B6
330
1F
100
AcDbEntity
  8
1
  6
Continuous
 62
     7
370
     9
100
AcDbLine
 10
460.5491991709659
 20
-410.6827571285668
 30
0.0
 11
461.4417304835993
 21
-410.6827571285668
 31
0.0
  0
LINE
  5
3B7
330
1F
100
AcDbEntity
  8
1
  6
Continuous
 62
     7
370
     9
100
AcDbLine
 10
458.9453542322674
 20
-410.6827571285668
 30
0.0
 11
460.1220117658657
 21
-410.6827571285668
 31
0.0
  0
LINE
  5
3B8
330
1F
100
AcDbEntity
  8
1
  6
Continuous
 62
     7
370
     9
100
AcDbLine
 10
462.1098385502675
 20
-411.0160904619
 30
0.0
 11
463.0211897432667
 21
-411.0160904619
 31
0.0
  0
LINE
  5
3B9
330
1F
100
AcDbEntity
  8
1
  6
Continuous
 62
     7
370
     9
100
AcDbLine
 10
461.0624874922335
 20
-411.0160904619
 30
0.0
 11
461.3118871937003
 21
-411.0160904619
 31
0.0
  0
LINE
  5
3BA
330
1F
100
AcDbEntity
  8
1
  6
Continuous
 62
     7
370
     9
100
AcDbLine
 10
458.4190870921658
 20
-411.0160904619
 30
0.0
 11
460.1286543885665
 21
-411.0160904619
 31
0.0
  0
LINE
  5
3BB
330
1F
100
AcDbEntity
  8
1
  6
Continuous
 62
     7
370
     9
100
AcDbLine
 10
462.0977903574999
 20
-411.3494237952333
 30
0.0
 11
463.0332379360332
 21
-411.3494237952333
 31
0.0
  0
LINE
  5
3BC
330
1F
100
AcDbEntity
  8
1
  6
Continuous
 62
     7
370
     9
100
AcDbLine
 10
457.622641856133
 20
-411.3494237952333
 30
0.0
 11
460.1386543885673
 21
-411.3494237952333
 31
0.0
  0
LINE
  5
3BD
330
1F
100
AcDbEntity
  8
1
  6
Continuous
 62
     7
370
     9
100
AcDbLine
 10
462.0857421647335
 20
-411.6827571285668
 30
0.0
 11
463.0452861288007
 21
-411.6827571285668
 31
0.0
  0
LINE
  5
3BE
330
1F
100
AcDbEntity
  8
1
  6
Continuous
 62
     7
370
     9
100
AcDbLine
 10
459.2425691306003
 20
-411.6827571285668
 30
0.0
 11
460.1486543885669
 21
-411.6827571285668
 31
0.0
  0
LINE
  5
3BF
330
1F
100
AcDbEntity
  8
1
  6
Continuous
 62
     7
370
     9
100
AcDbLine
 10
458.0615859334
 20
-411.6827571285668
 30
0.0
 11
458.7660073414996
 21
-411.6827571285668
 31
0.0
  0
LINE
  5
3C0
330
1F
100
AcDbEntity
  8
1
  6
Continuous
 62
     7
370
     9
100
AcDbLine
 10
462.073693971966
 20
-412.0160904619
 30
0.0
 11
463.057334321566
 21
-412.0160904619
 31
0.0
  0
LINE
  5
3C1
330
1F
100
AcDbEntity
  8
1
  6
Continuous
 62
     7
370
     9
100
AcDbLine
 10
459.2328895087662
 20
-412.0160904619
 30
0.0
 11
460.1586543885665
 21
-412.0160904619
 31
0.0
  0
LINE
  5
3C2
330
1F
100
AcDbEntity
  8
1
  6
Continuous
 62
     7
370
     9
100
AcDbLine
 10
461.8923102026674
 20
-412.3494237952334
 30
0.0
 11
463.2387180908669
 21
-412.3494237952334
 31
0.0
  0
LINE
  5
3C3
330
1F
100
AcDbEntity
  8
1
  6
Continuous
 62
     7
370
     9
100
AcDbLine
 10
459.2228895087666
 20
-412.3494237952334
 30
0.0
 11
460.168654388533
 21
-412.3494237952334
 31
0.0
  0
LINE
  5
3C4
330
1F
100
AcDbEntity
  8
1
  6
Continuous
 62
     7
370
     9
100
AcDbLine
 10
460.595364893033
 20
-412.6827571285669
 30
0.0
 11
464.5356634005
 21
-412.6827571285669
 31
0.0
  0
LINE
  5
3C5
330
1F
100
AcDbEntity
  8
1
  6
Continuous
 62
     7
370
     9
100
AcDbLine
 10
459.212889508767
 20
-412.6827571285669
 30
0.0
 11
460.1786543885337
 21
-412.6827571285669
 31
0.0
  0
LINE
  5
3C6
330
1F
100
AcDbEntity
  8
1
  6
Continuous
 62
     7
370
     9
100
AcDbLine
 10
460.595364893033
 20
-413.0160904619
 30
0.0
 11
464.5356634005
 21
-413.0160904619
 31
0.0
  0
LINE
  5
3C7
330
1F
100
AcDbEntity
  8
1
  6
Continuous
 62
     7
370
     9
100
AcDbLine
 10
459.2028895087662
 20
-413.0160904619
 30
0.0
 11
460.1886543885335
 21
-413.0160904619
 31
0.0
  0
LINE
  5
3C8
330
1F
100
AcDbEntity
  8
1
  6
Continuous
 62
     7
370
     9
100
AcDbLine
 10
459.1928895087665
 20
-413.3494237952335
 30
0.0
 11
460.198654388533
 21
-413.3494237952335
 31
0.0
  0
ENDSEC
  0
SECTION
  2
OBJECTS
  0
DICTIONARY
  5
C
330
0
100
AcDbDictionary
281
     1
  3
ACAD_DETAILVIEWSTYLE
350
3D0
  3
ACAD_GROUP
350
D
  3
ACAD_LAYOUT
350
1A
  3
ACAD_MATERIAL
350
43
  3
ACAD_MLEADERSTYLE
350
6B
  3
ACAD_MLINESTYLE
350
17
  3
ACAD_PLOTSETTINGS
350
19
  3
ACAD_PLOTSTYLENAME
350
E
  3
ACAD_SCALELIST
350
47
  3
ACAD_SECTIONVIEWSTYLE
350
3D1
  3
ACAD_TABLESTYLE
350
69
  3
ACAD_VISUALSTYLE
350
2A
  3
ACDB_RECOMPOSE_DATA
350
3CD
  3
AcDbVariableDictionary
350
3C9
  0
SUN
  5
6D
330
29
100
AcDbSun
 90
        1
290
     0
 63
     7
421
 16777215
 40
1.0
291
     1
 91
  2455826
 92
 54000000
292
     0
 70
     2
 71
   256
280
     1
  0
DICTIONARY
  5
3D0
102
{ACAD_REACTORS
330
C
102
}
330
C
100
AcDbDictionary
281
     1
  0
DICTIONARY
  5
D
102
{ACAD_REACTORS
330
C
102
}
330
C
100
AcDbDictionary
281
     1
  0
DICTIONARY
  5
1A
102
{ACAD_REACTORS
330
C
102
}
330
C
100
AcDbDictionary
281
     1
  3
Layout1
350
1E
  3
Layout2
350
26
  3
Model
350
22
  0
DICTIONARY
  5
43
102
{ACAD_REACTORS
330
C
102
}
330
C
100
AcDbDictionary
281
     1
  3
ByBlock
350
45
  3
ByLayer
350
44
  3
Global
350
46
  0
DICTIONARY
  5
6B
102
{ACAD_REACTORS
330
C
102
}
330
C
100
AcDbDictionary
281
     1
  3
Standard
350
6C
  0
DICTIONARY
  5
17
102
{ACAD_REACTORS
330
C
102
}
330
C
100
AcDbDictionary
281
     1
  3
Standard
350
18
  0
DICTIONARY
  5
19
102
{ACAD_REACTORS
330
C
102
}
330
C
100
AcDbDictionary
281
     1
  0
ACDBDICTIONARYWDFLT
  5
E
102
{ACAD_REACTORS
330
C
102
}
330
C
100
AcDbDictionary
281
     1
  3
Normal
350
F
100
AcDbDictionaryWithDefault
340
F
  0
DICTIONARY
  5
47
102
{ACAD_REACTORS
330
C
102
}
330
C
100
AcDbDictionary
281
     1
  3
A0
350
48
  3
A1
350
49
  3
A2
350
4A
  3
A3
350
4B
  3
A4
350
4C
  3
A5
350
4D
  3
A6
350
4E
  3
A7
350
4F
  3
A8
350
50
  3
A9
350
51
  3
B0
350
52
  3
B1
350
53
  3
B2
350
54
  3
B3
350
55
  3
B4
350
56
  3
B5
350
57
  3
B6
350
58
  3
B7
350
59
  3
B8
350
5A
  3
B9
350
5B
  3
C0
350
5C
  3
C1
350
5D
  3
C2
350
5E
  3
C3
350
5F
  3
C4
350
60
  3
C5
350
61
  3
C6
350
62
  3
C7
350
63
  3
C8
350
64
  3
C9
350
65
  3
D0
350
66
  3
D1
350
67
  3
D2
350
68
  0
DICTIONARY
  5
3D1
102
{ACAD_REACTORS
330
C
102
}
330
C
100
AcDbDictionary
281
     1
  0
DICTIONARY
  5
69
102
{ACAD_REACTORS
330
C
102
}
330
C
100
AcDbDictionary
281
     1
  3
Standard
350
6A
  0
DICTIONARY
  5
2A
102
{ACAD_REACTORS
330
C
102
}
330
C
100
AcDbDictionary
281
     1
  3
2dWireframe
350
2F
  3
Basic
350
32
  3
Brighten
350
36
  3
ColorChange
350
3A
  3
Conceptual
350
34
  3
Dim
350
35
  3
EdgeColorOff
350
3D
  3
Facepattern
350
39
  3
Flat
350
2B
  3
FlatWithEdges
350
2C
  3
Gouraud
350
2D
  3
GouraudWithEdges
350
2E
  3
Hidden
350
31
  3
JitterOff
350
3B
  3
Linepattern
350
38
  3
OverhangOff
350
3C
  3
Realistic
350
33
  3
Shaded
350
42
  3
Shaded with edges
350
41
  3
Shades of Gray
350
3E
  3
Sketchy
350
3F
  3
Thicken
350
37
  3
Wireframe
350
30
  3
X-Ray
350
40
  0
XRECORD
  5
3CD
102
{ACAD_REACTORS
330
C
102
}
330
C
100
AcDbXrecord
280
     1
 90
        1
330
6A
  0
DICTIONARY
  5
3C9
102
{ACAD_REACTORS
330
C
102
}
330
C
100
AcDbDictionary
281
     1
  3
CANNOSCALE
350
3CA
  3
CMLEADERSTYLE
350
3CF
  3
CTABLESTYLE
350
3CE
  0
LAYOUT
  5
1E
102
{ACAD_REACTORS
330
1A
102
}
330
1A
100
AcDbPlotSettings
  1

  2
none_device
  4

  6

 40
0.0
 41
0.0
 42
0.0
 43
0.0
 44
0.0
 45
0.0
 46
0.0
 47
0.0
 48
0.0
 49
0.0
140
0.0
141
0.0
142
1.0
143
1.0
 70
   688
 72
     0
 73
     0
 74
     5
  7

 75
    16
 76
     0
 77
     2
 78
   300
147
1.0
148
0.0
149
0.0
100
AcDbLayout
  1
Layout1
 70
     1
 71
     1
 10
0.0
 20
0.0
 11
12.0
 21
9.0
 12
0.0
 22
0.0
 32
0.0
 14
1.000000000000000E+20
 24
1.000000000000000E+20
 34
1.000000000000000E+20
 15
-1.000000000000000E+20
 25
-1.000000000000000E+20
 35
-1.000000000000000E+20
146
0.0
 13
0.0
 23
0.0
 33
0.0
 16
1.0
 26
0.0
 36
0.0
 17
0.0
 27
1.0
 37
0.0
 76
     0
330
1B
  0
LAYOUT
  5
26
102
{ACAD_REACTORS
330
1A
102
}
330
1A
100
AcDbPlotSettings
  1

  2
none_device
  4

  6

 40
0.0
 41
0.0
 42
0.0
 43
0.0
 44
0.0
 45
0.0
 46
0.0
 47
0.0
 48
0.0
 49
0.0
140
0.0
141
0.0
142
1.0
143
1.0
 70
   688
 72
     0
 73
     0
 74
     5
  7

 75
    16
 76
     0
 77
     2
 78
   300
147
1.0
148
0.0
149
0.0
100
AcDbLayout
  1
Layout2
 70
     1
 71
     2
 10
0.0
 20
0.0
 11
0.0
 21
0.0
 12
0.0
 22
0.0
 32
0.0
 14
0.0
 24
0.0
 34
0.0
 15
0.0
 25
0.0
 35
0.0
146
0.0
 13
0.0
 23
0.0
 33
0.0
 16
1.0
 26
0.0
 36
0.0
 17
0.0
 27
1.0
 37
0.0
 76
     0
330
23
  0
LAYOUT
  5
22
102
{ACAD_REACTORS
330
1A
102
}
330
1A
100
AcDbPlotSettings
  1

  2
none_device
  4
Letter_(8.50_x_11.00_Inches)
  6

 40
6.35
 41
6.35
 42
6.35000508
 43
6.35000508
 44
215.9
 45
279.4
 46
0.0
 47
0.0
 48
0.0
 49
0.0
140
0.0
141
0.0
142
1.0
143
1.0
 70
  1712
 72
     0
 73
     0
 74
     0
  7

 75
     0
 76
     0
 77
     2
 78
   300
147
1.0
148
0.0
149
0.0
100
AcDbLayout
  1
Model
 70
     1
 71
     0
 10
0.0
 20
0.0
 11
12.0
 21
9.0
 12
0.0
 22
0.0
 32
0.0
 14
280.0500000000001
 24
-431.0000000002002
 34
0.0
 15
489.95
 25
-55.14362724070303
 35
0.0
146
0.0
 13
0.0
 23
0.0
 33
0.0
 16
1.0
 26
0.0
 36
0.0
 17
0.0
 27
1.0
 37
0.0
 76
     0
330
1F
331
29
  0
MATERIAL
  5
45
102
{ACAD_REACTORS
330
43
102
}
330
43
100
AcDbMaterial
  1
ByBlock
 72
     1
 94
      127
  0
MATERIAL
  5
44
102
{ACAD_REACTORS
330
43
102
}
330
43
100
AcDbMaterial
  1
ByLayer
 72
     1
 94
      127
  0
MATERIAL
  5
46
102
{ACAD_REACTORS
330
43
102
}
330
43
100
AcDbMaterial
  1
Global
 72
     1
 94
      127
  0
MLEADERSTYLE
  5
6C
102
{ACAD_REACTORS
330
6B
102
}
330
6B
100
AcDbMLeaderStyle
179
     2
170
     2
171
     1
172
     0
 90
        2
 40
0.0
 41
0.0
173
     1
 91
-1056964608
340
14
 92
       -2
290
     1
 42
0.09
291
     1
 43
0.36
  3
Standard
341
0
 44
0.18
300

342
11
174
     1
178
     6
175
     1
176
     0
 93
-1056964608
 45
0.18
292
     0
297
     0
 46
0.18
343
0
 94
-1056964608
 47
1.0
 49
1.0
140
1.0
293
     1
141
0.0
294
     1
177
     0
142
1.0
295
     0
296
     0
143
0.125
271
     0
272
     9
273
     9
298
     0
  0
MLINESTYLE
  5
18
102
{ACAD_REACTORS
330
17
102
}
330
17
100
AcDbMlineStyle
  2
Standard
 70
     0
  3

 62
   256
 51
90.0
 52
90.0
 71
     2
 49
0.5
 62
   256
  6
BYLAYER
 49
-0.5
 62
   256
  6
BYLAYER
  0
ACDBPLACEHOLDER
  5
F
102
{ACAD_REACTORS
330
E
102
}
330
E
  0
SCALE
  5
48
102
{ACAD_REACTORS
330
47
102
}
330
47
100
AcDbScale
 70
     0
300
1:1
140
1.0
141
1.0
290
     1
  0
SCALE
  5
49
102
{ACAD_REACTORS
330
47
102
}
330
47
100
AcDbScale
 70
     0
300
1:2
140
1.0
141
2.0
290
     0
  0
SCALE
  5
4A
102
{ACAD_REACTORS
330
47
102
}
330
47
100
AcDbScale
 70
     0
300
1:4
140
1.0
141
4.0
290
     0
  0
SCALE
  5
4B
102
{ACAD_REACTORS
330
47
102
}
330
47
100
AcDbScale
 70
     0
300
1:5
140
1.0
141
5.0
290
     0
  0
SCALE
  5
4C
102
{ACAD_REACTORS
330
47
102
}
330
47
100
AcDbScale
 70
     0
300
1:8
140
1.0
141
8.0
290
     0
  0
SCALE
  5
4D
102
{ACAD_REACTORS
330
47
102
}
330
47
100
AcDbScale
 70
     0
300
1:10
140
1.0
141
10.0
290
     0
  0
SCALE
  5
4E
102
{ACAD_REACTORS
330
47
102
}
330
47
100
AcDbScale
 70
     0
300
1:16
140
1.0
141
16.0
290
     0
  0
SCALE
  5
4F
102
{ACAD_REACTORS
330
47
102
}
330
47
100
AcDbScale
 70
     0
300
1:20
140
1.0
141
20.0
290
     0
  0
SCALE
  5
50
102
{ACAD_REACTORS
330
47
102
}
330
47
100
AcDbScale
 70
     0
300
1:30
140
1.0
141
30.0
290
     0
  0
SCALE
  5
51
102
{ACAD_REACTORS
330
47
102
}
330
47
100
AcDbScale
 70
     0
300
1:40
140
1.0
141
40.0
290
     0
  0
SCALE
  5
52
102
{ACAD_REACTORS
330
47
102
}
330
47
100
AcDbScale
 70
     0
300
1:50
140
1.0
141
50.0
290
     0
  0
SCALE
  5
53
102
{ACAD_REACTORS
330
47
102
}
330
47
100
AcDbScale
 70
     0
300
1:100
140
1.0
141
100.0
290
     0
  0
SCALE
  5
54
102
{ACAD_REACTORS
330
47
102
}
330
47
100
AcDbScale
 70
     0
300
2:1
140
2.0
141
1.0
290
     0
  0
SCALE
  5
55
102
{ACAD_REACTORS
330
47
102
}
330
47
100
AcDbScale
 70
     0
300
4:1
140
4.0
141
1.0
290
     0
  0
SCALE
  5
56
102
{ACAD_REACTORS
330
47
102
}
330
47
100
AcDbScale
 70
     0
300
8:1
140
8.0
141
1.0
290
     0
  0
SCALE
  5
57
102
{ACAD_REACTORS
330
47
102
}
330
47
100
AcDbScale
 70
     0
300
10:1
140
10.0
141
1.0
290
     0
  0
SCALE
  5
58
102
{ACAD_REACTORS
330
47
102
}
330
47
100
AcDbScale
 70
     0
300
100:1
140
100.0
141
1.0
290
     0
  0
SCALE
  5
59
102
{ACAD_REACTORS
330
47
102
}
330
47
100
AcDbScale
 70
     0
300
1/128" = 1'-0"
140
0.0078125
141
12.0
290
     0
  0
SCALE
  5
5A
102
{ACAD_REACTORS
330
47
102
}
330
47
100
AcDbScale
 70
     0
300
1/64" = 1'-0"
140
0.015625
141
12.0
290
     0
  0
SCALE
  5
5B
102
{ACAD_REACTORS
330
47
102
}
330
47
100
AcDbScale
 70
     0
300
1/32" = 1'-0"
140
0.03125
141
12.0
290
     0
  0
SCALE
  5
5C
102
{ACAD_REACTORS
330
47
102
}
330
47
100
AcDbScale
 70
     0
300
1/16" = 1'-0"
140
0.0625
141
12.0
290
     0
  0
SCALE
  5
5D
102
{ACAD_REACTORS
330
47
102
}
330
47
100
AcDbScale
 70
     0
300
3/32" = 1'-0"
140
0.09375
141
12.0
290
     0
  0
SCALE
  5
5E
102
{ACAD_REACTORS
330
47
102
}
330
47
100
AcDbScale
 70
     0
300
1/8" = 1'-0"
140
0.125
141
12.0
290
     0
  0
SCALE
  5
5F
102
{ACAD_REACTORS
330
47
102
}
330
47
100
AcDbScale
 70
     0
300
3/16" = 1'-0"
140
0.1875
141
12.0
290
     0
  0
SCALE
  5
60
102
{ACAD_REACTORS
330
47
102
}
330
47
100
AcDbScale
 70
     0
300
1/4" = 1'-0"
140
0.25
141
12.0
290
     0
  0
SCALE
  5
61
102
{ACAD_REACTORS
330
47
102
}
330
47
100
AcDbScale
 70
     0
300
3/8" = 1'-0"
140
0.375
141
12.0
290
     0
  0
SCALE
  5
62
102
{ACAD_REACTORS
330
47
102
}
330
47
100
AcDbScale
 70
     0
300
1/2" = 1'-0"
140
0.5
141
12.0
290
     0
  0
SCALE
  5
63
102
{ACAD_REACTORS
330
47
102
}
330
47
100
AcDbScale
 70
     0
300
3/4" = 1'-0"
140
0.75
141
12.0
290
     0
  0
SCALE
  5
64
102
{ACAD_REACTORS
330
47
102
}
330
47
100
AcDbScale
 70
     0
300
1" = 1'-0"
140
1.0
141
12.0
290
     0
  0
SCALE
  5
65
102
{ACAD_REACTORS
330
47
102
}
330
47
100
AcDbScale
 70
     0
300
1-1/2" = 1'-0"
140
1.5
141
12.0
290
     0
  0
SCALE
  5
66
102
{ACAD_REACTORS
330
47
102
}
330
47
100
AcDbScale
 70
     0
300
3" = 1'-0"
140
3.0
141
12.0
290
     0
  0
SCALE
  5
67
102
{ACAD_REACTORS
330
47
102
}
330
47
100
AcDbScale
 70
     0
300
6" = 1'-0"
140
6.0
141
12.0
290
     0
  0
SCALE
  5
68
102
{ACAD_REACTORS
330
47
102
}
330
47
100
AcDbScale
 70
     0
300
1'-0" = 1'-0"
140
12.0
141
12.0
290
     0
  0
TABLESTYLE
  5
6A
102
{ACAD_REACTORS
330
69
102
}
102
{ACAD_XDICTIONARY
360
3CB
102
}
330
69
100
AcDbTableStyle
  3
Standard
 70
     0
 71
     0
 40
0.06
 41
0.06
280
     0
281
     0
  7
Standard
140
0.18
170
     2
 62
     0
 63
   257
283
     0
 90
        4
 91
        0
  1

274
    -2
284
     1
 64
     0
275
    -2
285
     1
 65
     0
276
    -2
286
     1
 66
     0
277
    -2
287
     1
 67
     0
278
    -2
288
     1
 68
     0
279
    -2
289
     1
 69
     0
  7
Standard
140
0.25
170
     5
 62
     0
 63
   257
283
     0
 90
        4
 91
        0
  1

274
    -2
284
     1
 64
     0
275
    -2
285
     1
 65
     0
276
    -2
286
     1
 66
     0
277
    -2
287
     1
 67
     0
278
    -2
288
     1
 68
     0
279
    -2
289
     1
 69
     0
  7
Standard
140
0.18
170
     5
 62
     0
 63
   257
283
     0
 90
        4
 91
        0
  1

274
    -2
284
     1
 64
     0
275
    -2
285
     1
 65
     0
276
    -2
286
     1
 66
     0
277
    -2
287
     1
 67
     0
278
    -2
288
     1
 68
     0
279
    -2
289
     1
 69
     0
  0
VISUALSTYLE
  5
2F
102
{ACAD_REACTORS
330
2A
102
}
330
2A
100
AcDbVisualStyle
  2
2dWireframe
 70
     4
177
     3
291
     0
 70
    58
 90
        0
176
     1
 90
        2
176
     1
 90
        0
176
     1
 90
        0
176
     1
 40
0.6
176
     1
 40
30.0
176
     1
 62
     7
420
 16777215
176
     1
 90
        1
176
     1
 90
        4
176
     1
 62
     7
176
     1
 62
   257
176
     1
 90
        1
176
     1
 90
        1
176
     1
 40
1.0
176
     1
 90
        0
176
     1
 62
   257
176
     1
 40
1.0
176
     1
 90
        1
176
     1
 90
        6
176
     1
 90
        2
176
     1
 62
     7
176
     1
 90
        5
176
     1
 90
        0
176
     1
 90
        0
176
     1
290
     0
176
     1
 90
        1
176
     1
 40
0.0
176
     1
 90
        0
176
     1
290
     1
176
     1
290
     1
176
     1
290
     0
176
     1
290
     0
176
     1
290
     0
176
     1
290
     0
176
     1
290
     0
176
     1
290
     0
176
     1
290
     0
176
     1
 90
       50
176
     1
 40
0.0
176
     1
 40
1.0
176
     1
 90
        0
176
     1
 62
    18
420
        0
176
     1
 90
       50
176
     1
 90
        3
176
     1
 62
     5
420
      255
176
     1
290
     0
176
     1
 90
       50
176
     1
 90
       50
176
     1
 90
       50
176
     1
290
     0
176
     1
 90
       50
176
     1
 62
   256
176
     0
 40
1.0
176
     0
 90
        2
176
     1
  1
strokes_ogs.tif
176
     1
290
     0
176
     1
 40
1.0
176
     1
 40
1.0
176
     1
  0
VISUALSTYLE
  5
32
102
{ACAD_REACTORS
330
2A
102
}
330
2A
100
AcDbVisualStyle
  2
Basic
 70
     7
177
     3
291
     1
 70
    58
 90
        1
176
     1
 90
        0
176
     1
 90
        1
176
     1
 90
        0
176
     1
 40
0.6
176
     1
 40
30.0
176
     1
 62
     7
420
 16777215
176
     1
 90
        0
176
     1
 90
        4
176
     1
 62
     7
176
     1
 62
   257
176
     1
 90
        1
176
     1
 90
        1
176
     1
 40
1.0
176
     1
 90
        8
176
     1
 62
     7
176
     1
 40
1.0
176
     1
 90
        1
176
     1
 90
        6
176
     1
 90
        2
176
     1
 62
     7
176
     1
 90
        5
176
     1
 90
        0
176
     1
 90
        0
176
     1
290
     0
176
     1
 90
        1
176
     1
 40
0.0
176
     1
 90
        0
176
     1
290
     0
176
     1
290
     1
176
     1
290
     1
176
     1
290
     0
176
     1
290
     0
176
     1
290
     0
176
     1
290
     0
176
     1
290
     0
176
     1
290
     0
176
     1
 90
       50
176
     1
 40
0.0
176
     1
 40
1.0
176
     1
 90
        0
176
     1
 62
    18
420
        0
176
     1
 90
       50
176
     1
 90
        3
176
     1
 62
     5
420
      255
176
     1
290
     0
176
     1
 90
       50
176
     1
 90
       50
176
     1
 90
       50
176
     1
290
     0
176
     1
 90
       50
176
     1
 62
   256
176
     0
 40
1.0
176
     0
 90
        2
176
     1
  1
strokes_ogs.tif
176
     1
290
     0
176
     1
 40
1.0
176
     1
 40
1.0
176
     1
  0
VISUALSTYLE
  5
36
102
{ACAD_REACTORS
330
2A
102
}
330
2A
100
AcDbVisualStyle
  2
Brighten
 70
    12
177
     3
291
     1
 70
    58
 90
        2
176
     1
 90
        2
176
     1
 90
        0
176
     1
 90
        0
176
     1
 40
0.6
176
     1
 40
30.0
176
     1
 62
     7
420
 16777215
176
     1
 90
        1
176
     1
 90
        4
176
     1
 62
     7
176
     1
 62
   257
176
     1
 90
        1
176
     1
 90
        1
176
     1
 40
1.0
176
     1
 90
        8
176
     1
 62
     7
176
     1
 40
1.0
176
     1
 90
        1
176
     1
 90
        6
176
     1
 90
        2
176
     1
 62
     7
176
     1
 90
        5
176
     1
 90
        0
176
     1
 90
        0
176
     1
290
     0
176
     1
 90
        1
176
     1
 40
50.0
176
     1
 90
        0
176
     1
290
     0
176
     1
290
     1
176
     1
290
     1
176
     1
290
     0
176
     1
290
     0
176
     1
290
     0
176
     1
290
     0
176
     1
290
     0
176
     1
290
     0
176
     1
 90
       50
176
     1
 40
0.0
176
     1
 40
1.0
176
     1
 90
        0
176
     1
 62
    18
420
        0
176
     1
 90
       50
176
     1
 90
        3
176
     1
 62
     5
420
      255
176
     1
290
     0
176
     1
 90
       50
176
     1
 90
       50
176
     1
 90
       50
176
     1
290
     0
176
     1
 90
       50
176
     1
 62
   256
176
     0
 40
1.0
176
     0
 90
        2
176
     1
  1
strokes_ogs.tif
176
     1
290
     0
176
     1
 40
1.0
176
     1
 40
1.0
176
     1
  0
VISUALSTYLE
  5
3A
102
{ACAD_REACTORS
330
2A
102
}
330
2A
100
AcDbVisualStyle
  2
ColorChange
 70
    16
177
     3
291
     1
 70
    58
 90
        2
176
     1
 90
        2
176
     1
 90
        3
176
     1
 90
        0
176
     1
 40
0.6
176
     1
 40
30.0
176
     1
 62
     8
420
  8421504
176
     1
 90
        1
176
     1
 90
        4
176
     1
 62
     7
176
     1
 62
   257
176
     1
 90
        1
176
     1
 90
        1
176
     1
 40
1.0
176
     1
 90
        8
176
     1
 62
     8
420
  8421504
176
     1
 40
1.0
176
     1
 90
        1
176
     1
 90
        6
176
     1
 90
        2
176
     1
 62
     7
176
     1
 90
        5
176
     1
 90
        0
176
     1
 90
        0
176
     1
290
     0
176
     1
 90
        1
176
     1
 40
0.0
176
     1
 90
        0
176
     1
290
     0
176
     1
290
     1
176
     1
290
     1
176
     1
290
     0
176
     1
290
     0
176
     1
290
     0
176
     1
290
     0
176
     1
290
     0
176
     1
290
     0
176
     1
 90
       50
176
     1
 40
0.0
176
     1
 40
1.0
176
     1
 90
        0
176
     1
 62
    18
420
        0
176
     1
 90
       50
176
     1
 90
        3
176
     1
 62
     5
420
      255
176
     1
290
     0
176
     1
 90
       50
176
     1
 90
       50
176
     1
 90
       50
176
     1
290
     0
176
     1
 90
       50
176
     1
 62
   256
176
     0
 40
1.0
176
     0
 90
        2
176
     1
  1
strokes_ogs.tif
176
     1
290
     0
176
     1
 40
1.0
176
     1
 40
1.0
176
     1
  0
VISUALSTYLE
  5
34
102
{ACAD_REACTORS
330
2A
102
}
330
2A
100
AcDbVisualStyle
  2
Conceptual
 70
     9
177
     3
291
     0
 70
    58
 90
        3
176
     1
 90
        2
176
     1
 90
        0
176
     1
 90
        0
176
     1
 40
0.6
176
     1
 40
30.0
176
     1
 62
     7
420
 16777215
176
     1
 90
        2
176
     1
 90
        2
176
     1
 62
     7
176
     1
 62
   257
176
     1
 90
        1
176
     1
 90
        1
176
     1
 40
179.0
176
     1
 90
        8
176
     1
 62
     7
176
     1
 40
1.0
176
     1
 90
        1
176
     1
 90
        6
176
     1
 90
        2
176
     1
 62
     7
176
     1
 90
        3
176
     1
 90
        0
176
     1
 90
        0
176
     1
290
     0
176
     1
 90
        1
176
     1
 40
0.0
176
     1
 90
        0
176
     1
290
     0
176
     1
290
     1
176
     1
290
     1
176
     1
290
     0
176
     1
290
     0
176
     1
290
     0
176
     1
290
     0
176
     1
290
     0
176
     1
290
     0
176
     1
 90
       50
176
     1
 40
0.0
176
     1
 40
1.0
176
     1
 90
        0
176
     1
 62
    18
420
        0
176
     1
 90
       50
176
     1
 90
        3
176
     1
 62
     5
420
      255
176
     1
290
     0
176
     1
 90
       50
176
     1
 90
       50
176
     1
 90
       50
176
     1
290
     0
176
     1
 90
       50
176
     1
 62
   256
176
     0
 40
1.0
176
     0
 90
        2
176
     1
  1
strokes_ogs.tif
176
     1
290
     0
176
     1
 40
1.0
176
     1
 40
1.0
176
     1
  0
VISUALSTYLE
  5
35
102
{ACAD_REACTORS
330
2A
102
}
330
2A
100
AcDbVisualStyle
  2
Dim
 70
    11
177
     3
291
     1
 70
    58
 90
        2
176
     1
 90
        2
176
     1
 90
        0
176
     1
 90
        0
176
     1
 40
0.6
176
     1
 40
30.0
176
     1
 62
     7
420
 16777215
176
     1
 90
        1
176
     1
 90
        4
176
     1
 62
     7
176
     1
 62
   257
176
     1
 90
        1
176
     1
 90
        1
176
     1
 40
1.0
176
     1
 90
        8
176
     1
 62
     7
176
     1
 40
1.0
176
     1
 90
        1
176
     1
 90
        6
176
     1
 90
        2
176
     1
 62
     7
176
     1
 90
        5
176
     1
 90
        0
176
     1
 90
        0
176
     1
290
     0
176
     1
 90
        1
176
     1
 40
-50.0
176
     1
 90
        0
176
     1
290
     0
176
     1
290
     1
176
     1
290
     1
176
     1
290
     0
176
     1
290
     0
176
     1
290
     0
176
     1
290
     0
176
     1
290
     0
176
     1
290
     0
176
     1
 90
       50
176
     1
 40
0.0
176
     1
 40
1.0
176
     1
 90
        0
176
     1
 62
    18
420
        0
176
     1
 90
       50
176
     1
 90
        3
176
     1
 62
     5
420
      255
176
     1
290
     0
176
     1
 90
       50
176
     1
 90
       50
176
     1
 90
       50
176
     1
290
     0
176
     1
 90
       50
176
     1
 62
   256
176
     0
 40
1.0
176
     0
 90
        2
176
     1
  1
strokes_ogs.tif
176
     1
290
     0
176
     1
 40
1.0
176
     1
 40
1.0
176
     1
  0
VISUALSTYLE
  5
3D
102
{ACAD_REACTORS
330
2A
102
}
330
2A
100
AcDbVisualStyle
  2
EdgeColorOff
 70
    22
177
     3
291
     1
 70
    58
 90
        2
176
     0
 90
        2
176
     0
 90
        0
176
     0
 90
        0
176
     0
 40
0.6
176
     0
 40
30.0
176
     0
 62
     7
420
 16777215
176
     0
 90
        1
176
     0
 90
        4
176
     0
 62
     7
176
     0
 62
   257
176
     0
 90
        1
176
     0
 90
        1
176
     0
 40
1.0
176
     0
 90
        8
176
     2
 62
     7
176
     0
 40
1.0
176
     0
 90
        1
176
     0
 90
        6
176
     0
 90
        2
176
     0
 62
     7
176
     0
 90
        5
176
     0
 90
        0
176
     0
 90
        0
176
     0
290
     0
176
     0
 90
        1
176
     0
 40
0.0
176
     0
 90
        0
176
     0
290
     0
176
     0
290
     1
176
     0
290
     1
176
     0
290
     0
176
     0
290
     0
176
     0
290
     0
176
     0
290
     0
176
     0
290
     0
176
     0
290
     0
176
     0
 90
       50
176
     0
 40
0.0
176
     0
 40
1.0
176
     0
 90
        0
176
     0
 62
    18
420
        0
176
     0
 90
       50
176
     0
 90
        3
176
     0
 62
     5
420
      255
176
     0
290
     0
176
     0
 90
       50
176
     0
 90
       50
176
     0
 90
       50
176
     0
290
     0
176
     0
 90
       50
176
     0
 62
   256
176
     0
 40
1.0
176
     0
 90
        2
176
     0
  1
strokes_ogs.tif
176
     0
290
     0
176
     0
 40
1.0
176
     0
 40
1.0
176
     0
  0
VISUALSTYLE
  5
39
102
{ACAD_REACTORS
330
2A
102
}
330
2A
100
AcDbVisualStyle
  2
Facepattern
 70
    15
177
     3
291
     1
 70
    58
 90
        2
176
     1
 90
        2
176
     1
 90
        0
176
     1
 90
        0
176
     1
 40
0.6
176
     1
 40
30.0
176
     1
 62
     7
420
 16777215
176
     1
 90
        1
176
     1
 90
        4
176
     1
 62
     7
176
     1
 62
   257
176
     1
 90
        1
176
     1
 90
        1
176
     1
 40
1.0
176
     1
 90
        8
176
     1
 62
     7
176
     1
 40
1.0
176
     1
 90
        1
176
     1
 90
        6
176
     1
 90
        2
176
     1
 62
     7
176
     1
 90
        5
176
     1
 90
        0
176
     1
 90
        0
176
     1
290
     0
176
     1
 90
        1
176
     1
 40
0.0
176
     1
 90
        0
176
     1
290
     0
176
     1
290
     1
176
     1
290
     1
176
     1
290
     0
176
     1
290
     0
176
     1
290
     0
176
     1
290
     0
176
     1
290
     0
176
     1
290
     0
176
     1
 90
       50
176
     1
 40
0.0
176
     1
 40
1.0
176
     1
 90
        0
176
     1
 62
    18
420
        0
176
     1
 90
       50
176
     1
 90
        3
176
     1
 62
     5
420
      255
176
     1
290
     0
176
     1
 90
       50
176
     1
 90
       50
176
     1
 90
       50
176
     1
290
     0
176
     1
 90
       50
176
     1
 62
   256
176
     0
 40
1.0
176
     0
 90
        2
176
     1
  1
strokes_ogs.tif
176
     1
290
     0
176
     1
 40
1.0
176
     1
 40
1.0
176
     1
  0
VISUALSTYLE
  5
2B
102
{ACAD_REACTORS
330
2A
102
}
330
2A
100
AcDbVisualStyle
  2
Flat
 70
     0
177
     3
291
     1
 70
    58
 90
        2
176
     1
 90
        1
176
     1
 90
        1
176
     1
 90
        2
176
     1
 40
0.6
176
     1
 40
30.0
176
     1
 62
     7
420
 16777215
176
     1
 90
        0
176
     1
 90
        0
176
     1
 62
     7
176
     1
 62
   257
176
     1
 90
        1
176
     1
 90
        1
176
     1
 40
1.0
176
     1
 90
        8
176
     1
 62
     7
176
     1
 40
1.0
176
     1
 90
        1
176
     1
 90
        6
176
     1
 90
        2
176
     1
 62
     7
176
     1
 90
        5
176
     1
 90
        0
176
     1
 90
        0
176
     1
290
     0
176
     1
 90
       13
176
     1
 40
0.0
176
     1
 90
        0
176
     1
290
     0
176
     1
290
     1
176
     1
290
     1
176
     1
290
     0
176
     1
290
     0
176
     1
290
     0
176
     1
290
     0
176
     1
290
     0
176
     1
290
     0
176
     1
 90
       50
176
     1
 40
0.0
176
     1
 40
1.0
176
     1
 90
        0
176
     1
 62
    18
420
        0
176
     1
 90
       50
176
     1
 90
        3
176
     1
 62
     5
420
      255
176
     1
290
     0
176
     1
 90
       50
176
     1
 90
       50
176
     1
 90
       50
176
     1
290
     0
176
     1
 90
       50
176
     1
 62
   256
176
     0
 40
1.0
176
     0
 90
        2
176
     1
  1
strokes_ogs.tif
176
     1
290
     0
176
     1
 40
1.0
176
     1
 40
1.0
176
     1
  0
VISUALSTYLE
  5
2C
102
{ACAD_REACTORS
330
2A
102
}
330
2A
100
AcDbVisualStyle
  2
FlatWithEdges
 70
     1
177
     3
291
     1
 70
    58
 90
        2
176
     1
 90
        1
176
     1
 90
        1
176
     1
 90
        2
176
     1
 40
0.6
176
     1
 40
30.0
176
     1
 62
     7
420
 16777215
176
     1
 90
        1
176
     1
 90
        0
176
     1
 62
     7
176
     1
 62
   257
176
     1
 90
        1
176
     1
 90
        1
176
     1
 40
1.0
176
     1
 90
        0
176
     1
 62
   257
176
     1
 40
1.0
176
     1
 90
        1
176
     1
 90
        6
176
     1
 90
        2
176
     1
 62
     7
176
     1
 90
        5
176
     1
 90
        0
176
     1
 90
        0
176
     1
290
     0
176
     1
 90
       13
176
     1
 40
0.0
176
     1
 90
        0
176
     1
290
     0
176
     1
290
     1
176
     1
290
     1
176
     1
290
     0
176
     1
290
     0
176
     1
290
     0
176
     1
290
     0
176
     1
290
     0
176
     1
290
     0
176
     1
 90
       50
176
     1
 40
0.0
176
     1
 40
1.0
176
     1
 90
        0
176
     1
 62
    18
420
        0
176
     1
 90
       50
176
     1
 90
        3
176
     1
 62
     5
420
      255
176
     1
290
     0
176
     1
 90
       50
176
     1
 90
       50
176
     1
 90
       50
176
     1
290
     0
176
     1
 90
       50
176
     1
 62
   256
176
     0
 40
1.0
176
     0
 90
        2
176
     1
  1
strokes_ogs.tif
176
     1
290
     0
176
     1
 40
1.0
176
     1
 40
1.0
176
     1
  0
VISUALSTYLE
  5
2D
102
{ACAD_REACTORS
330
2A
102
}
330
2A
100
AcDbVisualStyle
  2
Gouraud
 70
     2
177
     3
291
     1
 70
    58
 90
        2
176
     1
 90
        2
176
     1
 90
        1
176
     1
 90
        2
176
     1
 40
0.6
176
     1
 40
30.0
176
     1
 62
     7
420
 16777215
176
     1
 90
        0
176
     1
 90
        0
176
     1
 62
     7
176
     1
 62
   257
176
     1
 90
        1
176
     1
 90
        1
176
     1
 40
1.0
176
     1
 90
        0
176
     1
 62
     7
176
     1
 40
1.0
176
     1
 90
        1
176
     1
 90
        6
176
     1
 90
        2
176
     1
 62
     7
176
     1
 90
        5
176
     1
 90
        0
176
     1
 90
        0
176
     1
290
     0
176
     1
 90
       13
176
     1
 40
0.0
176
     1
 90
        0
176
     1
290
     0
176
     1
290
     1
176
     1
290
     1
176
     1
290
     0
176
     1
290
     0
176
     1
290
     0
176
     1
290
     0
176
     1
290
     0
176
     1
290
     0
176
     1
 90
       50
176
     1
 40
0.0
176
     1
 40
1.0
176
     1
 90
        0
176
     1
 62
    18
420
        0
176
     1
 90
       50
176
     1
 90
        3
176
     1
 62
     5
420
      255
176
     1
290
     0
176
     1
 90
       50
176
     1
 90
       50
176
     1
 90
       50
176
     1
290
     0
176
     1
 90
       50
176
     1
 62
   256
176
     0
 40
1.0
176
     0
 90
        2
176
     1
  1
strokes_ogs.tif
176
     1
290
     0
176
     1
 40
1.0
176
     1
 40
1.0
176
     1
  0
VISUALSTYLE
  5
2E
102
{ACAD_REACTORS
330
2A
102
}
330
2A
100
AcDbVisualStyle
  2
GouraudWithEdges
 70
     3
177
     3
291
     1
 70
    58
 90
        2
176
     1
 90
        2
176
     1
 90
        1
176
     1
 90
        2
176
     1
 40
0.6
176
     1
 40
30.0
176
     1
 62
     7
420
 16777215
176
     1
 90
        1
176
     1
 90
        0
176
     1
 62
     7
176
     1
 62
   257
176
     1
 90
        1
176
     1
 90
        1
176
     1
 40
1.0
176
     1
 90
        0
176
     1
 62
   257
176
     1
 40
1.0
176
     1
 90
        1
176
     1
 90
        6
176
     1
 90
        2
176
     1
 62
     7
176
     1
 90
        5
176
     1
 90
        0
176
     1
 90
        0
176
     1
290
     0
176
     1
 90
       13
176
     1
 40
0.0
176
     1
 90
        0
176
     1
290
     0
176
     1
290
     1
176
     1
290
     1
176
     1
290
     0
176
     1
290
     0
176
     1
290
     0
176
     1
290
     0
176
     1
290
     0
176
     1
290
     0
176
     1
 90
       50
176
     1
 40
0.0
176
     1
 40
1.0
176
     1
 90
        0
176
     1
 62
    18
420
        0
176
     1
 90
       50
176
     1
 90
        3
176
     1
 62
     5
420
      255
176
     1
290
     0
176
     1
 90
       50
176
     1
 90
       50
176
     1
 90
       50
176
     1
290
     0
176
     1
 90
       50
176
     1
 62
   256
176
     0
 40
1.0
176
     0
 90
        2
176
     1
  1
strokes_ogs.tif
176
     1
290
     0
176
     1
 40
1.0
176
     1
 40
1.0
176
     1
  0
VISUALSTYLE
  5
31
102
{ACAD_REACTORS
330
2A
102
}
330
2A
100
AcDbVisualStyle
  2
Hidden
 70
     6
177
     3
291
     0
 70
    58
 90
        1
176
     1
 90
        2
176
     1
 90
        2
176
     1
 90
        0
176
     1
 40
0.6
176
     1
 40
30.0
176
     1
 62
     7
420
 16777215
176
     1
 90
        2
176
     1
 90
        2
176
     1
 62
     7
176
     1
 62
   257
176
     1
 90
        2
176
     1
 90
        1
176
     1
 40
40.0
176
     1
 90
        0
176
     1
 62
   257
176
     1
 40
1.0
176
     1
 90
        1
176
     1
 90
        6
176
     1
 90
        2
176
     1
 62
     7
176
     1
 90
        3
176
     1
 90
        0
176
     1
 90
        0
176
     1
290
     0
176
     1
 90
        1
176
     1
 40
0.0
176
     1
 90
        0
176
     1
290
     0
176
     1
290
     1
176
     1
290
     1
176
     1
290
     0
176
     1
290
     0
176
     1
290
     0
176
     1
290
     0
176
     1
290
     0
176
     1
290
     0
176
     1
 90
       50
176
     1
 40
0.0
176
     1
 40
1.0
176
     1
 90
        0
176
     1
 62
    18
420
        0
176
     1
 90
       50
176
     1
 90
        3
176
     1
 62
     5
420
      255
176
     1
290
     0
176
     1
 90
       50
176
     1
 90
       50
176
     1
 90
       50
176
     1
290
     0
176
     1
 90
       50
176
     1
 62
   256
176
     0
 40
1.0
176
     0
 90
        2
176
     1
  1
strokes_ogs.tif
176
     1
290
     0
176
     1
 40
1.0
176
     1
 40
1.0
176
     1
  0
VISUALSTYLE
  5
3B
102
{ACAD_REACTORS
330
2A
102
}
330
2A
100
AcDbVisualStyle
  2
JitterOff
 70
    20
177
     3
291
     1
 70
    58
 90
        2
176
     0
 90
        2
176
     0
 90
        0
176
     0
 90
        0
176
     0
 40
0.6
176
     0
 40
30.0
176
     0
 62
     7
420
 16777215
176
     0
 90
        1
176
     0
 90
        4
176
     0
 62
     7
176
     0
 62
   257
176
     0
 90
        1
176
     0
 90
        1
176
     0
 40
1.0
176
     0
 90
       10
176
     2
 62
     7
176
     0
 40
1.0
176
     0
 90
        1
176
     0
 90
        6
176
     0
 90
        2
176
     0
 62
     7
176
     0
 90
        5
176
     0
 90
        0
176
     0
 90
        0
176
     0
290
     0
176
     0
 90
        1
176
     0
 40
0.0
176
     0
 90
        0
176
     0
290
     0
176
     0
290
     1
176
     0
290
     1
176
     0
290
     0
176
     0
290
     0
176
     0
290
     0
176
     0
290
     0
176
     0
290
     0
176
     0
290
     0
176
     0
 90
       50
176
     0
 40
0.0
176
     0
 40
1.0
176
     0
 90
        0
176
     0
 62
    18
420
        0
176
     0
 90
       50
176
     0
 90
        3
176
     0
 62
     5
420
      255
176
     0
290
     0
176
     0
 90
       50
176
     0
 90
       50
176
     0
 90
       50
176
     0
290
     0
176
     0
 90
       50
176
     0
 62
   256
176
     0
 40
1.0
176
     0
 90
        2
176
     0
  1
strokes_ogs.tif
176
     0
290
     0
176
     0
 40
1.0
176
     0
 40
1.0
176
     0
  0
VISUALSTYLE
  5
38
102
{ACAD_REACTORS
330
2A
102
}
330
2A
100
AcDbVisualStyle
  2
Linepattern
 70
    14
177
     3
291
     1
 70
    58
 90
        2
176
     1
 90
        2
176
     1
 90
        0
176
     1
 90
        0
176
     1
 40
0.6
176
     1
 40
30.0
176
     1
 62
     7
420
 16777215
176
     1
 90
        1
176
     1
 90
        4
176
     1
 62
     7
176
     1
 62
   257
176
     1
 90
        7
176
     1
 90
        7
176
     1
 40
1.0
176
     1
 90
        8
176
     1
 62
     7
176
     1
 40
1.0
176
     1
 90
        1
176
     1
 90
        6
176
     1
 90
        2
176
     1
 62
     7
176
     1
 90
        5
176
     1
 90
        0
176
     1
 90
        0
176
     1
290
     0
176
     1
 90
        1
176
     1
 40
0.0
176
     1
 90
        0
176
     1
290
     0
176
     1
290
     1
176
     1
290
     1
176
     1
290
     0
176
     1
290
     0
176
     1
290
     0
176
     1
290
     0
176
     1
290
     0
176
     1
290
     0
176
     1
 90
       50
176
     1
 40
0.0
176
     1
 40
1.0
176
     1
 90
        0
176
     1
 62
    18
420
        0
176
     1
 90
       50
176
     1
 90
        3
176
     1
 62
     5
420
      255
176
     1
290
     0
176
     1
 90
       50
176
     1
 90
       50
176
     1
 90
       50
176
     1
290
     0
176
     1
 90
       50
176
     1
 62
   256
176
     0
 40
1.0
176
     0
 90
        2
176
     1
  1
strokes_ogs.tif
176
     1
290
     0
176
     1
 40
1.0
176
     1
 40
1.0
176
     1
  0
VISUALSTYLE
  5
3C
102
{ACAD_REACTORS
330
2A
102
}
330
2A
100
AcDbVisualStyle
  2
OverhangOff
 70
    21
177
     3
291
     1
 70
    58
 90
        2
176
     0
 90
        2
176
     0
 90
        0
176
     0
 90
        0
176
     0
 40
0.6
176
     0
 40
30.0
176
     0
 62
     7
420
 16777215
176
     0
 90
        1
176
     0
 90
        4
176
     0
 62
     7
176
     0
 62
   257
176
     0
 90
        1
176
     0
 90
        1
176
     0
 40
1.0
176
     0
 90
        9
176
     2
 62
     7
176
     0
 40
1.0
176
     0
 90
        1
176
     0
 90
        6
176
     0
 90
        2
176
     0
 62
     7
176
     0
 90
        5
176
     0
 90
        0
176
     0
 90
        0
176
     0
290
     0
176
     0
 90
        1
176
     0
 40
0.0
176
     0
 90
        0
176
     0
290
     0
176
     0
290
     1
176
     0
290
     1
176
     0
290
     0
176
     0
290
     0
176
     0
290
     0
176
     0
290
     0
176
     0
290
     0
176
     0
290
     0
176
     0
 90
       50
176
     0
 40
0.0
176
     0
 40
1.0
176
     0
 90
        0
176
     0
 62
    18
420
        0
176
     0
 90
       50
176
     0
 90
        3
176
     0
 62
     5
420
      255
176
     0
290
     0
176
     0
 90
       50
176
     0
 90
       50
176
     0
 90
       50
176
     0
290
     0
176
     0
 90
       50
176
     0
 62
   256
176
     0
 40
1.0
176
     0
 90
        2
176
     0
  1
strokes_ogs.tif
176
     0
290
     0
176
     0
 40
1.0
176
     0
 40
1.0
176
     0
  0
VISUALSTYLE
  5
33
102
{ACAD_REACTORS
330
2A
102
}
330
2A
100
AcDbVisualStyle
  2
Realistic
 70
     8
177
     3
291
     0
 70
    58
 90
        2
176
     1
 90
        3
176
     1
 90
        0
176
     1
 90
        2
176
     1
 40
0.6
176
     1
 40
30.0
176
     1
 62
     7
420
 16777215
176
     1
 90
        0
176
     1
 90
        0
176
     1
 62
     7
176
     1
 62
   257
176
     1
 90
        1
176
     1
 90
        1
176
     1
 40
1.0
176
     1
 90
        8
176
     1
 62
   257
176
     1
 40
1.0
176
     1
 90
        1
176
     1
 90
        6
176
     1
 90
        2
176
     1
 62
     7
176
     1
 90
        3
176
     1
 90
        0
176
     1
 90
        0
176
     1
290
     0
176
     1
 90
       13
176
     1
 40
0.0
176
     1
 90
        0
176
     1
290
     0
176
     1
290
     1
176
     1
290
     1
176
     1
290
     0
176
     1
290
     0
176
     1
290
     0
176
     1
290
     0
176
     1
290
     0
176
     1
290
     0
176
     1
 90
       50
176
     1
 40
0.0
176
     1
 40
1.0
176
     1
 90
        0
176
     1
 62
    18
420
        0
176
     1
 90
       50
176
     1
 90
        3
176
     1
 62
     5
420
      255
176
     1
290
     0
176
     1
 90
       50
176
     1
 90
       50
176
     1
 90
       50
176
     1
290
     0
176
     1
 90
       50
176
     1
 62
   256
176
     0
 40
1.0
176
     0
 90
        2
176
     1
  1
strokes_ogs.tif
176
     1
290
     0
176
     1
 40
1.0
176
     1
 40
1.0
176
     1
  0
VISUALSTYLE
  5
42
102
{ACAD_REACTORS
330
2A
102
}
330
2A
100
AcDbVisualStyle
  2
Shaded
 70
    27
177
     3
291
     0
 70
    58
 90
        2
176
     1
 90
        2
176
     1
 90
        1
176
     1
 90
        2
176
     1
 40
0.6
176
     1
 40
30.0
176
     1
 62
     7
420
 16777215
176
     1
 90
        0
176
     1
 90
        4
176
     1
 62
     7
176
     1
 62
   257
176
     1
 90
        1
176
     1
 90
        1
176
     1
 40
1.0
176
     1
 90
        8
176
     1
 62
   257
176
     1
 40
1.0
176
     1
 90
        1
176
     1
 90
        6
176
     1
 90
        2
176
     1
 62
     8
420
  7895160
176
     1
 90
        3
176
     1
 90
        0
176
     1
 90
        0
176
     1
290
     0
176
     1
 90
        5
176
     1
 40
0.0
176
     1
 90
        0
176
     1
290
     0
176
     1
290
     1
176
     1
290
     1
176
     1
290
     0
176
     1
290
     0
176
     1
290
     0
176
     1
290
     0
176
     1
290
     0
176
     1
290
     0
176
     1
 90
       50
176
     1
 40
0.0
176
     1
 40
1.0
176
     1
 90
        0
176
     1
 62
    18
420
        0
176
     1
 90
       50
176
     1
 90
        3
176
     1
 62
     5
420
      255
176
     1
290
     0
176
     1
 90
       50
176
     1
 90
       50
176
     1
 90
       50
176
     1
290
     0
176
     1
 90
       50
176
     1
 62
   256
176
     0
 40
1.0
176
     0
 90
        2
176
     1
  1
strokes_ogs.tif
176
     1
290
     0
176
     1
 40
1.0
176
     1
 40
1.0
176
     1
  0
VISUALSTYLE
  5
41
102
{ACAD_REACTORS
330
2A
102
}
330
2A
100
AcDbVisualStyle
  2
Shaded with edges
 70
    26
177
     3
291
     0
 70
    58
 90
        2
176
     1
 90
        2
176
     1
 90
        1
176
     1
 90
        2
176
     1
 40
0.6
176
     1
 40
30.0
176
     1
 62
     7
420
 16777215
176
     1
 90
        1
176
     1
 90
       10
176
     1
 62
     7
176
     1
 62
   257
176
     1
 90
        2
176
     1
 90
        1
176
     1
 40
1.0
176
     1
 90
        8
176
     1
 62
   257
176
     1
 40
1.0
176
     1
 90
        1
176
     1
 90
        6
176
     1
 90
        2
176
     1
 62
     7
176
     1
 90
        3
176
     1
 90
        0
176
     1
 90
        0
176
     1
290
     0
176
     1
 90
        5
176
     1
 40
0.0
176
     1
 90
        0
176
     1
290
     0
176
     1
290
     1
176
     1
290
     1
176
     1
290
     0
176
     1
290
     0
176
     1
290
     0
176
     1
290
     0
176
     1
290
     0
176
     1
290
     0
176
     1
 90
       50
176
     1
 40
0.0
176
     1
 40
1.0
176
     1
 90
        0
176
     1
 62
    18
420
        0
176
     1
 90
       50
176
     1
 90
        3
176
     1
 62
     5
420
      255
176
     1
290
     0
176
     1
 90
       50
176
     1
 90
       50
176
     1
 90
       50
176
     1
290
     0
176
     1
 90
       50
176
     1
 62
   256
176
     0
 40
1.0
176
     0
 90
        2
176
     1
  1
strokes_ogs.tif
176
     1
290
     0
176
     1
 40
1.0
176
     1
 40
1.0
176
     1
  0
VISUALSTYLE
  5
3E
102
{ACAD_REACTORS
330
2A
102
}
330
2A
100
AcDbVisualStyle
  2
Shades of Gray
 70
    23
177
     3
291
     0
 70
    58
 90
        2
176
     1
 90
        2
176
     1
 90
        3
176
     1
 90
        0
176
     1
 40
0.6
176
     1
 40
30.0
176
     1
 62
     7
420
 16777215
176
     1
 90
        2
176
     1
 90
        2
176
     1
 62
     7
176
     1
 62
     7
176
     1
 90
        1
176
     1
 90
        1
176
     1
 40
40.0
176
     1
 90
        8
176
     1
 62
     7
176
     1
 40
1.0
176
     1
 90
        1
176
     1
 90
        6
176
     1
 90
        2
176
     1
 62
     7
176
     1
 90
        3
176
     1
 90
        0
176
     1
 90
        0
176
     1
290
     0
176
     1
 90
        1
176
     1
 40
0.0
176
     1
 90
        0
176
     1
290
     0
176
     1
290
     1
176
     1
290
     1
176
     1
290
     0
176
     1
290
     0
176
     1
290
     0
176
     1
290
     0
176
     1
290
     0
176
     1
290
     0
176
     1
 90
       50
176
     1
 40
0.0
176
     1
 40
1.0
176
     1
 90
        0
176
     1
 62
    18
420
        0
176
     1
 90
       50
176
     1
 90
        3
176
     1
 62
     5
420
      255
176
     1
290
     0
176
     1
 90
       50
176
     1
 90
       50
176
     1
 90
       50
176
     1
290
     0
176
     1
 90
       50
176
     1
 62
   256
176
     0
 40
1.0
176
     0
 90
        2
176
     1
  1
strokes_ogs.tif
176
     1
290
     0
176
     1
 40
1.0
176
     1
 40
1.0
176
     1
  0
VISUALSTYLE
  5
3F
102
{ACAD_REACTORS
330
2A
102
}
330
2A
100
AcDbVisualStyle
  2
Sketchy
 70
    24
177
     3
291
     0
 70
    58
 90
        1
176
     1
 90
        2
176
     1
 90
        2
176
     1
 90
        0
176
     1
 40
0.6
176
     1
 40
30.0
176
     1
 62
     7
420
 16777215
176
     1
 90
        2
176
     1
 90
        2
176
     1
 62
     7
176
     1
 62
     7
176
     1
 90
        1
176
     1
 90
        1
176
     1
 40
40.0
176
     1
 90
       11
176
     1
 62
     7
176
     1
 40
1.0
176
     1
 90
        1
176
     1
 90
        6
176
     1
 90
        2
176
     1
 62
     7
176
     1
 90
        6
176
     1
 90
        0
176
     1
 90
        0
176
     1
290
     0
176
     1
 90
        1
176
     1
 40
0.0
176
     1
 90
        0
176
     1
290
     0
176
     1
290
     1
176
     1
290
     1
176
     1
290
     0
176
     1
290
     0
176
     1
290
     0
176
     1
290
     0
176
     1
290
     0
176
     1
290
     0
176
     1
 90
       50
176
     1
 40
0.0
176
     1
 40
1.0
176
     1
 90
        0
176
     1
 62
    18
420
        0
176
     1
 90
       50
176
     1
 90
        3
176
     1
 62
     5
420
      255
176
     1
290
     0
176
     1
 90
       50
176
     1
 90
       50
176
     1
 90
       50
176
     1
290
     0
176
     1
 90
       50
176
     1
 62
   256
176
     0
 40
1.0
176
     0
 90
        2
176
     1
  1
strokes_ogs.tif
176
     1
290
     0
176
     1
 40
1.0
176
     1
 40
1.0
176
     1
  0
VISUALSTYLE
  5
37
102
{ACAD_REACTORS
330
2A
102
}
330
2A
100
AcDbVisualStyle
  2
Thicken
 70
    13
177
     3
291
     1
 70
    58
 90
        2
176
     1
 90
        2
176
     1
 90
        0
176
     1
 90
        0
176
     1
 40
0.6
176
     1
 40
30.0
176
     1
 62
     7
420
 16777215
176
     1
 90
        1
176
     1
 90
        4
176
     1
 62
     7
176
     1
 62
   257
176
     1
 90
        1
176
     1
 90
        1
176
     1
 40
1.0
176
     1
 90
       12
176
     1
 62
     7
176
     1
 40
1.0
176
     1
 90
        1
176
     1
 90
        6
176
     1
 90
        2
176
     1
 62
     7
176
     1
 90
        5
176
     1
 90
        0
176
     1
 90
        0
176
     1
290
     0
176
     1
 90
        1
176
     1
 40
0.0
176
     1
 90
        0
176
     1
290
     0
176
     1
290
     1
176
     1
290
     1
176
     1
290
     0
176
     1
290
     0
176
     1
290
     0
176
     1
290
     0
176
     1
290
     0
176
     1
290
     0
176
     1
 90
       50
176
     1
 40
0.0
176
     1
 40
1.0
176
     1
 90
        0
176
     1
 62
    18
420
        0
176
     1
 90
       50
176
     1
 90
        3
176
     1
 62
     5
420
      255
176
     1
290
     0
176
     1
 90
       50
176
     1
 90
       50
176
     1
 90
       50
176
     1
290
     0
176
     1
 90
       50
176
     1
 62
   256
176
     0
 40
1.0
176
     0
 90
        2
176
     1
  1
strokes_ogs.tif
176
     1
290
     0
176
     1
 40
1.0
176
     1
 40
1.0
176
     1
  0
VISUALSTYLE
  5
30
102
{ACAD_REACTORS
330
2A
102
}
330
2A
100
AcDbVisualStyle
  2
Wireframe
 70
     5
177
     3
291
     0
 70
    58
 90
        0
176
     1
 90
        2
176
     1
 90
        0
176
     1
 90
        0
176
     1
 40
0.6
176
     1
 40
30.0
176
     1
 62
     7
420
 16777215
176
     1
 90
        1
176
     1
 90
        4
176
     1
 62
     7
176
     1
 62
   257
176
     1
 90
        1
176
     1
 90
        1
176
     1
 40
1.0
176
     1
 90
        0
176
     1
 62
   257
176
     1
 40
1.0
176
     1
 90
        1
176
     1
 90
        6
176
     1
 90
        2
176
     1
 62
     7
176
     1
 90
        3
176
     1
 90
        0
176
     1
 90
        0
176
     1
290
     0
176
     1
 90
        1
176
     1
 40
0.0
176
     1
 90
        0
176
     1
290
     0
176
     1
290
     1
176
     1
290
     1
176
     1
290
     0
176
     1
290
     0
176
     1
290
     0
176
     1
290
     0
176
     1
290
     0
176
     1
290
     0
176
     1
 90
       50
176
     1
 40
0.0
176
     1
 40
1.0
176
     1
 90
        0
176
     1
 62
    18
420
        0
176
     1
 90
       50
176
     1
 90
        3
176
     1
 62
     5
420
      255
176
     1
290
     0
176
     1
 90
       50
176
     1
 90
       50
176
     1
 90
       50
176
     1
290
     0
176
     1
 90
       50
176
     1
 62
   256
176
     0
 40
1.0
176
     0
 90
        2
176
     1
  1
strokes_ogs.tif
176
     1
290
     0
176
     1
 40
1.0
176
     1
 40
1.0
176
     1
  0
VISUALSTYLE
  5
40
102
{ACAD_REACTORS
330
2A
102
}
330
2A
100
AcDbVisualStyle
  2
X-Ray
 70
    25
177
     3
291
     0
 70
    58
 90
        2
176
     1
 90
        2
176
     1
 90
        1
176
     1
 90
        1
176
     1
 40
0.5
176
     1
 40
30.0
176
     1
 62
     7
420
 16777215
176
     1
 90
        1
176
     1
 90
        0
176
     1
 62
     7
176
     1
 62
   257
176
     1
 90
        1
176
     1
 90
        1
176
     1
 40
1.0
176
     1
 90
        8
176
     1
 62
     7
176
     1
 40
1.0
176
     1
 90
        1
176
     1
 90
        6
176
     1
 90
        2
176
     1
 62
     7
176
     1
 90
        3
176
     1
 90
        0
176
     1
 90
        0
176
     1
290
     0
176
     1
 90
       13
176
     1
 40
0.0
176
     1
 90
        0
176
     1
290
     0
176
     1
290
     1
176
     1
290
     1
176
     1
290
     0
176
     1
290
     0
176
     1
290
     0
176
     1
290
     0
176
     1
290
     0
176
     1
290
     0
176
     1
 90
       50
176
     1
 40
0.0
176
     1
 40
1.0
176
     1
 90
        0
176
     1
 62
    18
420
        0
176
     1
 90
       50
176
     1
 90
        3
176
     1
 62
     5
420
      255
176
     1
290
     0
176
     1
 90
       50
176
     1
 90
       50
176
     1
 90
       50
176
     1
290
     0
176
     1
 90
       50
176
     1
 62
   256
176
     0
 40
1.0
176
     0
 90
        2
176
     1
  1
strokes_ogs.tif
176
     1
290
     0
176
     1
 40
1.0
176
     1
 40
1.0
176
     1
  0
DICTIONARYVAR
  5
3CA
102
{ACAD_REACTORS
330
3C9
102
}
330
3C9
100
DictionaryVariables
280
     0
  1
1:1
  0
DICTIONARYVAR
  5
3CF
102
{ACAD_REACTORS
330
3C9
102
}
330
3C9
100
DictionaryVariables
280
     0
  1
Standard
  0
DICTIONARYVAR
  5
3CE
102
{ACAD_REACTORS
330
3C9
102
}
330
3C9
100
DictionaryVariables
280
     0
  1
Standard
  0
DICTIONARY
  5
3CB
330
6A
100
AcDbDictionary
280
     1
281
     1
  3
ACAD_ROUNDTRIP_2008_TABLESTYLE_CELLSTYLEMAP
360
3CC
  0
CELLSTYLEMAP
  5
3CC
102
{ACAD_REACTORS
330
3CB
102
}
330
3CB
100
AcDbCellStyleMap
 90
        3
300
CELLSTYLE
  1
TABLEFORMAT_BEGIN
 90
        5
170
     1
 91
        0
 92
    32768
 62
   257
 93
        1
300
CONTENTFORMAT
  1
CONTENTFORMAT_BEGIN
 90
        0
 91
        0
 92
        4
 93
        0
300

 40
0.0
140
1.0
 94
        5
 62
     0
340
11
144
0.25
309
CONTENTFORMAT_END
171
     1
301
MARGIN
  1
CELLMARGIN_BEGIN
 40
0.06
 40
0.06
 40
0.06
 40
0.06
 40
0.06
 40
0.06
309
CELLMARGIN_END
 94
        6
 95
        1
302
GRIDFORMAT
  1
GRIDFORMAT_BEGIN
 90
        0
 91
        1
 62
     0
 92
       -2
340
14
 93
        0
 40
0.045
309
GRIDFORMAT_END
 95
        2
302
GRIDFORMAT
  1
GRIDFORMAT_BEGIN
 90
        0
 91
        1
 62
     0
 92
       -2
340
14
 93
        0
 40
0.045
309
GRIDFORMAT_END
 95
        4
302
GRIDFORMAT
  1
GRIDFORMAT_BEGIN
 90
        0
 91
        1
 62
     0
 92
       -2
340
14
 93
        0
 40
0.045
309
GRIDFORMAT_END
 95
        8
302
GRIDFORMAT
  1
GRIDFORMAT_BEGIN
 90
        0
 91
        1
 62
     0
 92
       -2
340
14
 93
        0
 40
0.045
309
GRIDFORMAT_END
 95
       16
302
GRIDFORMAT
  1
GRIDFORMAT_BEGIN
 90
        0
 91
        1
 62
     0
 92
       -2
340
14
 93
        0
 40
0.045
309
GRIDFORMAT_END
 95
       32
302
GRIDFORMAT
  1
GRIDFORMAT_BEGIN
 90
        0
 91
        1
 62
     0
 92
       -2
340
14
 93
        0
 40
0.045
309
GRIDFORMAT_END
309
TABLEFORMAT_END
  1
CELLSTYLE_BEGIN
 90
        1
 91
        1
300
_TITLE
309
CELLSTYLE_END
300
CELLSTYLE
  1
TABLEFORMAT_BEGIN
 90
        5
170
     1
 91
        0
 92
        0
 62
   257
 93
        1
300
CONTENTFORMAT
  1
CONTENTFORMAT_BEGIN
 90
        0
 91
        0
 92
        4
 93
        0
300

 40
0.0
140
1.0
 94
        5
 62
     0
340
11
144
0.18
309
CONTENTFORMAT_END
171
     1
301
MARGIN
  1
CELLMARGIN_BEGIN
 40
0.06
 40
0.06
 40
0.06
 40
0.06
 40
0.06
 40
0.06
309
CELLMARGIN_END
 94
        6
 95
        1
302
GRIDFORMAT
  1
GRIDFORMAT_BEGIN
 90
        0
 91
        1
 62
     0
 92
       -2
340
14
 93
        0
 40
0.045
309
GRIDFORMAT_END
 95
        2
302
GRIDFORMAT
  1
GRIDFORMAT_BEGIN
 90
        0
 91
        1
 62
     0
 92
       -2
340
14
 93
        0
 40
0.045
309
GRIDFORMAT_END
 95
        4
302
GRIDFORMAT
  1
GRIDFORMAT_BEGIN
 90
        0
 91
        1
 62
     0
 92
       -2
340
14
 93
        0
 40
0.045
309
GRIDFORMAT_END
 95
        8
302
GRIDFORMAT
  1
GRIDFORMAT_BEGIN
 90
        0
 91
        1
 62
     0
 92
       -2
340
14
 93
        0
 40
0.045
309
GRIDFORMAT_END
 95
       16
302
GRIDFORMAT
  1
GRIDFORMAT_BEGIN
 90
        0
 91
        1
 62
     0
 92
       -2
340
14
 93
        0
 40
0.045
309
GRIDFORMAT_END
 95
       32
302
GRIDFORMAT
  1
GRIDFORMAT_BEGIN
 90
        0
 91
        1
 62
     0
 92
       -2
340
14
 93
        0
 40
0.045
309
GRIDFORMAT_END
309
TABLEFORMAT_END
  1
CELLSTYLE_BEGIN
 90
        2
 91
        1
300
_HEADER
309
CELLSTYLE_END
300
CELLSTYLE
  1
TABLEFORMAT_BEGIN
 90
        5
170
     1
 91
        0
 92
        0
 62
   257
 93
        1
300
CONTENTFORMAT
  1
CONTENTFORMAT_BEGIN
 90
        0
 91
        0
 92
        4
 93
        0
300

 40
0.0
140
1.0
 94
        2
 62
     0
340
11
144
0.18
309
CONTENTFORMAT_END
171
     1
301
MARGIN
  1
CELLMARGIN_BEGIN
 40
0.06
 40
0.06
 40
0.06
 40
0.06
 40
0.06
 40
0.06
309
CELLMARGIN_END
 94
        6
 95
        1
302
GRIDFORMAT
  1
GRIDFORMAT_BEGIN
 90
        0
 91
        1
 62
     0
 92
       -2
340
14
 93
        0
 40
0.045
309
GRIDFORMAT_END
 95
        2
302
GRIDFORMAT
  1
GRIDFORMAT_BEGIN
 90
        0
 91
        1
 62
     0
 92
       -2
340
14
 93
        0
 40
0.045
309
GRIDFORMAT_END
 95
        4
302
GRIDFORMAT
  1
GRIDFORMAT_BEGIN
 90
        0
 91
        1
 62
     0
 92
       -2
340
14
 93
        0
 40
0.045
309
GRIDFORMAT_END
 95
        8
302
GRIDFORMAT
  1
GRIDFORMAT_BEGIN
 90
        0
 91
        1
 62
     0
 92
       -2
340
14
 93
        0
 40
0.045
309
GRIDFORMAT_END
 95
       16
302
GRIDFORMAT
  1
GRIDFORMAT_BEGIN
 90
        0
 91
        1
 62
     0
 92
       -2
340
14
 93
        0
 40
0.045
309
GRIDFORMAT_END
 95
       32
302
GRIDFORMAT
  1
GRIDFORMAT_BEGIN
 90
        0
 91
        1
 62
     0
 92
       -2
340
14
 93
        0
 40
0.045
309
GRIDFORMAT_END
309
TABLEFORMAT_END
  1
CELLSTYLE_BEGIN
 90
        3
 91
        2
300
_DATA
309
CELLSTYLE_END
  0
ENDSEC
  0
EOF
