  0
SECTION
  2
HEADER
  9
$ACADVER
  1
AC1027
  9
$ACADMAINTVER
 70
   105
  9
$DWGCODEPAGE
  3
ANSI_932
  9
$REQUIREDVERSIONS
160
                 0
  9
$INSBASE
 10
0.0
 20
0.0
 30
0.0
  9
$EXTMIN
 10
405.0499999999996
 20
-396.0000000000998
 30
0.0
  9
$EXTMAX
 10
929.9499999999999
 20
-19.9618090822848
 30
0.0
  9
$LIMMIN
 10
0.0
 20
0.0
  9
$LIMMAX
 10
12.0
 20
9.0
  9
$ORTHOMODE
 70
     0
  9
$REGENMODE
 70
     1
  9
$FILLMODE
 70
     1
  9
$QTEXTMODE
 70
     0
  9
$MIRRTEXT
 70
     1
  9
$LTSCALE
 40
1.0
  9
$ATTMODE
 70
     1
  9
$TEXTSIZE
 40
0.2
  9
$TRACEWID
 40
0.05
  9
$TEXTSTYLE
  7
Standard
  9
$CLAYER
  8
0
  9
$CELTYPE
  6
ByLayer
  9
$CECOLOR
 62
   256
  9
$CELTSCALE
 40
1.0
  9
$DISPSILH
 70
     0
  9
$DIMSCALE
 40
1.0
  9
$DIMASZ
 40
3.0
  9
$DIMEXO
 40
0.0625
  9
$DIMDLI
 40
0.38
  9
$DIMRND
 40
0.0
  9
$DIMDLE
 40
0.0
  9
$DIMEXE
 40
1.5
  9
$DIMTP
 40
0.0
  9
$DIMTM
 40
0.0
  9
$DIMTXT
 40
3.0
  9
$DIMCEN
 40
0.09
  9
$DIMTSZ
 40
0.0
  9
$DIMTOL
 70
     0
  9
$DIMLIM
 70
     0
  9
$DIMTIH
 70
     1
  9
$DIMTOH
 70
     1
  9
$DIMSE1
 70
     0
  9
$DIMSE2
 70
     0
  9
$DIMTAD
 70
     1
  9
$DIMZIN
 70
     0
  9
$DIMBLK
  1

  9
$DIMASO
 70
     1
  9
$DIMSHO
 70
     1
  9
$DIMPOST
  1

  9
$DIMAPOST
  1

  9
$DIMALT
 70
     0
  9
$DIMALTD
 70
     2
  9
$DIMALTF
 40
25.4
  9
$DIMLFAC
 40
1.0
  9
$DIMTOFL
 70
     0
  9
$DIMTVP
 40
0.0
  9
$DIMTIX
 70
     0
  9
$DIMSOXD
 70
     0
  9
$DIMSAH
 70
     0
  9
$DIMBLK1
  1

  9
$DIMBLK2
  1

  9
$DIMSTYLE
  2
Standard
  9
$DIMCLRD
 70
     0
  9
$DIMCLRE
 70
     0
  9
$DIMCLRT
 70
     0
  9
$DIMTFAC
 40
1.0
  9
$DIMGAP
 40
1.5
  9
$DIMJUST
 70
     0
  9
$DIMSD1
 70
     0
  9
$DIMSD2
 70
     0
  9
$DIMTOLJ
 70
     1
  9
$DIMTZIN
 70
     0
  9
$DIMALTZ
 70
     0
  9
$DIMALTTZ
 70
     0
  9
$DIMUPT
 70
     0
  9
$DIMDEC
 70
     2
  9
$DIMTDEC
 70
     4
  9
$DIMALTU
 70
     2
  9
$DIMALTTD
 70
     2
  9
$DIMTXSTY
  7
ＭＳ ゴシック
  9
$DIMAUNIT
 70
     0
  9
$DIMADEC
 70
     2
  9
$DIMALTRND
 40
0.0
  9
$DIMAZIN
 70
     0
  9
$DIMDSEP
 70
    46
  9
$DIMATFIT
 70
     3
  9
$DIMFRAC
 70
     0
  9
$DIMLDRBLK
  1

  9
$DIMLUNIT
 70
     2
  9
$DIMLWD
 70
    -2
  9
$DIMLWE
 70
    -2
  9
$DIMTMOVE
 70
     0
  9
$DIMFXL
 40
1.0
  9
$DIMFXLON
 70
     0
  9
$DIMJOGANG
 40
0.7853981633974483
  9
$DIMTFILL
 70
     0
  9
$DIMTFILLCLR
 70
     0
  9
$DIMARCSYM
 70
     0
  9
$DIMLTYPE
  6

  9
$DIMLTEX1
  6

  9
$DIMLTEX2
  6

  9
$DIMTXTDIRECTION
 70
     0
  9
$LUNITS
 70
     2
  9
$LUPREC
 70
     4
  9
$SKETCHINC
 40
0.1
  9
$FILLETRAD
 40
0.5
  9
$AUNITS
 70
     0
  9
$AUPREC
 70
     0
  9
$MENU
  1
.
  9
$ELEVATION
 40
0.0
  9
$PELEVATION
 40
0.0
  9
$THICKNESS
 40
0.0
  9
$LIMCHECK
 70
     0
  9
$CHAMFERA
 40
0.0
  9
$CHAMFERB
 40
0.0
  9
$CHAMFERC
 40
0.0
  9
$CHAMFERD
 40
0.0
  9
$SKPOLY
 70
     0
  9
$TDCREATE
 40
2458960.475689849
  9
$TDUCREATE
 40
2458960.100689849
  9
$TDUPDATE
 40
2458960.475691343
  9
$TDUUPDATE
 40
2458960.100691343
  9
$TDINDWG
 40
0.0000000116
  9
$TDUSRTIMER
 40
0.0000000116
  9
$USRTIMER
 70
     1
  9
$ANGBASE
 50
0.0
  9
$ANGDIR
 70
     0
  9
$PDMODE
 70
     0
  9
$PDSIZE
 40
0.0
  9
$PLINEWID
 40
0.0
  9
$SPLFRAME
 70
     0
  9
$SPLINETYPE
 70
     6
  9
$SPLINESEGS
 70
     8
  9
$HANDSEED
  5
417
  9
$SURFTAB1
 70
     6
  9
$SURFTAB2
 70
     6
  9
$SURFTYPE
 70
     6
  9
$SURFU
 70
     6
  9
$SURFV
 70
     6
  9
$UCSBASE
  2

  9
$UCSNAME
  2

  9
$UCSORG
 10
0.0
 20
0.0
 30
0.0
  9
$UCSXDIR
 10
1.0
 20
0.0
 30
0.0
  9
$UCSYDIR
 10
0.0
 20
1.0
 30
0.0
  9
$UCSORTHOREF
  2

  9
$UCSORTHOVIEW
 70
     0
  9
$UCSORGTOP
 10
0.0
 20
0.0
 30
0.0
  9
$UCSORGBOTTOM
 10
0.0
 20
0.0
 30
0.0
  9
$UCSORGLEFT
 10
0.0
 20
0.0
 30
0.0
  9
$UCSORGRIGHT
 10
0.0
 20
0.0
 30
0.0
  9
$UCSORGFRONT
 10
0.0
 20
0.0
 30
0.0
  9
$UCSORGBACK
 10
0.0
 20
0.0
 30
0.0
  9
$PUCSBASE
  2

  9
$PUCSNAME
  2

  9
$PUCSORG
 10
0.0
 20
0.0
 30
0.0
  9
$PUCSXDIR
 10
1.0
 20
0.0
 30
0.0
  9
$PUCSYDIR
 10
0.0
 20
1.0
 30
0.0
  9
$PUCSORTHOREF
  2

  9
$PUCSORTHOVIEW
 70
     0
  9
$PUCSORGTOP
 10
0.0
 20
0.0
 30
0.0
  9
$PUCSORGBOTTOM
 10
0.0
 20
0.0
 30
0.0
  9
$PUCSORGLEFT
 10
0.0
 20
0.0
 30
0.0
  9
$PUCSORGRIGHT
 10
0.0
 20
0.0
 30
0.0
  9
$PUCSORGFRONT
 10
0.0
 20
0.0
 30
0.0
  9
$PUCSORGBACK
 10
0.0
 20
0.0
 30
0.0
  9
$USERI1
 70
     0
  9
$USERI2
 70
     0
  9
$USERI3
 70
     0
  9
$USERI4
 70
     0
  9
$USERI5
 70
     0
  9
$USERR1
 40
0.0
  9
$USERR2
 40
0.0
  9
$USERR3
 40
0.0
  9
$USERR4
 40
0.0
  9
$USERR5
 40
0.0
  9
$WORLDVIEW
 70
     1
  9
$SHADEDGE
 70
     3
  9
$SHADEDIF
 70
    70
  9
$TILEMODE
 70
     1
  9
$MAXACTVP
 70
    64
  9
$PINSBASE
 10
0.0
 20
0.0
 30
0.0
  9
$PLIMCHECK
 70
     0
  9
$PEXTMIN
 10
1.000000000000000E+20
 20
1.000000000000000E+20
 30
1.000000000000000E+20
  9
$PEXTMAX
 10
-1.000000000000000E+20
 20
-1.000000000000000E+20
 30
-1.000000000000000E+20
  9
$PLIMMIN
 10
0.0
 20
0.0
  9
$PLIMMAX
 10
12.0
 20
9.0
  9
$UNITMODE
 70
     0
  9
$VISRETAIN
 70
     1
  9
$PLINEGEN
 70
     0
  9
$PSLTSCALE
 70
     1
  9
$TREEDEPTH
 70
  3020
  9
$CMLSTYLE
  2
Standard
  9
$CMLJUST
 70
     0
  9
$CMLSCALE
 40
1.0
  9
$PROXYGRAPHICS
 70
     1
  9
$MEASUREMENT
 70
     1
  9
$CELWEIGHT
370
    -1
  9
$ENDCAPS
280
     0
  9
$JOINSTYLE
280
     0
  9
$LWDISPLAY
290
     1
  9
$INSUNITS
 70
     4
  9
$HYPERLINKBASE
  1

  9
$STYLESHEET
  1

  9
$XEDIT
290
     1
  9
$CEPSNTYPE
380
     0
  9
$PSTYLEMODE
290
     1
  9
$FINGERPRINTGUID
  2
{BCA531CE-5CAC-4512-8DBD-E3B37968858B}
  9
$VERSIONGUID
  2
{FAEB1C32-E019-11D5-929B-00C0DF256EC4}
  9
$EXTNAMES
290
     1
  9
$PSVPSCALE
 40
0.0
  9
$OLESTARTUP
290
     0
  9
$SORTENTS
280
   127
  9
$INDEXCTL
280
     0
  9
$HIDETEXT
280
     1
  9
$XCLIPFRAME
280
     2
  9
$HALOGAP
280
     0
  9
$OBSCOLOR
 70
   257
  9
$OBSLTYPE
280
     0
  9
$INTERSECTIONDISPLAY
280
     0
  9
$INTERSECTIONCOLOR
 70
   257
  9
$DIMASSOC
280
     2
  9
$PROJECTNAME
  1

  9
$CAMERADISPLAY
290
     0
  9
$LENSLENGTH
 40
50.0
  9
$CAMERAHEIGHT
 40
0.0
  9
$STEPSPERSEC
 40
2.0
  9
$STEPSIZE
 40
6.0
  9
$3DDWFPREC
 40
2.0
  9
$PSOLWIDTH
 40
0.25
  9
$PSOLHEIGHT
 40
4.0
  9
$LOFTANG1
 40
1.570796326794897
  9
$LOFTANG2
 40
1.570796326794897
  9
$LOFTMAG1
 40
0.0
  9
$LOFTMAG2
 40
0.0
  9
$LOFTPARAM
 70
     7
  9
$LOFTNORMALS
280
     1
  9
$LATITUDE
 40
37.795
  9
$LONGITUDE
 40
-122.394
  9
$NORTHDIRECTION
 40
0.0
  9
$TIMEZONE
 70
 -8000
  9
$LIGHTGLYPHDISPLAY
280
     1
  9
$TILEMODELIGHTSYNCH
280
     1
  9
$CMATERIAL
347
44
  9
$SOLIDHIST
280
     0
  9
$SHOWHIST
280
     1
  9
$DWFFRAME
280
     2
  9
$DGNFRAME
280
     2
  9
$REALWORLDSCALE
290
     1
  9
$INTERFERECOLOR
 62
   256
  9
$CSHADOW
280
     0
  9
$SHADOWPLANELOCATION
 40
0.0
  0
ENDSEC
  0
SECTION
  2
CLASSES
  0
CLASS
  1
ACDBDICTIONARYWDFLT
  2
AcDbDictionaryWithDefault
  3
ObjectDBX Classes
 90
        0
 91
        3
280
     0
281
     0
  0
CLASS
  1
VISUALSTYLE
  2
AcDbVisualStyle
  3
ObjectDBX Classes
 90
     4095
 91
        3
280
     0
281
     0
  0
CLASS
  1
MATERIAL
  2
AcDbMaterial
  3
ObjectDBX Classes
 90
     1153
 91
        3
280
     0
281
     0
  0
CLASS
  1
SCALE
  2
AcDbScale
  3
ObjectDBX Classes
 90
     1153
 91
        3
280
     0
281
     0
  0
CLASS
  1
TABLESTYLE
  2
AcDbTableStyle
  3
ObjectDBX Classes
 90
     4095
 91
        3
280
     0
281
     0
  0
CLASS
  1
MLEADERSTYLE
  2
AcDbMLeaderStyle
  3
ACDB_MLEADERSTYLE_CLASS
 90
     4095
 91
        3
280
     0
281
     0
  0
CLASS
  1
SUN
  2
AcDbSun
  3
SCENEOE
 90
     1153
 91
        3
280
     0
281
     0
  0
CLASS
  1
DICTIONARYVAR
  2
AcDbDictionaryVar
  3
ObjectDBX Classes
 90
        0
 91
        3
280
     0
281
     0
  0
CLASS
  1
CELLSTYLEMAP
  2
AcDbCellStyleMap
  3
ObjectDBX Classes
 90
     1152
 91
        3
280
     0
281
     0
  0
ENDSEC
  0
SECTION
  2
TABLES
  0
TABLE
  2
VPORT
  5
8
330
0
100
AcDbSymbolTable
 70
     1
  0
VPORT
  5
29
330
8
100
AcDbSymbolTableRecord
100
AcDbViewportTableRecord
  2
*Active
 70
     0
 10
0.0
 20
0.0
 11
1.0
 21
1.0
 12
667.4999999999998
 22
-207.9809045411923
 13
0.0
 23
0.0
 14
0.5
 24
0.5
 15
0.5
 25
0.5
 16
0.0
 26
0.0
 36
1.0
 17
0.0
 27
0.0
 37
0.0
 40
376.038190917815
 41
1.6
 42
50.0
 43
0.0
 44
0.0
 50
0.0
 51
0.0
 71
     0
 72
   100
 73
     1
 74
     3
 75
     0
 76
     0
 77
     0
 78
     0
281
     0
 65
     1
110
0.0
120
0.0
130
0.0
111
1.0
121
0.0
131
0.0
112
0.0
122
1.0
132
0.0
 79
     0
146
0.0
348
2F
 60
     3
 61
     5
292
     1
282
     1
141
0.0
142
0.0
 63
   250
361
6D
  0
ENDTAB
  0
TABLE
  2
LTYPE
  5
5
330
0
100
AcDbSymbolTable
 70
     1
  0
LTYPE
  5
14
330
5
100
AcDbSymbolTableRecord
100
AcDbLinetypeTableRecord
  2
ByBlock
 70
     0
  3

 72
    65
 73
     0
 40
0.0
  0
LTYPE
  5
15
330
5
100
AcDbSymbolTableRecord
100
AcDbLinetypeTableRecord
  2
ByLayer
 70
     0
  3

 72
    65
 73
     0
 40
0.0
  0
LTYPE
  5
16
330
5
100
AcDbSymbolTableRecord
100
AcDbLinetypeTableRecord
  2
Continuous
 70
     0
  3
Solid line
 72
    65
 73
     0
 40
0.0
  0
ENDTAB
  0
TABLE
  2
LAYER
  5
2
330
0
100
AcDbSymbolTable
 70
     3
  0
LAYER
  5
10
330
2
100
AcDbSymbolTableRecord
100
AcDbLayerTableRecord
  2
0
 70
     0
 62
     7
  6
Continuous
370
    -3
390
F
347
46
348
0
  0
LAYER
  5
6E
330
2
100
AcDbSymbolTableRecord
100
AcDbLayerTableRecord
  2
1
 70
     0
 62
     7
  6
Continuous
370
    -3
390
F
347
46
348
0
  0
LAYER
  5
70
330
2
100
AcDbSymbolTableRecord
100
AcDbLayerTableRecord
  2
Defpoints
 70
     0
 62
     7
  6
Continuous
290
     0
370
    -3
390
F
347
46
348
0
  0
ENDTAB
  0
TABLE
  2
STYLE
  5
3
330
0
100
AcDbSymbolTable
 70
     2
  0
STYLE
  5
11
330
3
100
AcDbSymbolTableRecord
100
AcDbTextStyleTableRecord
  2
Standard
 70
     0
 40
0.0
 41
1.0
 50
0.0
 71
     0
 42
0.2
  3
txt
  4

  0
STYLE
  5
6F
330
3
100
AcDbSymbolTableRecord
100
AcDbTextStyleTableRecord
  2
ＭＳ ゴシック
 70
     0
 40
0.0
 41
1.0
 50
0.0
 71
     0
 42
0.2
  3
ＭＳ ゴシック.shx
  4

  0
ENDTAB
  0
TABLE
  2
VIEW
  5
6
330
0
100
AcDbSymbolTable
 70
     0
  0
ENDTAB
  0
TABLE
  2
UCS
  5
7
330
0
100
AcDbSymbolTable
 70
     0
  0
ENDTAB
  0
TABLE
  2
APPID
  5
9
330
0
100
AcDbSymbolTable
 70
     1
  0
APPID
  5
12
330
9
100
AcDbSymbolTableRecord
100
AcDbRegAppTableRecord
  2
ACAD
 70
     0
  0
ENDTAB
  0
TABLE
  2
DIMSTYLE
  5
A
330
0
100
AcDbSymbolTable
 70
     1
100
AcDbDimStyleTable
  0
DIMSTYLE
105
27
102
{ACAD_REACTORS
330
71
330
7E
330
8B
330
98
330
121
330
130
330
13F
330
14E
102
}
330
A
100
AcDbSymbolTableRecord
100
AcDbDimStyleTableRecord
  2
Standard
 70
     0
178
     0
340
11
  0
ENDTAB
  0
TABLE
  2
BLOCK_RECORD
  5
1
330
0
100
AcDbSymbolTable
 70
    10
  0
BLOCK_RECORD
  5
1F
330
1
100
AcDbSymbolTableRecord
100
AcDbBlockTableRecord
  2
*Model_Space
340
22
 70
     0
280
     1
281
     0
  0
BLOCK_RECORD
  5
1B
330
1
100
AcDbSymbolTableRecord
100
AcDbBlockTableRecord
  2
*Paper_Space
340
1E
 70
     0
280
     1
281
     0
  0
BLOCK_RECORD
  5
23
330
1
100
AcDbSymbolTableRecord
100
AcDbBlockTableRecord
  2
*Paper_Space0
340
26
 70
     0
280
     1
281
     0
  0
BLOCK_RECORD
  5
72
330
1
100
AcDbSymbolTableRecord
100
AcDbBlockTableRecord
  2
*D1
340
0
 70
     0
280
     1
281
     0
  0
BLOCK_RECORD
  5
7F
330
1
100
AcDbSymbolTableRecord
100
AcDbBlockTableRecord
  2
*D2
340
0
 70
     0
280
     1
281
     0
  0
BLOCK_RECORD
  5
8C
330
1
100
AcDbSymbolTableRecord
100
AcDbBlockTableRecord
  2
*D3
340
0
 70
     0
280
     1
281
     0
  0
BLOCK_RECORD
  5
99
330
1
100
AcDbSymbolTableRecord
100
AcDbBlockTableRecord
  2
*D4
340
0
 70
     0
280
     1
281
     0
  0
BLOCK_RECORD
  5
11B
330
1
100
AcDbSymbolTableRecord
100
AcDbBlockTableRecord
  2
_Open
340
0
102
{BLKREFS
331
12B
331
12A
331
13A
331
139
331
149
331
148
331
158
331
157
102
}
 70
     0
280
     1
281
     0
  0
BLOCK_RECORD
  5
122
330
1
100
AcDbSymbolTableRecord
100
AcDbBlockTableRecord
  2
*D6
340
0
 70
     0
280
     1
281
     0
  0
BLOCK_RECORD
  5
131
330
1
100
AcDbSymbolTableRecord
100
AcDbBlockTableRecord
  2
*D7
340
0
 70
     0
280
     1
281
     0
  0
BLOCK_RECORD
  5
140
330
1
100
AcDbSymbolTableRecord
100
AcDbBlockTableRecord
  2
*D8
340
0
 70
     0
280
     1
281
     0
  0
BLOCK_RECORD
  5
14F
330
1
100
AcDbSymbolTableRecord
100
AcDbBlockTableRecord
  2
*D9
340
0
 70
     0
280
     1
281
     0
  0
ENDTAB
  0
ENDSEC
  0
SECTION
  2
BLOCKS
  0
BLOCK
  5
20
330
1F
100
AcDbEntity
  8
0
100
AcDbBlockBegin
  2
*Model_Space
 70
     0
 10
0.0
 20
0.0
 30
0.0
  3
*Model_Space
  1

  0
ENDBLK
  5
21
330
1F
100
AcDbEntity
  8
0
100
AcDbBlockEnd
  0
BLOCK
  5
1C
330
1B
100
AcDbEntity
 67
     1
  8
0
100
AcDbBlockBegin
  2
*Paper_Space
 70
     0
 10
0.0
 20
0.0
 30
0.0
  3
*Paper_Space
  1

  0
ENDBLK
  5
1D
330
1B
100
AcDbEntity
 67
     1
  8
0
100
AcDbBlockEnd
  0
BLOCK
  5
24
330
23
100
AcDbEntity
  8
0
100
AcDbBlockBegin
  2
*Paper_Space0
 70
     0
 10
0.0
 20
0.0
 30
0.0
  3
*Paper_Space0
  1

  0
ENDBLK
  5
25
330
23
100
AcDbEntity
  8
0
100
AcDbBlockEnd
  0
BLOCK
  5
73
330
72
100
AcDbEntity
  8
0
100
AcDbBlockBegin
  2
*D1
 70
     1
 10
0.0
 20
0.0
 30
0.0
  3
*D1
  1

  0
LINE
  5
75
330
72
100
AcDbEntity
  8
1
 62
     0
370
    -2
100
AcDbLine
 10
503.9720234458669
 20
-231.7681391061831
 30
0.0
 11
503.9720234458669
 21
-220.3306391061831
 31
0.0
  0
LINE
  5
76
330
72
100
AcDbEntity
  8
1
 62
     0
370
    -2
100
AcDbLine
 10
523.9720234458676
 20
-231.7681391061831
 30
0.0
 11
523.9720234458676
 21
-220.3306391061831
 31
0.0
  0
LINE
  5
77
330
72
100
AcDbEntity
  8
1
 62
     0
370
    -2
100
AcDbLine
 10
507.4720234458669
 20
-222.0806391061831
 30
0.0
 11
520.4720234458676
 21
-222.0806391061831
 31
0.0
  0
SOLID
  5
78
330
72
100
AcDbEntity
  8
1
 62
     0
100
AcDbTrace
 10
507.4720234458669
 20
-221.4973057728498
 30
0.0
 11
507.4720234458669
 21
-222.6639724395164
 31
0.0
 12
503.9720234458669
 22
-222.0806391061831
 32
0.0
 13
503.9720234458669
 23
-222.0806391061831
 33
0.0
  0
SOLID
  5
79
330
72
100
AcDbEntity
  8
1
 62
     0
100
AcDbTrace
 10
520.4720234458676
 20
-222.6639724395164
 30
0.0
 11
520.4720234458676
 21
-221.4973057728498
 31
0.0
 12
523.9720234458676
 22
-222.0806391061831
 32
0.0
 13
523.9720234458676
 23
-222.0806391061831
 33
0.0
  0
MTEXT
  5
7A
330
72
100
AcDbEntity
  8
1
 62
     0
100
AcDbMText
 10
513.9720234458673
 20
-218.4222164164244
 30
0.0
 40
3.5
 41
0.0
 46
0.0
 71
     5
 72
     1
  1
\A1;60以上
  7
ＭＳ ゴシック
 73
     1
 44
1.0
  0
POINT
  5
7B
330
72
100
AcDbEntity
  8
Defpoints
 62
     0
100
AcDbPoint
 10
503.9720234458669
 20
-231.8306391061831
 30
0.0
  0
POINT
  5
7C
330
72
100
AcDbEntity
  8
Defpoints
 62
     0
100
AcDbPoint
 10
523.9720234458676
 20
-231.8306391061831
 30
0.0
  0
POINT
  5
7D
330
72
100
AcDbEntity
  8
Defpoints
 62
     0
100
AcDbPoint
 10
523.9720234458676
 20
-222.0806391061831
 30
0.0
  0
ENDBLK
  5
74
330
72
100
AcDbEntity
  8
0
100
AcDbBlockEnd
  0
BLOCK
  5
80
330
7F
100
AcDbEntity
  8
0
100
AcDbBlockBegin
  2
*D2
 70
     1
 10
0.0
 20
0.0
 30
0.0
  3
*D2
  1

  0
LINE
  5
82
330
7F
100
AcDbEntity
  8
1
 62
     0
370
    -2
100
AcDbLine
 10
503.9094872080997
 20
-242.9485252734831
 30
0.0
 11
478.8933545698671
 21
-242.9485252734832
 31
0.0
  0
LINE
  5
83
330
7F
100
AcDbEntity
  8
1
 62
     0
370
    -2
100
AcDbLine
 10
503.9095230697991
 20
-296.2818585082166
 30
0.0
 11
478.8933545698671
 21
-296.2818585082167
 31
0.0
  0
LINE
  5
84
330
7F
100
AcDbEntity
  8
1
 62
     0
370
    -2
100
AcDbLine
 10
480.6433545698671
 20
-246.4485252734832
 30
0.0
 11
480.6433545698671
 21
-292.7818585082167
 31
0.0
  0
SOLID
  5
85
330
7F
100
AcDbEntity
  8
1
 62
     0
100
AcDbTrace
 10
481.2266879032004
 20
-246.4485252734832
 30
0.0
 11
480.0600212365338
 21
-246.4485252734832
 31
0.0
 12
480.6433545698671
 22
-242.9485252734832
 32
0.0
 13
480.6433545698671
 23
-242.9485252734832
 33
0.0
  0
SOLID
  5
86
330
7F
100
AcDbEntity
  8
1
 62
     0
100
AcDbTrace
 10
480.0600212365338
 20
-292.7818585082167
 30
0.0
 11
481.2266879032004
 21
-292.7818585082167
 31
0.0
 12
480.6433545698671
 22
-296.2818585082167
 32
0.0
 13
480.6433545698671
 23
-296.2818585082167
 33
0.0
  0
MTEXT
  5
87
330
7F
100
AcDbEntity
  8
1
 62
     0
100
AcDbMText
 10
476.8563953976775
 20
-269.6151918908499
 30
0.0
 40
3.5
 41
0.0
 46
0.0
 71
     5
 72
     1
  1
\A1;開口部
  7
ＭＳ ゴシック
 11
0.0
 21
1.0
 31
0.0
 73
     1
 44
1.0
  0
POINT
  5
88
330
7F
100
AcDbEntity
  8
Defpoints
 62
     0
100
AcDbPoint
 10
503.9719872080997
 20
-242.9485252734831
 30
0.0
  0
POINT
  5
89
330
7F
100
AcDbEntity
  8
Defpoints
 62
     0
100
AcDbPoint
 10
503.9720230697991
 20
-296.2818585082166
 30
0.0
  0
POINT
  5
8A
330
7F
100
AcDbEntity
  8
Defpoints
 62
     0
100
AcDbPoint
 10
480.6433545698671
 20
-296.2818585082166
 30
0.0
  0
ENDBLK
  5
81
330
7F
100
AcDbEntity
  8
0
100
AcDbBlockEnd
  0
BLOCK
  5
8D
330
8C
100
AcDbEntity
  8
0
100
AcDbBlockBegin
  2
*D3
 70
     1
 10
0.0
 20
0.0
 30
0.0
  3
*D3
  1

  0
LINE
  5
8F
330
8C
100
AcDbEntity
  8
1
 62
     0
370
    -2
100
AcDbLine
 10
815.4642332201007
 20
-236.633180131233
 30
0.0
 11
815.4642332201198
 21
-225.1956801311995
 31
0.0
  0
LINE
  5
90
330
8C
100
AcDbEntity
  8
1
 62
     0
370
    -2
100
AcDbLine
 10
835.4642332201004
 20
-236.6331801312664
 30
0.0
 11
835.4642332201195
 21
-225.195680131233
 31
0.0
  0
LINE
  5
91
330
8C
100
AcDbEntity
  8
1
 62
     0
370
    -2
100
AcDbLine
 10
818.9642332201169
 20
-226.9456801312053
 30
0.0
 11
831.9642332201165
 21
-226.9456801312271
 31
0.0
  0
SOLID
  5
92
330
8C
100
AcDbEntity
  8
1
 62
     0
100
AcDbTrace
 10
818.9642332201179
 20
-226.362346797872
 30
0.0
 11
818.9642332201158
 21
-227.5290134645387
 31
0.0
 12
815.4642332201169
 22
-226.9456801311995
 32
0.0
 13
815.4642332201169
 23
-226.9456801311995
 33
0.0
  0
SOLID
  5
93
330
8C
100
AcDbEntity
  8
1
 62
     0
100
AcDbTrace
 10
831.9642332201155
 20
-227.5290134645604
 30
0.0
 11
831.9642332201175
 21
-226.3623467978938
 31
0.0
 12
835.4642332201165
 22
-226.945680131233
 32
0.0
 13
835.4642332201165
 23
-226.945680131233
 33
0.0
  0
MTEXT
  5
94
330
8C
100
AcDbEntity
  8
1
 62
     0
100
AcDbMText
 10
825.464233220123
 20
-223.2872574414576
 30
0.0
 40
3.5
 41
0.0
 46
0.0
 71
     5
 72
     1
  1
\A1;60以上
  7
ＭＳ ゴシック
 73
     1
 44
1.0
  0
POINT
  5
95
330
8C
100
AcDbEntity
  8
Defpoints
 62
     0
100
AcDbPoint
 10
815.4642332201006
 20
-236.695680131233
 30
0.0
  0
POINT
  5
96
330
8C
100
AcDbEntity
  8
Defpoints
 62
     0
100
AcDbPoint
 10
835.4642332201003
 20
-236.6956801312664
 30
0.0
  0
POINT
  5
97
330
8C
100
AcDbEntity
  8
Defpoints
 62
     0
100
AcDbPoint
 10
835.4642332201165
 20
-226.945680131233
 30
0.0
  0
ENDBLK
  5
8E
330
8C
100
AcDbEntity
  8
0
100
AcDbBlockEnd
  0
BLOCK
  5
9A
330
99
100
AcDbEntity
  8
0
100
AcDbBlockBegin
  2
*D4
 70
     1
 10
0.0
 20
0.0
 30
0.0
  3
*D4
  1

  0
LINE
  5
9C
330
99
100
AcDbEntity
  8
1
 62
     0
370
    -2
100
AcDbLine
 10
815.4017500182665
 20
-247.3623467977996
 30
0.0
 11
790.3856173800326
 21
-247.3623467977996
 31
0.0
  0
LINE
  5
9D
330
99
100
AcDbEntity
  8
1
 62
     0
370
    -2
100
AcDbLine
 10
815.4017498390332
 20
-300.5956800324998
 30
0.0
 11
790.3856173800326
 21
-300.5956800324998
 31
0.0
  0
LINE
  5
9E
330
99
100
AcDbEntity
  8
1
 62
     0
370
    -2
100
AcDbLine
 10
792.1356173800326
 20
-250.8623467977996
 30
0.0
 11
792.1356173800326
 21
-297.0956800324998
 31
0.0
  0
SOLID
  5
9F
330
99
100
AcDbEntity
  8
1
 62
     0
100
AcDbTrace
 10
792.718950713366
 20
-250.8623467977996
 30
0.0
 11
791.5522840466992
 21
-250.8623467977996
 31
0.0
 12
792.1356173800326
 22
-247.3623467977996
 32
0.0
 13
792.1356173800326
 23
-247.3623467977996
 33
0.0
  0
SOLID
  5
A0
330
99
100
AcDbEntity
  8
1
 62
     0
100
AcDbTrace
 10
791.5522840466992
 20
-297.0956800324998
 30
0.0
 11
792.718950713366
 21
-297.0956800324998
 31
0.0
 12
792.1356173800326
 22
-300.5956800324998
 32
0.0
 13
792.1356173800326
 23
-300.5956800324998
 33
0.0
  0
MTEXT
  5
A1
330
99
100
AcDbEntity
  8
1
 62
     0
100
AcDbMText
 10
788.3486582078431
 20
-273.9790134151497
 30
0.0
 40
3.5
 41
0.0
 46
0.0
 71
     5
 72
     1
  1
\A1;開口部
  7
ＭＳ ゴシック
 11
0.0
 21
1.0
 31
0.0
 73
     1
 44
1.0
  0
POINT
  5
A2
330
99
100
AcDbEntity
  8
Defpoints
 62
     0
100
AcDbPoint
 10
815.4642500182665
 20
-247.3623467977996
 30
0.0
  0
POINT
  5
A3
330
99
100
AcDbEntity
  8
Defpoints
 62
     0
100
AcDbPoint
 10
815.4642498390332
 20
-300.5956800324998
 30
0.0
  0
POINT
  5
A4
330
99
100
AcDbEntity
  8
Defpoints
 62
     0
100
AcDbPoint
 10
792.1356173800326
 20
-300.5956800324998
 30
0.0
  0
ENDBLK
  5
9B
330
99
100
AcDbEntity
  8
0
100
AcDbBlockEnd
  0
BLOCK
  5
11C
330
11B
100
AcDbEntity
  8
0
100
AcDbBlockBegin
  2
_Open
 70
     0
 10
0.0
 20
0.0
 30
0.0
  3
_Open
  1

  0
LINE
  5
11E
330
11B
100
AcDbEntity
  8
0
  6
ByBlock
 62
     0
370
    -2
100
AcDbLine
 10
-1.0
 20
0.166667
 30
0.0
 11
0.0
 21
0.0
 31
0.0
  0
LINE
  5
11F
330
11B
100
AcDbEntity
  8
0
  6
ByBlock
 62
     0
370
    -2
100
AcDbLine
 10
-1.0
 20
-0.166667
 30
0.0
 11
0.0
 21
0.0
 31
0.0
  0
LINE
  5
120
330
11B
100
AcDbEntity
  8
0
  6
ByBlock
 62
     0
370
    -2
100
AcDbLine
 10
0.0
 20
0.0
 30
0.0
 11
-1.0
 21
0.0
 31
0.0
  0
ENDBLK
  5
11D
330
11B
100
AcDbEntity
  8
0
100
AcDbBlockEnd
  0
BLOCK
  5
123
330
122
100
AcDbEntity
  8
0
100
AcDbBlockBegin
  2
*D6
 70
     1
 10
0.0
 20
0.0
 30
0.0
  3
*D6
  1

  0
LINE
  5
125
330
122
100
AcDbEntity
  8
0
 62
     0
370
    -2
100
AcDbLine
 10
502.972023067037
 20
-299.0776918415501
 30
0.0
 11
502.9720223633576
 21
-314.9999999103744
 31
0.0
  0
LINE
  5
126
330
122
100
AcDbEntity
  8
0
 62
     0
370
    -2
100
AcDbLine
 10
511.3053565222386
 20
-296.2443585081832
 30
0.0
 11
511.3053556933412
 21
-315.0000002786624
 31
0.0
  0
LINE
  5
127
330
122
100
AcDbEntity
  8
0
 62
     0
370
    -2
100
AcDbLine
 10
502.972022440698
 20
-313.2499999103744
 30
0.0
 11
477.0612017162597
 21
-313.2499987652571
 31
0.0
  0
LINE
  5
128
330
122
100
AcDbEntity
  8
0
 62
     0
370
    -2
100
AcDbLine
 10
499.472022440698
 20
-313.2499997556935
 30
0.0
 11
495.972022440698
 21
-313.2499996010125
 31
0.0
  0
LINE
  5
129
330
122
100
AcDbEntity
  8
0
 62
     0
370
    -2
100
AcDbLine
 10
514.8053557706817
 20
-313.2500004333434
 30
0.0
 11
518.3053557706817
 21
-313.2500005880243
 31
0.0
  0
INSERT
  5
12A
330
122
100
AcDbEntity
  8
0
 62
     0
370
    -2
100
AcDbBlockReference
  2
_Open
 10
502.972022440698
 20
-313.2499999103744
 30
0.0
 41
3.5
 42
3.5
 43
3.5
 50
359.9999974678382
  0
INSERT
  5
12B
330
122
100
AcDbEntity
  8
0
 62
     0
370
    -2
100
AcDbBlockReference
  2
_Open
 10
511.3053557706817
 20
-313.2500002786624
 30
0.0
 41
3.5
 42
3.5
 43
3.5
 50
179.9999974678382
  0
MTEXT
  5
12C
330
122
100
AcDbEntity
  8
0
 62
     0
100
AcDbMText
 10
486.5166122401613
 20
-309.5915764933761
 30
0.0
 40
3.5
 41
0.0
 46
0.0
 71
     5
 72
     1
  1
\A1;25以上
  7
ＭＳ ゴシック
 11
0.9999999999999991
 21
-4.419455992277317E-8
 31
0.0
 73
     1
 44
1.0
  0
POINT
  5
12D
330
122
100
AcDbEntity
  8
Defpoints
 62
     0
100
AcDbPoint
 10
502.9720230697991
 20
-299.0151918415501
 30
0.0
  0
POINT
  5
12E
330
122
100
AcDbEntity
  8
Defpoints
 62
     0
100
AcDbPoint
 10
511.3053565250007
 20
-296.1818585081832
 30
0.0
  0
POINT
  5
12F
330
122
100
AcDbEntity
  8
Defpoints
 62
     0
100
AcDbPoint
 10
511.3053557706817
 20
-313.2500002786624
 30
0.0
  0
ENDBLK
  5
124
330
122
100
AcDbEntity
  8
0
100
AcDbBlockEnd
  0
BLOCK
  5
132
330
131
100
AcDbEntity
  8
0
100
AcDbBlockBegin
  2
*D7
 70
     1
 10
0.0
 20
0.0
 30
0.0
  3
*D7
  1

  0
LINE
  5
134
330
131
100
AcDbEntity
  8
0
 62
     0
370
    -2
100
AcDbLine
 10
828.130916883845
 20
-300.5581800324996
 30
0.0
 11
828.1309175299838
 21
-320.000000062118
 31
0.0
  0
LINE
  5
135
330
131
100
AcDbEntity
  8
0
 62
     0
370
    -2
100
AcDbLine
 10
836.4642502171778
 20
-303.3915133658329
 30
0.0
 11
836.4642507691522
 21
-319.9999997851641
 31
0.0
  0
LINE
  5
136
330
131
100
AcDbEntity
  8
0
 62
     0
370
    -2
100
AcDbLine
 10
836.4642507109918
 20
-318.2499997851641
 30
0.0
 11
862.3750714354301
 21
-318.2499989240315
 31
0.0
  0
LINE
  5
137
330
131
100
AcDbEntity
  8
0
 62
     0
370
    -2
100
AcDbLine
 10
824.6309174718234
 20
-318.2500001784387
 30
0.0
 11
821.1309174718234
 21
-318.2500002947594
 31
0.0
  0
LINE
  5
138
330
131
100
AcDbEntity
  8
0
 62
     0
370
    -2
100
AcDbLine
 10
839.9642507109918
 20
-318.2499996688434
 30
0.0
 11
843.4642507109918
 21
-318.2499995525227
 31
0.0
  0
INSERT
  5
139
330
131
100
AcDbEntity
  8
0
 62
     0
370
    -2
100
AcDbBlockReference
  2
_Open
 10
828.1309174718234
 20
-318.250000062118
 30
0.0
 41
3.5
 42
3.5
 43
3.5
 50
0.000001904195345
  0
INSERT
  5
13A
330
131
100
AcDbEntity
  8
0
 62
     0
370
    -2
100
AcDbBlockReference
  2
_Open
 10
836.4642507109918
 20
-318.2499997851641
 30
0.0
 41
3.5
 42
3.5
 43
3.5
 50
180.0000019041953
  0
MTEXT
  5
13B
330
131
100
AcDbEntity
  8
0
 62
     0
100
AcDbMText
 10
852.9196609516251
 20
-314.5915765485185
 30
0.0
 40
3.5
 41
0.0
 46
0.0
 71
     5
 72
     1
  1
\A1;25以上
  7
ＭＳ ゴシック
 11
0.9999999999999996
 21
3.323447837184505E-8
 31
0.0
 73
     1
 44
1.0
  0
POINT
  5
13C
330
131
100
AcDbEntity
  8
Defpoints
 62
     0
100
AcDbPoint
 10
828.1309168817678
 20
-300.4956800324996
 30
0.0
  0
POINT
  5
13D
330
131
100
AcDbEntity
  8
Defpoints
 62
     0
100
AcDbPoint
 10
836.4642502151006
 20
-303.3290133658329
 30
0.0
  0
POINT
  5
13E
330
131
100
AcDbEntity
  8
Defpoints
 62
     0
100
AcDbPoint
 10
836.4642507109918
 20
-318.2499997851641
 30
0.0
  0
ENDBLK
  5
133
330
131
100
AcDbEntity
  8
0
100
AcDbBlockEnd
  0
BLOCK
  5
141
330
140
100
AcDbEntity
  8
0
100
AcDbBlockBegin
  2
*D8
 70
     1
 10
0.0
 20
0.0
 30
0.0
  3
*D8
  1

  0
LINE
  5
143
330
140
100
AcDbEntity
  8
0
 62
     0
370
    -2
100
AcDbLine
 10
788.9980811947883
 20
-328.2500000000001
 30
0.0
 11
806.4089019192265
 21
-328.2500000000001
 31
0.0
  0
LINE
  5
144
330
140
100
AcDbEntity
  8
0
 62
     0
370
    -2
100
AcDbLine
 10
806.4089019192265
 20
-328.2500000000001
 30
0.0
 11
814.4642487376598
 21
-328.2500003560025
 31
0.0
  0
LINE
  5
145
330
140
100
AcDbEntity
  8
0
 62
     0
370
    -2
100
AcDbLine
 10
814.4642498362698
 20
-303.3915133658664
 30
0.0
 11
814.4642486603193
 21
-330.0000003560025
 31
0.0
  0
LINE
  5
146
330
140
100
AcDbEntity
  8
0
 62
     0
370
    -2
100
AcDbLine
 10
822.7975832914715
 20
-300.5581800324996
 30
0.0
 11
822.797581990303
 21
-330.0000007242905
 31
0.0
  0
LINE
  5
147
330
140
100
AcDbEntity
  8
0
 62
     0
370
    -2
100
AcDbLine
 10
826.2975820676435
 20
-328.2500008789715
 30
0.0
 11
829.7975820676435
 21
-328.2500010336524
 31
0.0
  0
INSERT
  5
148
330
140
100
AcDbEntity
  8
0
 62
     0
370
    -2
100
AcDbBlockReference
  2
_Open
 10
814.4642487376598
 20
-328.2500003560025
 30
0.0
 41
3.5
 42
3.5
 43
3.5
 50
359.9999974678382
  0
INSERT
  5
149
330
140
100
AcDbEntity
  8
0
 62
     0
370
    -2
100
AcDbBlockReference
  2
_Open
 10
822.7975820676435
 20
-328.2500007242905
 30
0.0
 41
3.5
 42
3.5
 43
3.5
 50
179.9999974678382
  0
MTEXT
  5
14A
330
140
100
AcDbEntity
  8
0
 62
     0
100
AcDbMText
 10
796.9534915570074
 20
-324.5915773102414
 30
0.0
 40
3.5
 41
0.0
 46
0.0
 71
     5
 72
     1
  1
\A1;25以上
  7
ＭＳ ゴシック
 73
     1
 44
1.0
  0
POINT
  5
14B
330
140
100
AcDbEntity
  8
Defpoints
 62
     0
100
AcDbPoint
 10
814.4642498390319
 20
-303.3290133658664
 30
0.0
  0
POINT
  5
14C
330
140
100
AcDbEntity
  8
Defpoints
 62
     0
100
AcDbPoint
 10
822.7975832942336
 20
-300.4956800324996
 30
0.0
  0
POINT
  5
14D
330
140
100
AcDbEntity
  8
Defpoints
 62
     0
100
AcDbPoint
 10
822.7975820676436
 20
-328.2500007242905
 30
0.0
  0
ENDBLK
  5
142
330
140
100
AcDbEntity
  8
0
100
AcDbBlockEnd
  0
BLOCK
  5
150
330
14F
100
AcDbEntity
  8
0
100
AcDbBlockBegin
  2
*D9
 70
     1
 10
0.0
 20
0.0
 30
0.0
  3
*D9
  1

  0
LINE
  5
152
330
14F
100
AcDbEntity
  8
0
 62
     0
370
    -2
100
AcDbLine
 10
516.638690114612
 20
-296.2443585081832
 30
0.0
 11
516.6386909041183
 21
-320.0000006102284
 31
0.0
  0
LINE
  5
153
330
14F
100
AcDbEntity
  8
0
 62
     0
370
    -2
100
AcDbLine
 10
524.9720234479448
 20
-299.0776918415165
 30
0.0
 11
524.9720241432868
 21
-320.0000003332744
 31
0.0
  0
LINE
  5
154
330
14F
100
AcDbEntity
  8
0
 62
     0
370
    -2
100
AcDbLine
 10
524.9720240851265
 20
-318.2500003332744
 30
0.0
 11
550.8828448095647
 21
-318.2499994721419
 31
0.0
  0
LINE
  5
155
330
14F
100
AcDbEntity
  8
0
 62
     0
370
    -2
100
AcDbLine
 10
513.138690845958
 20
-318.2500007265491
 30
0.0
 11
509.638690845958
 21
-318.2500008428698
 31
0.0
  0
LINE
  5
156
330
14F
100
AcDbEntity
  8
0
 62
     0
370
    -2
100
AcDbLine
 10
528.4720240851265
 20
-318.2500002169538
 30
0.0
 11
531.9720240851265
 21
-318.2500001006331
 31
0.0
  0
INSERT
  5
157
330
14F
100
AcDbEntity
  8
0
 62
     0
370
    -2
100
AcDbBlockReference
  2
_Open
 10
516.638690845958
 20
-318.2500006102284
 30
0.0
 41
3.5
 42
3.5
 43
3.5
 50
0.000001904195345
  0
INSERT
  5
158
330
14F
100
AcDbEntity
  8
0
 62
     0
370
    -2
100
AcDbBlockReference
  2
_Open
 10
524.9720240851265
 20
-318.2500003332744
 30
0.0
 41
3.5
 42
3.5
 43
3.5
 50
180.0000019041953
  0
MTEXT
  5
159
330
14F
100
AcDbEntity
  8
0
 62
     0
100
AcDbMText
 10
541.4274343257598
 20
-314.5915770966289
 30
0.0
 40
3.5
 41
0.0
 46
0.0
 71
     5
 72
     1
  1
\A1;25以上
  7
ＭＳ ゴシック
 11
0.9999999999999996
 21
3.323447837184460E-8
 31
0.0
 73
     1
 44
1.0
  0
POINT
  5
15A
330
14F
100
AcDbEntity
  8
Defpoints
 62
     0
100
AcDbPoint
 10
516.6386901125348
 20
-296.1818585081832
 30
0.0
  0
POINT
  5
15B
330
14F
100
AcDbEntity
  8
Defpoints
 62
     0
100
AcDbPoint
 10
524.9720234458676
 20
-299.0151918415165
 30
0.0
  0
POINT
  5
15C
330
14F
100
AcDbEntity
  8
Defpoints
 62
     0
100
AcDbPoint
 10
524.9720240851265
 20
-318.2500003332744
 30
0.0
  0
ENDBLK
  5
151
330
14F
100
AcDbEntity
  8
0
100
AcDbBlockEnd
  0
ENDSEC
  0
SECTION
  2
ENTITIES
  0
DIMENSION
  5
71
330
1F
100
AcDbEntity
  8
1
 62
     2
100
AcDbDimension
280
     0
  2
*D1
 10
523.9720234458676
 20
-222.0806391061831
 30
0.0
 11
513.9720234458673
 21
-222.0806391061831
 31
0.0
 70
   160
  1
60以上
 71
     5
 42
20.0000000000008
 73
     0
 74
     0
 75
     0
  3
Standard
100
AcDbAlignedDimension
 13
503.9720234458669
 23
-231.8306391061831
 33
0.0
 14
523.9720234458676
 24
-231.8306391061831
 34
0.0
100
AcDbRotatedDimension
1001
ACAD
1000
DSTYLE
1002
{
1070
    73
1070
     0
1070
    74
1070
     0
1070
   280
1070
     0
1070
    76
1070
     0
1070
    75
1070
     0
1070
   282
1070
     0
1070
   281
1070
     0
1070
   173
1070
     1
1070
   284
1070
     8
1070
    78
1070
     8
1070
    79
1070
     2
1070
   144
1040
1.0
1070
   146
1040
0.5
1070
   179
1070
     2
1070
    41
1040
3.5
1070
   271
1070
     2
1070
    44
1040
1.75
1070
   147
1040
1.5
1070
    77
1070
     1
1070
   340
1005
6F
1070
   140
1040
3.5
1002
}
  0
DIMENSION
  5
7E
330
1F
100
AcDbEntity
  8
1
 62
     2
100
AcDbDimension
280
     0
  2
*D2
 10
480.6433545698671
 20
-296.2818585082167
 30
0.0
 11
480.6433545698671
 21
-269.6151918908499
 31
0.0
 70
   160
  1
開口部
 71
     5
 42
53.33333323473346
 73
     0
 74
     0
 75
     0
  3
Standard
100
AcDbAlignedDimension
 13
503.9719872080997
 23
-242.9485252734831
 33
0.0
 14
503.9720230697991
 24
-296.2818585082166
 34
0.0
 50
90.0
100
AcDbRotatedDimension
1001
ACAD
1000
DSTYLE
1002
{
1070
    73
1070
     0
1070
    74
1070
     0
1070
   280
1070
     0
1070
    76
1070
     0
1070
    75
1070
     0
1070
   282
1070
     0
1070
   281
1070
     0
1070
   173
1070
     1
1070
   284
1070
     8
1070
    78
1070
     8
1070
    79
1070
     2
1070
   144
1040
1.0
1070
   146
1040
0.5
1070
   179
1070
     2
1070
    41
1040
3.5
1070
   271
1070
     2
1070
    44
1040
1.75
1070
   147
1040
1.5
1070
    77
1070
     1
1070
   340
1005
6F
1070
   140
1040
3.5
1002
}
  0
DIMENSION
  5
8B
330
1F
100
AcDbEntity
  8
1
 62
     2
100
AcDbDimension
280
     0
  2
*D3
 10
835.4642332201165
 20
-226.945680131233
 30
0.0
 11
825.4642332201169
 21
-226.9456801312162
 31
0.0
 70
   160
  1
60以上
 71
     5
 42
19.99999999999966
 73
     0
 74
     0
 75
     0
  3
Standard
100
AcDbAlignedDimension
 13
815.4642332201006
 23
-236.695680131233
 33
0.0
 14
835.4642332201003
 24
-236.6956801312664
 34
0.0
 50
359.9999999999041
100
AcDbRotatedDimension
1001
ACAD
1000
DSTYLE
1002
{
1070
    73
1070
     0
1070
    74
1070
     0
1070
   280
1070
     0
1070
    76
1070
     0
1070
    75
1070
     0
1070
   282
1070
     0
1070
   281
1070
     0
1070
   173
1070
     1
1070
   284
1070
     8
1070
    78
1070
     8
1070
    79
1070
     2
1070
   144
1040
1.0
1070
   146
1040
0.5
1070
   179
1070
     2
1070
    41
1040
3.5
1070
   271
1070
     2
1070
    44
1040
1.75
1070
   147
1040
1.5
1070
    77
1070
     1
1070
   340
1005
6F
1070
   140
1040
3.5
1002
}
  0
DIMENSION
  5
98
330
1F
100
AcDbEntity
  8
1
 62
     2
100
AcDbDimension
280
     0
  2
*D4
 10
792.1356173800326
 20
-300.5956800324998
 30
0.0
 11
792.1356173800326
 21
-273.9790134151497
 31
0.0
 70
   160
  1
開口部
 71
     5
 42
53.23333323470021
 73
     0
 74
     0
 75
     0
  3
Standard
100
AcDbAlignedDimension
 13
815.4642500182665
 23
-247.3623467977996
 33
0.0
 14
815.4642498390332
 24
-300.5956800324998
 34
0.0
 50
90.0
100
AcDbRotatedDimension
1001
ACAD
1000
DSTYLE
1002
{
1070
    73
1070
     0
1070
    74
1070
     0
1070
   280
1070
     0
1070
    76
1070
     0
1070
    75
1070
     0
1070
   282
1070
     0
1070
   281
1070
     0
1070
   173
1070
     1
1070
   284
1070
     8
1070
    78
1070
     8
1070
    79
1070
     2
1070
   144
1040
1.0
1070
   146
1040
0.5
1070
   179
1070
     2
1070
    41
1040
3.5
1070
   271
1070
     2
1070
    44
1040
1.75
1070
   147
1040
1.5
1070
    77
1070
     1
1070
   340
1005
6F
1070
   140
1040
3.5
1002
}
  0
LINE
  5
A5
330
1F
100
AcDbEntity
  8
0
  6
Continuous
 62
     7
370
     9
100
AcDbLine
 10
511.3053569010672
 20
-276.3485252734832
 30
0.0
 11
511.3053569010672
 21
-262.8818586068165
 31
0.0
  0
LINE
  5
A6
330
1F
100
AcDbEntity
  8
1
  6
Continuous
 62
     7
370
     9
100
AcDbLine
 10
523.9720234458676
 20
-231.8306391061831
 30
0.0
 11
523.9720619053919
 21
-243.0485252734832
 31
0.0
  0
LINE
  5
A7
330
1F
100
AcDbEntity
  8
0
  6
Continuous
 62
     7
370
     9
100
AcDbLine
 10
516.6386899334011
 20
-243.0485252734832
 30
0.0
 11
516.6386357112619
 21
-246.8818586068168
 31
0.0
  0
LINE
  5
A8
330
1F
100
AcDbEntity
  8
0
  6
Continuous
 62
     7
370
     9
100
AcDbLine
 10
516.6386897364683
 20
-276.3485252734832
 30
0.0
 11
516.6386897364683
 21
-262.8818586068165
 31
0.0
  0
LINE
  5
A9
330
1F
100
AcDbEntity
  8
0
  6
Continuous
 62
     7
370
     9
100
AcDbLine
 10
524.9720232666344
 20
-240.21519194015
 30
0.0
 11
524.9719704517961
 21
-246.8818586068168
 31
0.0
  0
LINE
  5
AA
330
1F
100
AcDbEntity
  8
1
  6
Continuous
 62
     7
370
     9
100
AcDbLine
 10
523.9720234458676
 20
-306.4984788631832
 30
0.0
 11
523.9720230661201
 21
-296.1818585082168
 31
0.0
  0
LINE
  5
AB
330
1F
100
AcDbEntity
  8
0
  6
Continuous
 62
     7
370
     9
100
AcDbLine
 10
511.3053567041677
 20
-243.0485252734832
 30
0.0
 11
511.3054109262729
 21
-246.8818586068168
 31
0.0
  0
CIRCLE
  5
AC
330
1F
100
AcDbEntity
  8
1
  6
Continuous
 62
     7
370
     9
100
AcDbCircle
 10
829.7115963823663
 20
-164.5547422235664
 30
0.0
 40
3.416666666666401
  0
LINE
  5
AD
330
1F
100
AcDbEntity
  8
0
  6
Continuous
 62
     7
370
     9
100
AcDbLine
 10
801.8855813390992
 20
-294.6623467977994
 30
0.0
 11
854.1820600505656
 21
-294.6623467977994
 31
0.0
  0
LINE
  5
AE
330
1F
100
AcDbEntity
  8
0
  6
Continuous
 62
     7
370
     9
100
AcDbLine
 10
835.4642500358673
 20
-244.5290134644663
 30
0.0
 11
836.4642500358673
 21
-244.5290134644663
 31
0.0
  0
LINE
  5
AF
330
1F
100
AcDbEntity
  8
0
  6
Continuous
 62
     7
370
     9
100
AcDbLine
 10
801.8855813390992
 20
-280.6623467977996
 30
0.0
 11
854.1820600505656
 21
-280.6623467977996
 31
0.0
  0
CIRCLE
  5
B0
330
1F
100
AcDbEntity
  8
1
  6
Continuous
 62
     7
370
     9
100
AcDbCircle
 10
815.2714729255667
 20
-178.5812854334331
 30
0.0
 40
8.00000000000023
  0
LINE
  5
B1
330
1F
100
AcDbEntity
  8
1
  6
Continuous
 62
     7
370
     9
100
AcDbLine
 10
870.4499999998995
 20
-344.9929696849002
 30
0.0
 11
909.7499999999003
 21
-344.9929696849002
 31
0.0
  0
LINE
  5
B2
330
1F
100
AcDbEntity
  8
1
  6
Continuous
 62
     7
370
     9
100
AcDbLine
 10
844.9500000006993
 20
-359.0000000001002
 30
0.0
 11
914.9499999999997
 21
-359.0000000001002
 31
0.0
  0
LINE
  5
B3
330
1F
100
AcDbEntity
  8
1
  6
Continuous
 62
     7
370
     9
100
AcDbLine
 10
858.9499999999998
 20
-342.5000000017667
 30
0.0
 11
844.9500000006992
 21
-342.500000002167
 31
0.0
  0
LINE
  5
B4
330
1F
100
AcDbEntity
  8
0
  6
Continuous
 62
     7
370
     9
100
AcDbLine
 10
854.1820600505656
 20
-267.1956801311329
 30
0.0
 11
801.8855813390992
 21
-267.1956801311329
 31
0.0
  0
LINE
  5
B5
330
1F
100
AcDbEntity
  8
0
  6
Continuous
 62
     7
370
     9
100
AcDbLine
 10
801.8855813390992
 20
-251.1956801311331
 30
0.0
 11
854.1820600505656
 21
-251.1956801311331
 31
0.0
  0
CIRCLE
  5
B6
330
1F
100
AcDbEntity
  8
1
  6
Continuous
 62
     7
370
     9
100
AcDbCircle
 10
815.2714729255667
 20
-178.5812854334331
 30
0.0
 40
4.500000000000171
  0
LINE
  5
B7
330
1F
100
AcDbEntity
  8
0
  6
Continuous
 62
     7
370
     9
100
AcDbLine
 10
814.4642498390319
 20
-303.3290133658664
 30
0.0
 11
814.464225413133
 21
-294.6623467977994
 31
0.0
  0
LINE
  5
B8
330
1F
100
AcDbEntity
  8
0
  6
Continuous
 62
     7
370
     9
100
AcDbLine
 10
801.8855813390992
 20
-294.6623467977994
 30
0.0
 11
854.1820600505656
 21
-294.6623467977994
 31
0.0
  0
LINE
  5
B9
330
1F
100
AcDbEntity
  8
0
  6
Continuous
 62
     7
370
     9
100
AcDbLine
 10
836.4642500358674
 20
-248.1956801311329
 30
0.0
 11
828.1309167025665
 21
-248.1956801311329
 31
0.0
  0
LINE
  5
BA
330
1F
100
AcDbEntity
  8
0
  6
Continuous
 62
     7
370
     9
100
AcDbLine
 10
801.8855813390992
 20
-294.6623467977994
 30
0.0
 11
854.1820600505656
 21
-294.6623467977994
 31
0.0
  0
LINE
  5
BB
330
1F
100
AcDbEntity
  8
1
  6
Continuous
 62
     7
370
     9
100
AcDbLine
 10
815.464249839032
 20
-300.4956800325332
 30
0.0
 11
835.4642498390328
 21
-300.4956800325332
 31
0.0
  0
CIRCLE
  5
BC
330
1F
100
AcDbEntity
  8
1
  6
Continuous
 62
     7
370
     9
100
AcDbCircle
 10
843.7381395922334
 20
-178.9948656803331
 30
0.0
 40
4.500000000000171
  0
LINE
  5
BD
330
1F
100
AcDbEntity
  8
0
  6
Continuous
 62
     7
370
     9
100
AcDbLine
 10
814.4642500182664
 20
-248.1956801311329
 30
0.0
 11
822.7975834734336
 21
-248.1956801311329
 31
0.0
  0
LINE
  5
BE
330
1F
100
AcDbEntity
  8
1
  6
Continuous
 62
     7
370
     9
100
AcDbLine
 10
815.4642500182665
 20
-247.3623467977996
 30
0.0
 11
835.4642500182661
 21
-247.3623467977996
 31
0.0
  0
CIRCLE
  5
BF
330
1F
100
AcDbEntity
  8
1
  6
Continuous
 62
     7
370
     9
100
AcDbCircle
 10
843.7381395922334
 20
-178.9948656803331
 30
0.0
 40
6.000000000000227
  0
LINE
  5
C0
330
1F
100
AcDbEntity
  8
0
  6
Continuous
 62
     7
370
     9
100
AcDbLine
 10
801.8855813390992
 20
-294.6623467977994
 30
0.0
 11
854.1820600505656
 21
-294.6623467977994
 31
0.0
  0
CIRCLE
  5
C1
330
1F
100
AcDbEntity
  8
1
  6
Continuous
 62
     7
370
     9
100
AcDbCircle
 10
829.2980161354337
 20
-193.0214088902333
 30
0.0
 40
3.416666666666401
  0
CIRCLE
  5
C2
330
1F
100
AcDbEntity
  8
1
  6
Continuous
 62
     7
370
     9
100
AcDbCircle
 10
829.2980161354337
 20
-193.0214088902333
 30
0.0
 40
7.000000000000339
  0
LINE
  5
C3
330
1F
100
AcDbEntity
  8
0
  6
Continuous
 62
     7
370
     9
100
AcDbLine
 10
854.1820600505656
 20
-267.1956801311329
 30
0.0
 11
801.8855813390992
 21
-267.1956801311329
 31
0.0
  0
LINE
  5
C4
330
1F
100
AcDbEntity
  8
0
  6
Continuous
 62
     7
370
     9
100
AcDbLine
 10
801.8855813390992
 20
-294.6623467977994
 30
0.0
 11
854.1820600505656
 21
-294.6623467977994
 31
0.0
  0
LINE
  5
C5
330
1F
100
AcDbEntity
  8
0
  6
Continuous
 62
     7
370
     9
100
AcDbLine
 10
835.4642502151006
 20
-303.3290133658329
 30
0.0
 11
836.4642502151006
 21
-303.3290133658329
 31
0.0
  0
LINE
  5
C6
330
1F
100
AcDbEntity
  8
1
  6
Continuous
 62
     7
370
     9
100
AcDbLine
 10
844.949999999733
 20
-331.5000000000002
 30
0.0
 11
914.9499999997332
 21
-331.5000000000002
 31
0.0
  0
CIRCLE
  5
C7
330
1F
100
AcDbEntity
  8
1
  6
Continuous
 62
     7
370
     9
100
AcDbCircle
 10
815.2714729255667
 20
-178.5812854334331
 30
0.0
 40
3.416666666666401
  0
LINE
  5
C8
330
1F
100
AcDbEntity
  8
1
  6
Continuous
 62
     7
370
     9
100
AcDbLine
 10
858.9499999999998
 20
-337.0000000000001
 30
0.0
 11
858.9499999999998
 21
-370.0000000000333
 31
0.0
  0
LINE
  5
C9
330
1F
100
AcDbEntity
  8
1
  6
Continuous
 62
     7
370
     9
100
AcDbLine
 10
864.95
 20
-370.0000000000333
 30
0.0
 11
864.95
 21
-337.0000000000001
 31
0.0
  0
LINE
  5
CA
330
1F
100
AcDbEntity
  8
0
  6
Continuous
 62
     7
370
     9
100
AcDbLine
 10
801.8855813390992
 20
-251.1956801311331
 30
0.0
 11
854.1820600505656
 21
-251.1956801311331
 31
0.0
  0
LINE
  5
CB
330
1F
100
AcDbEntity
  8
0
  6
Continuous
 62
     7
370
     9
100
AcDbLine
 10
801.8855813390992
 20
-280.6623467977996
 30
0.0
 11
854.1820600505656
 21
-280.6623467977996
 31
0.0
  0
CIRCLE
  5
CC
330
1F
100
AcDbEntity
  8
1
  6
Continuous
 62
     7
370
     9
100
AcDbCircle
 10
829.2980161354337
 20
-193.0214088902333
 30
0.0
 40
4.500000000000171
  0
LINE
  5
CD
330
1F
100
AcDbEntity
  8
0
  6
Continuous
 62
     7
370
     9
100
AcDbLine
 10
822.7975832942336
 20
-299.6623466991662
 30
0.0
 11
814.4642498390343
 21
-299.6623466991662
 31
0.0
  0
LINE
  5
CE
330
1F
100
AcDbEntity
  8
0
  6
Continuous
 62
     7
370
     9
100
AcDbLine
 10
801.8855813390992
 20
-294.6623467977994
 30
0.0
 11
854.1820600505656
 21
-294.6623467977994
 31
0.0
  0
LINE
  5
CF
330
1F
100
AcDbEntity
  8
0
  6
Continuous
 62
     7
370
     9
100
AcDbLine
 10
801.8855813390992
 20
-251.1956801311331
 30
0.0
 11
854.1820600505656
 21
-251.1956801311331
 31
0.0
  0
LINE
  5
D0
330
1F
100
AcDbEntity
  8
0
  6
Continuous
 62
     7
370
     9
100
AcDbLine
 10
835.4642502151006
 20
-310.8123003874995
 30
0.0
 11
835.4642496206321
 21
-294.6623467977994
 31
0.0
  0
CIRCLE
  5
D1
330
1F
100
AcDbEntity
  8
1
  6
Continuous
 62
     7
370
     9
100
AcDbCircle
 10
829.7115963823663
 20
-164.5547422235664
 30
0.0
 40
8.00000000000034
  0
CIRCLE
  5
D2
330
1F
100
AcDbEntity
  8
1
  6
Continuous
 62
     7
370
     9
100
AcDbCircle
 10
829.2980161354337
 20
-193.0214088902333
 30
0.0
 40
6.000000000000227
  0
CIRCLE
  5
D3
330
1F
100
AcDbEntity
  8
1
  6
Continuous
 62
     7
370
     9
100
AcDbCircle
 10
829.7115963823663
 20
-164.5547422235664
 30
0.0
 40
4.500000000000171
  0
CIRCLE
  5
D4
330
1F
100
AcDbEntity
  8
1
  6
Continuous
 62
     7
370
     9
100
AcDbCircle
 10
843.7381395922334
 20
-178.9948656803331
 30
0.0
 40
3.416666666666401
  0
CIRCLE
  5
D5
330
1F
100
AcDbEntity
  8
1
  6
Continuous
 62
     7
370
     9
100
AcDbCircle
 10
843.7381395922334
 20
-178.9948656803331
 30
0.0
 40
7.000000000000228
  0
LINE
  5
D6
330
1F
100
AcDbEntity
  8
1
  6
Continuous
 62
     7
370
     9
100
AcDbLine
 10
844.9499999999663
 20
-331.5000000000002
 30
0.0
 11
844.9500000002008
 21
-381.0000000000001
 31
0.0
  0
LINE
  5
D7
330
1F
100
AcDbEntity
  8
1
  6
Continuous
 62
     7
370
     9
100
AcDbLine
 10
914.9499999999995
 20
-337.0000000000001
 30
0.0
 11
844.9500000006991
 21
-337.0000000000001
 31
0.0
  0
LINE
  5
D8
330
1F
100
AcDbEntity
  8
1
  6
Continuous
 62
     7
370
     9
100
AcDbLine
 10
929.9499999999996
 20
-396.0
 30
0.0
 11
720.0499999999997
 21
-395.9999999995669
 31
0.0
  0
LINE
  5
D9
330
1F
100
AcDbEntity
  8
1
  6
Continuous
 62
     7
370
     9
100
AcDbLine
 10
914.949999999999
 20
-380.9999999999999
 30
0.0
 11
738.0499999999992
 21
-380.9999999999999
 31
0.0
  0
LINE
  5
DA
330
1F
100
AcDbEntity
  8
1
  6
Continuous
 62
     7
370
     9
100
AcDbLine
 10
738.0499999999992
 20
-380.9999999999999
 30
0.0
 11
738.0499999999992
 21
-115.0
 31
0.0
  0
LINE
  5
DB
330
1F
100
AcDbEntity
  8
1
  6
Continuous
 62
     7
370
     9
100
AcDbLine
 10
720.0500000000001
 20
-395.9999999995668
 30
0.0
 11
720.0500000000001
 21
-100.0000000000001
 31
0.0
  0
LINE
  5
DC
330
1F
100
AcDbEntity
  8
1
  6
Continuous
 62
     7
370
     9
100
AcDbLine
 10
914.949999999999
 20
-114.9999999999999
 30
0.0
 11
914.949999999999
 21
-380.9999999999998
 31
0.0
  0
LINE
  5
DD
330
1F
100
AcDbEntity
  8
1
  6
Continuous
 62
     7
370
     9
100
AcDbLine
 10
929.9499999999996
 20
-100.0
 30
0.0
 11
929.9499999999996
 21
-396.0000000000998
 31
0.0
  0
LINE
  5
DE
330
1F
100
AcDbEntity
  8
1
  6
Continuous
 62
     7
370
     9
100
AcDbLine
 10
720.0500000000001
 20
-100.0
 30
0.0
 11
929.9499999999999
 21
-100.0
 31
0.0
  0
LINE
  5
DF
330
1F
100
AcDbEntity
  8
1
  6
Continuous
 62
     7
370
     9
100
AcDbLine
 10
738.0499999999992
 20
-114.9999999999999
 30
0.0
 11
914.949999999999
 21
-114.9999999999999
 31
0.0
  0
LINE
  5
E0
330
1F
100
AcDbEntity
  8
1
  6
Continuous
 62
     7
370
     9
100
AcDbLine
 10
914.9499999999995
 20
-370.0000000000002
 30
0.0
 11
844.9500000006991
 21
-370.0000000000002
 31
0.0
  0
LINE
  5
E1
330
1F
100
AcDbEntity
  8
1
  6
Continuous
 62
     7
370
     9
100
AcDbLine
 10
529.9499999997328
 20
-331.5000000000002
 30
0.0
 11
599.9499999997331
 21
-331.5000000000002
 31
0.0
  0
LINE
  5
E2
330
1F
100
AcDbEntity
  8
1
  6
Continuous
 62
     7
370
     9
100
AcDbLine
 10
549.9499999999999
 20
-370.0000000000333
 30
0.0
 11
549.9499999999999
 21
-337.0000000000001
 31
0.0
  0
LINE
  5
E3
330
1F
100
AcDbEntity
  8
1
  6
Continuous
 62
     7
370
     9
100
AcDbLine
 10
555.4499999998994
 20
-344.9929696849002
 30
0.0
 11
594.7499999999002
 21
-344.9929696849002
 31
0.0
  0
LINE
  5
E4
330
1F
100
AcDbEntity
  8
1
  6
Continuous
 62
     7
370
     9
100
AcDbLine
 10
543.9499999999997
 20
-342.5000000017667
 30
0.0
 11
529.950000000699
 21
-342.500000002167
 31
0.0
  0
LINE
  5
E5
330
1F
100
AcDbEntity
  8
1
  6
Continuous
 62
     7
370
     9
100
AcDbLine
 10
543.9499999999997
 20
-337.0000000000001
 30
0.0
 11
543.9499999999997
 21
-370.0000000000333
 31
0.0
  0
LINE
  5
E6
330
1F
100
AcDbEntity
  8
1
  6
Continuous
 62
     7
370
     9
100
AcDbLine
 10
529.9500000006991
 20
-359.0000000001002
 30
0.0
 11
599.9499999999995
 21
-359.0000000001002
 31
0.0
  0
LINE
  5
E7
330
1F
100
AcDbEntity
  8
1
  6
Continuous
 62
     7
370
     9
100
AcDbLine
 10
599.9499999999992
 20
-370.0000000000002
 30
0.0
 11
529.9500000006989
 21
-370.0000000000002
 31
0.0
  0
LINE
  5
E8
330
1F
100
AcDbEntity
  8
1
  6
Continuous
 62
     7
370
     9
100
AcDbLine
 10
599.9499999999992
 20
-337.0000000000001
 30
0.0
 11
529.9500000006989
 21
-337.0000000000001
 31
0.0
  0
LINE
  5
E9
330
1F
100
AcDbEntity
  8
1
  6
Continuous
 62
     7
370
     9
100
AcDbLine
 10
599.9499999999989
 20
-380.9999999999999
 30
0.0
 11
423.049999999999
 21
-380.9999999999999
 31
0.0
  0
LINE
  5
EA
330
1F
100
AcDbEntity
  8
1
  6
Continuous
 62
     7
370
     9
100
AcDbLine
 10
423.049999999999
 20
-380.9999999999999
 30
0.0
 11
423.049999999999
 21
-115.0
 31
0.0
  0
LINE
  5
EB
330
1F
100
AcDbEntity
  8
1
  6
Continuous
 62
     7
370
     9
100
AcDbLine
 10
423.049999999999
 20
-114.9999999999999
 30
0.0
 11
599.9499999999989
 21
-114.9999999999999
 31
0.0
  0
LINE
  5
EC
330
1F
100
AcDbEntity
  8
1
  6
Continuous
 62
     7
370
     9
100
AcDbLine
 10
405.0499999999999
 20
-395.9999999995668
 30
0.0
 11
405.0499999999999
 21
-100.0000000000001
 31
0.0
  0
LINE
  5
ED
330
1F
100
AcDbEntity
  8
1
  6
Continuous
 62
     7
370
     9
100
AcDbLine
 10
614.9499999999995
 20
-396.0
 30
0.0
 11
405.0499999999996
 21
-395.9999999995669
 31
0.0
  0
LINE
  5
EE
330
1F
100
AcDbEntity
  8
1
  6
Continuous
 62
     7
370
     9
100
AcDbLine
 10
599.9499999999989
 20
-114.9999999999999
 30
0.0
 11
599.9499999999989
 21
-380.9999999999998
 31
0.0
  0
LINE
  5
EF
330
1F
100
AcDbEntity
  8
1
  6
Continuous
 62
     7
370
     9
100
AcDbLine
 10
405.0499999999999
 20
-100.0
 30
0.0
 11
614.9499999999998
 21
-100.0
 31
0.0
  0
LINE
  5
F0
330
1F
100
AcDbEntity
  8
1
  6
Continuous
 62
     7
370
     9
100
AcDbLine
 10
529.9499999999662
 20
-331.5000000000002
 30
0.0
 11
529.9500000002006
 21
-381.0000000000001
 31
0.0
  0
LINE
  5
F1
330
1F
100
AcDbEntity
  8
1
  6
Continuous
 62
     7
370
     9
100
AcDbLine
 10
614.9499999999995
 20
-100.0
 30
0.0
 11
614.9499999999995
 21
-396.0000000000998
 31
0.0
  0
LINE
  5
F2
330
1F
100
AcDbEntity
  8
1
  6
Continuous
 62
     7
370
     9
100
AcDbLine
 10
815.4642500182665
 20
-247.3623467977996
 30
0.0
 11
815.4642332201006
 21
-236.695680131233
 31
0.0
  0
LINE
  5
F3
330
1F
100
AcDbEntity
  8
1
  6
Continuous
 62
     7
370
     9
100
AcDbLine
 10
741.3833333333342
 20
-118.3333333333332
 30
0.0
 11
741.3833333333342
 21
-125.6666666666666
 31
0.0
  0
LINE
  5
F4
330
1F
100
AcDbEntity
  8
1
  6
Continuous
 62
     7
370
     9
100
AcDbLine
 10
741.3833333333342
 20
-125.6666666666666
 30
0.0
 11
774.7166666666669
 21
-125.6666666666666
 31
0.0
  0
LINE
  5
F5
330
1F
100
AcDbEntity
  8
1
  6
Continuous
 62
     7
370
     9
100
AcDbLine
 10
815.4642332201006
 20
-311.3635198882665
 30
0.0
 11
815.4642498390332
 21
-300.5956800324998
 31
0.0
  0
LINE
  5
F6
330
1F
100
AcDbEntity
  8
1
  6
Continuous
 62
     7
370
     9
100
AcDbLine
 10
774.7166666666669
 20
-125.6666666666666
 30
0.0
 11
774.7166666666669
 21
-118.3333333333332
 31
0.0
  0
LINE
  5
F7
330
1F
100
AcDbEntity
  8
1
  6
Continuous
 62
     7
370
     9
100
AcDbLine
 10
774.7166666666669
 20
-118.3333333333332
 30
0.0
 11
741.3833333333342
 21
-118.3333333333332
 31
0.0
  0
LINE
  5
F8
330
1F
100
AcDbEntity
  8
1
  6
Continuous
 62
     7
370
     9
100
AcDbLine
 10
801.8855813390992
 20
-251.1956801311331
 30
0.0
 11
854.1820600505667
 21
-251.1956801311331
 31
0.0
  0
LINE
  5
F9
330
1F
100
AcDbEntity
  8
1
  6
Continuous
 62
     7
370
     9
100
AcDbLine
 10
815.4642749228332
 20
-303.429013365833
 30
0.0
 11
814.4642749228332
 21
-303.429013365833
 31
0.0
  0
LINE
  5
FA
330
1F
100
AcDbEntity
  8
1
  6
Continuous
 62
     7
370
     9
100
AcDbLine
 10
815.4642500182665
 20
-247.3623467977996
 30
0.0
 11
835.4642500182673
 21
-247.3623467977996
 31
0.0
  0
CIRCLE
  5
FB
330
1F
100
AcDbEntity
  8
1
  6
Continuous
 62
     7
370
     9
100
AcDbCircle
 10
829.4358762177667
 20
-178.7880755569
 30
0.0
 40
28.90000000000015
  0
CIRCLE
  5
FC
330
1F
100
AcDbEntity
  8
1
  6
Continuous
 62
     7
370
     9
100
AcDbCircle
 10
829.5048062589001
 20
-178.7880755569
 30
0.0
 40
25.23333333333366
  0
LINE
  5
FD
330
1F
100
AcDbEntity
  8
1
  6
Continuous
 62
     7
370
     9
100
AcDbLine
 10
801.8855813390992
 20
-280.6623467977998
 30
0.0
 11
854.1820600505667
 21
-280.6623467977998
 31
0.0
  0
LINE
  5
FE
330
1F
100
AcDbEntity
  8
1
  6
Continuous
 62
     7
370
     9
100
AcDbLine
 10
814.4642749228332
 20
-303.429013365833
 30
0.0
 11
814.4642502150998
 21
-294.6623467977998
 31
0.0
  0
LINE
  5
FF
330
1F
100
AcDbEntity
  8
1
  6
Continuous
 62
     7
370
     9
100
AcDbLine
 10
815.4642498390332
 20
-300.5956800324998
 30
0.0
 11
835.4642498390327
 21
-300.5956800324998
 31
0.0
  0
LINE
  5
100
330
1F
100
AcDbEntity
  8
1
  6
Continuous
 62
     7
370
     9
100
AcDbLine
 10
801.8855813390992
 20
-294.6623467977998
 30
0.0
 11
854.1820600505667
 21
-294.6623467977998
 31
0.0
  0
LINE
  5
101
330
1F
100
AcDbEntity
  8
1
  6
Continuous
 62
     7
370
     9
100
AcDbLine
 10
835.4642502151006
 20
-267.1956801311331
 30
0.0
 11
835.4642502151006
 21
-280.6623467977998
 31
0.0
  0
LINE
  5
102
330
1F
100
AcDbEntity
  8
1
  6
Continuous
 62
     7
370
     9
100
AcDbLine
 10
814.4642502150998
 20
-267.1956801311331
 30
0.0
 11
814.4642502150998
 21
-280.6623467977998
 31
0.0
  0
LINE
  5
103
330
1F
100
AcDbEntity
  8
1
  6
Continuous
 62
     7
370
     9
100
AcDbLine
 10
854.1820600505667
 20
-267.1956801311331
 30
0.0
 11
801.8855813390992
 21
-267.1956801311331
 31
0.0
  0
LINE
  5
104
330
1F
100
AcDbEntity
  8
1
  6
Continuous
 62
     7
370
     9
100
AcDbLine
 10
815.4642500182665
 20
-244.5290134644663
 30
0.0
 11
814.4642500182665
 21
-244.5290134644663
 31
0.0
  0
LINE
  5
105
330
1F
100
AcDbEntity
  8
1
  6
Continuous
 62
     7
370
     9
100
AcDbLine
 10
814.4642500182664
 20
-244.5290134644663
 30
0.0
 11
814.4643010415657
 21
-251.1956801311331
 31
0.0
  0
LINE
  5
106
330
1F
100
AcDbEntity
  8
1
  6
Continuous
 62
     7
370
     9
100
AcDbLine
 10
814.4642502150998
 20
-267.1956801311331
 30
0.0
 11
814.4642502150998
 21
-280.6623467977998
 31
0.0
  0
LINE
  5
107
330
1F
100
AcDbEntity
  8
0
  6
Continuous
 62
     7
370
     9
100
AcDbLine
 10
822.7975832942336
 20
-300.4956800324996
 30
0.0
 11
822.7975835520351
 21
-294.6623467977994
 31
0.0
  0
LINE
  5
108
330
1F
100
AcDbEntity
  8
0
  6
Continuous
 62
     7
370
     9
100
AcDbLine
 10
828.1309167026341
 20
-247.3623467977996
 30
0.0
 11
828.1308624804948
 21
-251.1956801311331
 31
0.0
  0
LINE
  5
109
330
1F
100
AcDbEntity
  8
0
  6
Continuous
 62
     7
370
     9
100
AcDbLine
 10
822.7975836703002
 20
-280.6623467977996
 30
0.0
 11
822.7975836703002
 21
-267.1956801311329
 31
0.0
  0
LINE
  5
10A
330
1F
100
AcDbEntity
  8
0
  6
Continuous
 62
     7
370
     9
100
AcDbLine
 10
836.4642500358674
 20
-244.5290134644663
 30
0.0
 11
836.464197221029
 21
-251.1956801311331
 31
0.0
  0
LINE
  5
10B
330
1F
100
AcDbEntity
  8
0
  6
Continuous
 62
     7
370
     9
100
AcDbLine
 10
828.1309165057012
 20
-280.6623467977996
 30
0.0
 11
828.1309165057012
 21
-267.1956801311329
 31
0.0
  0
LINE
  5
10C
330
1F
100
AcDbEntity
  8
0
  6
Continuous
 62
     7
370
     9
100
AcDbLine
 10
516.6386901125348
 20
-295.3485251748499
 30
0.0
 11
524.972023324008
 21
-295.3485251748499
 31
0.0
  0
LINE
  5
10D
330
1F
100
AcDbEntity
  8
0
  6
Continuous
 62
     7
370
     9
100
AcDbLine
 10
828.1309168817678
 20
-300.4956800324996
 30
0.0
 11
828.130916623967
 21
-294.6623467977994
 31
0.0
  0
LINE
  5
10E
330
1F
100
AcDbEntity
  8
1
  6
Continuous
 62
     7
370
     9
100
AcDbLine
 10
835.4642502151006
 20
-236.1444606304995
 30
0.0
 11
835.4642886746249
 21
-247.3623467977996
 31
0.0
  0
LINE
  5
10F
330
1F
100
AcDbEntity
  8
1
  6
Continuous
 62
     7
370
     9
100
AcDbLine
 10
835.4642502151006
 20
-310.8123003874995
 30
0.0
 11
835.464249835353
 21
-300.4956800325332
 31
0.0
  0
LINE
  5
110
330
1F
100
AcDbEntity
  8
0
  6
Continuous
 62
     7
370
     9
100
AcDbLine
 10
516.6386901125348
 20
-296.1818585081832
 30
0.0
 11
516.638689854734
 21
-290.3485252734831
 31
0.0
  0
LINE
  5
111
330
1F
100
AcDbEntity
  8
0
  6
Continuous
 62
     7
370
     9
100
AcDbLine
 10
524.9720234458676
 20
-299.0151918415165
 30
0.0
 11
524.9720231578356
 21
-290.3485252734831
 31
0.0
  0
LINE
  5
112
330
1F
100
AcDbEntity
  8
0
  6
Continuous
 62
     7
370
     9
100
AcDbLine
 10
822.7975834734004
 20
-247.3623467977996
 30
0.0
 11
822.7976376955057
 21
-251.1956801311331
 31
0.0
  0
LINE
  5
113
330
1F
100
AcDbEntity
  8
0
  6
Continuous
 62
     7
370
     9
100
AcDbLine
 10
836.4642502151006
 20
-303.3290133658329
 30
0.0
 11
836.4642499270684
 21
-294.6623467977994
 31
0.0
  0
LINE
  5
114
330
1F
100
AcDbEntity
  8
0
  6
Continuous
 62
     7
370
     9
100
AcDbLine
 10
828.1309168817678
 20
-300.4956800324996
 30
0.0
 11
828.130916623967
 21
-294.6623467977994
 31
0.0
  0
LINE
  5
115
330
1F
100
AcDbEntity
  8
0
  6
Continuous
 62
     7
370
     9
100
AcDbLine
 10
836.4642502151006
 20
-303.3290133658329
 30
0.0
 11
836.4642499270684
 21
-294.6623467977994
 31
0.0
  0
LINE
  5
116
330
1F
100
AcDbEntity
  8
0
  6
Continuous
 62
     7
370
     9
100
AcDbLine
 10
822.7975832942336
 20
-300.4956800324996
 30
0.0
 11
822.7975835520351
 21
-294.6623467977994
 31
0.0
  0
LINE
  5
117
330
1F
100
AcDbEntity
  8
0
  6
Continuous
 62
     7
370
     9
100
AcDbLine
 10
828.1309168817678
 20
-299.6623466991662
 30
0.0
 11
836.4642500932408
 21
-299.6623466991662
 31
0.0
  0
LINE
  5
118
330
1F
100
AcDbEntity
  8
0
  6
Continuous
 62
     7
370
     9
100
AcDbLine
 10
828.1309168817678
 20
-299.6623466991662
 30
0.0
 11
835.4642498046786
 21
-299.6623466991662
 31
0.0
  0
LINE
  5
119
330
1F
100
AcDbEntity
  8
0
  6
Continuous
 62
     7
370
     9
100
AcDbLine
 10
511.3053565250007
 20
-296.1818585081832
 30
0.0
 11
511.3053567828023
 21
-290.3485252734831
 31
0.0
  0
LINE
  5
11A
330
1F
100
AcDbEntity
  8
0
  6
Continuous
 62
     7
370
     9
100
AcDbLine
 10
836.4642502151006
 20
-303.3290133658329
 30
0.0
 11
836.4642499270684
 21
-294.6623467977994
 31
0.0
  0
DIMENSION
  5
121
330
1F
100
AcDbEntity
  8
0
 62
     2
100
AcDbDimension
280
     0
  2
*D6
 10
511.3053557706817
 20
-313.2500002786624
 30
0.0
 11
486.5166120784789
 21
-313.2499991831348
 31
0.0
 70
   160
  1
25以上
 71
     5
 42
8.333333329983637
 73
     0
 74
     0
 75
     0
  3
Standard
100
AcDbAlignedDimension
 13
502.9720230697991
 23
-299.0151918415501
 33
0.0
 14
511.3053565250007
 24
-296.1818585081832
 34
0.0
 50
359.9999974678382
100
AcDbRotatedDimension
1001
ACAD
1000
DSTYLE
1002
{
1070
    73
1070
     0
1070
    74
1070
     0
1070
   280
1070
     0
1070
    76
1070
     0
1070
    75
1070
     0
1070
   282
1070
     0
1070
   281
1070
     0
1070
   344
1005
11B
1070
   343
1005
11B
1070
   173
1070
     1
1070
   284
1070
     8
1070
    78
1070
     8
1070
    79
1070
     2
1070
   144
1040
1.0
1070
   146
1040
0.5
1070
   179
1070
     2
1070
    41
1040
3.5
1070
   271
1070
     2
1070
    44
1040
1.75
1070
   147
1040
1.5
1070
    77
1070
     1
1070
   340
1005
6F
1070
   140
1040
3.5
1002
}
  0
DIMENSION
  5
130
330
1F
100
AcDbEntity
  8
0
 62
     2
100
AcDbDimension
280
     0
  2
*D7
 10
836.4642507109918
 20
-318.2499997851641
 30
0.0
 11
852.9196610732109
 21
-318.2499992382772
 31
0.0
 70
   160
  1
25以上
 71
     5
 42
8.33333323916845
 73
     0
 74
     0
 75
     0
  3
Standard
100
AcDbAlignedDimension
 13
828.1309168817678
 23
-300.4956800324996
 33
0.0
 14
836.4642502151006
 24
-303.3290133658329
 34
0.0
 50
0.0000019041951832
100
AcDbRotatedDimension
1001
ACAD
1000
DSTYLE
1002
{
1070
    73
1070
     0
1070
    74
1070
     0
1070
   280
1070
     0
1070
    76
1070
     0
1070
    75
1070
     0
1070
   282
1070
     0
1070
   281
1070
     0
1070
   344
1005
11B
1070
   343
1005
11B
1070
   173
1070
     1
1070
   284
1070
     8
1070
    78
1070
     8
1070
    79
1070
     2
1070
   144
1040
1.0
1070
   146
1040
0.5
1070
   179
1070
     2
1070
    41
1040
3.5
1070
   271
1070
     2
1070
    44
1040
1.75
1070
   147
1040
1.5
1070
    77
1070
     1
1070
   340
1005
6F
1070
   140
1040
3.5
1002
}
  0
DIMENSION
  5
13F
330
1F
100
AcDbEntity
  8
0
 62
     2
100
AcDbDimension
280
     0
  2
*D8
 10
822.7975820676435
 20
-328.2500007242905
 30
0.0
 11
796.9534915570074
 21
-328.2500000000001
 31
0.0
 70
   160
  1
25以上
 71
     5
 42
8.33333332998375
 73
     0
 74
     0
 75
     0
  3
Standard
100
AcDbAlignedDimension
 13
814.4642498390319
 23
-303.3290133658664
 33
0.0
 14
822.7975832942336
 24
-300.4956800324996
 34
0.0
 50
359.9999974678382
100
AcDbRotatedDimension
1001
ACAD
1000
DSTYLE
1002
{
1070
    73
1070
     1
1070
    74
1070
     1
1070
   280
1070
     0
1070
    76
1070
     0
1070
    75
1070
     0
1070
   282
1070
     0
1070
   281
1070
     0
1070
   344
1005
11B
1070
   343
1005
11B
1070
   173
1070
     1
1070
   284
1070
     8
1070
    78
1070
     8
1070
    79
1070
     2
1070
   144
1040
1.0
1070
   146
1040
0.5
1070
   179
1070
     2
1070
    41
1040
3.5
1070
   271
1070
     2
1070
    44
1040
1.75
1070
   147
1040
1.5
1070
    77
1070
     1
1070
   340
1005
6F
1070
   140
1040
3.5
1002
}
  0
DIMENSION
  5
14E
330
1F
100
AcDbEntity
  8
0
 62
     2
100
AcDbDimension
280
     0
  2
*D9
 10
524.9720240851265
 20
-318.2500003332744
 30
0.0
 11
541.4274344473456
 21
-318.2499997863875
 31
0.0
 70
   160
  1
25以上
 71
     5
 42
8.33333323916845
 73
     0
 74
     0
 75
     0
  3
Standard
100
AcDbAlignedDimension
 13
516.6386901125348
 23
-296.1818585081832
 33
0.0
 14
524.9720234458676
 24
-299.0151918415165
 34
0.0
 50
0.0000019041951832
100
AcDbRotatedDimension
1001
ACAD
1000
DSTYLE
1002
{
1070
    73
1070
     0
1070
    74
1070
     0
1070
   280
1070
     0
1070
    76
1070
     0
1070
    75
1070
     0
1070
   282
1070
     0
1070
   281
1070
     0
1070
   344
1005
11B
1070
   343
1005
11B
1070
   173
1070
     1
1070
   284
1070
     8
1070
    78
1070
     8
1070
    79
1070
     2
1070
   144
1040
1.0
1070
   146
1040
0.5
1070
   179
1070
     2
1070
    41
1040
3.5
1070
   271
1070
     2
1070
    44
1040
1.75
1070
   147
1040
1.5
1070
    77
1070
     1
1070
   340
1005
6F
1070
   140
1040
3.5
1002
}
  0
LINE
  5
15D
330
1F
100
AcDbEntity
  8
1
  6
Continuous
 62
     7
370
     9
100
AcDbLine
 10
515.6386899157003
 20
-242.9485252734831
 30
0.0
 11
515.6386901125336
 21
-231.8306391061831
 31
0.0
  0
LINE
  5
15E
330
1F
100
AcDbEntity
  8
1
  6
Continuous
 62
     7
370
     9
100
AcDbLine
 10
426.3833333333334
 20
-125.66666666675
 30
0.0
 11
459.716666666666
 21
-125.66666666675
 31
0.0
  0
CIRCLE
  5
15F
330
1F
100
AcDbEntity
  8
1
  6
Continuous
 62
     7
370
     9
100
AcDbCircle
 10
514.4358762177328
 20
-178.7880755569833
 30
0.0
 40
28.90000000000015
  0
CIRCLE
  5
160
330
1F
100
AcDbEntity
  8
1
  6
Continuous
 62
     7
370
     9
100
AcDbCircle
 10
514.5048062589003
 20
-178.7880755569833
 30
0.0
 40
25.23333333333377
  0
LINE
  5
161
330
1F
100
AcDbEntity
  8
1
  6
Continuous
 62
     7
370
     9
100
AcDbLine
 10
459.716666666666
 20
-125.66666666675
 30
0.0
 11
459.716666666666
 21
-118.3333333334166
 31
0.0
  0
LINE
  5
162
330
1F
100
AcDbEntity
  8
1
  6
Continuous
 62
     7
370
     9
100
AcDbLine
 10
503.9720232490336
 20
-243.0485252734832
 30
0.0
 11
523.9720232490331
 21
-243.0485252734832
 31
0.0
  0
LINE
  5
163
330
1F
100
AcDbEntity
  8
1
  6
Continuous
 62
     7
370
     9
100
AcDbLine
 10
503.9720234458669
 20
-306.4984788632166
 30
0.0
 11
503.9720230697991
 21
-296.2818585082166
 31
0.0
  0
LINE
  5
164
330
1F
100
AcDbEntity
  8
1
  6
Continuous
 62
     7
370
     9
100
AcDbLine
 10
519.8053565823667
 20
-242.9485252734831
 30
0.0
 11
519.8053567792
 21
-231.8306391061831
 31
0.0
  0
LINE
  5
165
330
1F
100
AcDbEntity
  8
1
  6
Continuous
 62
     7
370
     9
100
AcDbLine
 10
512.3053567792009
 20
-306.4984788632166
 30
0.0
 11
512.3053564031333
 21
-296.2818585082166
 31
0.0
  0
LINE
  5
166
330
1F
100
AcDbEntity
  8
1
  6
Continuous
 62
     7
370
     9
100
AcDbLine
 10
503.9720230697991
 20
-299.0151918415501
 30
0.0
 11
502.9720230697991
 21
-299.0151918415501
 31
0.0
  0
LINE
  5
167
330
1F
100
AcDbEntity
  8
1
  6
Continuous
 62
     7
370
     9
100
AcDbLine
 10
515.6386901125336
 20
-306.4984788631832
 30
0.0
 11
515.6386897364658
 21
-296.2818585082166
 31
0.0
  0
LINE
  5
168
330
1F
100
AcDbEntity
  8
1
  6
Continuous
 62
     7
370
     9
100
AcDbLine
 10
508.1386899157
 20
-242.9485252734831
 30
0.0
 11
508.1386901125333
 21
-231.8306391061831
 31
0.0
  0
LINE
  5
169
330
1F
100
AcDbEntity
  8
1
  6
Continuous
 62
     7
370
     9
100
AcDbLine
 10
503.9720230697991
 20
-296.1818585082168
 30
0.0
 11
523.9720230697999
 21
-296.1818585082168
 31
0.0
  0
LINE
  5
16A
330
1F
100
AcDbEntity
  8
1
  6
Continuous
 62
     7
370
     9
100
AcDbLine
 10
426.3833333333334
 20
-118.3333333334166
 30
0.0
 11
426.3833333333334
 21
-125.66666666675
 31
0.0
  0
LINE
  5
16B
330
1F
100
AcDbEntity
  8
1
  6
Continuous
 62
     7
370
     9
100
AcDbLine
 10
512.3053565823664
 20
-242.9485252734831
 30
0.0
 11
512.3053567792009
 21
-231.8306391061831
 31
0.0
  0
LINE
  5
16C
330
1F
100
AcDbEntity
  8
1
  6
Continuous
 62
     7
370
     9
100
AcDbLine
 10
508.1386901125333
 20
-306.4984788632166
 30
0.0
 11
508.1386897364667
 21
-296.2818585082166
 31
0.0
  0
LINE
  5
16D
330
1F
100
AcDbEntity
  8
1
  6
Continuous
 62
     7
370
     9
100
AcDbLine
 10
519.8053567792
 20
-306.4984788631832
 30
0.0
 11
519.8053564031334
 21
-296.2818585082166
 31
0.0
  0
LINE
  5
16E
330
1F
100
AcDbEntity
  8
1
  6
Continuous
 62
     7
370
     9
100
AcDbLine
 10
503.9720232490336
 20
-242.9485252734831
 30
0.0
 11
503.9720232490336
 21
-243.0485252734832
 31
0.0
  0
LINE
  5
16F
330
1F
100
AcDbEntity
  8
1
  6
Continuous
 62
     7
370
     9
100
AcDbLine
 10
503.9720230697991
 20
-296.2818585082166
 30
0.0
 11
503.9720230697991
 21
-296.1818585082168
 31
0.0
  0
LINE
  5
170
330
1F
100
AcDbEntity
  8
1
  6
Continuous
 62
     7
370
     9
100
AcDbLine
 10
503.9720232490336
 20
-242.9485252734831
 30
0.0
 11
503.9720234458669
 21
-231.8306391061831
 31
0.0
  0
LINE
  5
171
330
1F
100
AcDbEntity
  8
1
  6
Continuous
 62
     7
370
     9
100
AcDbLine
 10
503.9720232490336
 20
-240.21519194015
 30
0.0
 11
502.9720232490336
 21
-240.21519194015
 31
0.0
  0
LINE
  5
172
330
1F
100
AcDbEntity
  8
1
  6
Continuous
 62
     7
370
     9
100
AcDbLine
 10
459.716666666666
 20
-118.3333333334166
 30
0.0
 11
426.3833333333334
 21
-118.3333333334166
 31
0.0
  0
CIRCLE
  5
173
330
1F
100
AcDbEntity
  8
1
  6
Continuous
 62
     7
370
     9
100
AcDbCircle
 10
514.7115963823667
 20
-164.5547422236497
 30
0.0
 40
8.00000000000023
  0
CIRCLE
  5
174
330
1F
100
AcDbEntity
  8
1
  6
Continuous
 62
     7
370
     9
100
AcDbCircle
 10
500.271472925567
 20
-178.5812854335499
 30
0.0
 40
8.00000000000034
  0
CIRCLE
  5
175
330
1F
100
AcDbEntity
  8
1
  6
Continuous
 62
     7
370
     9
100
AcDbCircle
 10
514.2980161354329
 20
-193.0214088903166
 30
0.0
 40
7.000000000000339
  0
CIRCLE
  5
176
330
1F
100
AcDbEntity
  8
1
  6
Continuous
 62
     7
370
     9
100
AcDbCircle
 10
528.7381395922325
 20
-178.9948656804499
 30
0.0
 40
6.000000000000227
  0
CIRCLE
  5
177
330
1F
100
AcDbEntity
  8
1
  6
Continuous
 62
     7
370
     9
100
AcDbCircle
 10
514.7115963823667
 20
-164.5547422236497
 30
0.0
 40
4.500000000000171
  0
CIRCLE
  5
178
330
1F
100
AcDbEntity
  8
1
  6
Continuous
 62
     7
370
     9
100
AcDbCircle
 10
500.271472925567
 20
-178.5812854335499
 30
0.0
 40
4.500000000000171
  0
LINE
  5
179
330
1F
100
AcDbEntity
  8
1
  6
Continuous
 62
     7
370
     9
100
AcDbLine
 10
490.3933545698662
 20
-246.8818586068168
 30
0.0
 11
542.6898332813327
 21
-246.8818586068168
 31
0.0
  0
LINE
  5
17A
330
1F
100
AcDbEntity
  8
1
  6
Continuous
 62
     7
370
     9
100
AcDbLine
 10
542.6898332813327
 20
-262.8818586068165
 30
0.0
 11
490.3933545698662
 21
-262.8818586068165
 31
0.0
  0
LINE
  5
17B
330
1F
100
AcDbEntity
  8
1
  6
Continuous
 62
     7
370
     9
100
AcDbLine
 10
490.3933545698662
 20
-276.3485252734832
 30
0.0
 11
542.6898332813327
 21
-276.3485252734832
 31
0.0
  0
LINE
  5
17C
330
1F
100
AcDbEntity
  8
0
  6
Continuous
 62
     7
370
     9
100
AcDbLine
 10
523.9720232666344
 20
-240.21519194015
 30
0.0
 11
524.9720232666344
 21
-240.21519194015
 31
0.0
  0
LINE
  5
17D
330
1F
100
AcDbEntity
  8
1
  6
Continuous
 62
     7
370
     9
100
AcDbLine
 10
502.9720230697991
 20
-299.0151918415501
 30
0.0
 11
502.9719986439002
 21
-290.3485252734831
 31
0.0
  0
CIRCLE
  5
17E
330
1F
100
AcDbEntity
  8
1
  6
Continuous
 62
     7
370
     9
100
AcDbCircle
 10
514.2980161354329
 20
-193.0214088903166
 30
0.0
 40
6.000000000000227
  0
CIRCLE
  5
17F
330
1F
100
AcDbEntity
  8
1
  6
Continuous
 62
     7
370
     9
100
AcDbCircle
 10
514.7115963823667
 20
-164.5547422236497
 30
0.0
 40
3.416666666666401
  0
LINE
  5
180
330
1F
100
AcDbEntity
  8
0
  6
Continuous
 62
     7
370
     9
100
AcDbLine
 10
523.9720234458676
 20
-299.0151918415165
 30
0.0
 11
524.9720234458676
 21
-299.0151918415165
 31
0.0
  0
CIRCLE
  5
181
330
1F
100
AcDbEntity
  8
1
  6
Continuous
 62
     7
370
     9
100
AcDbCircle
 10
500.271472925567
 20
-178.5812854335499
 30
0.0
 40
3.416666666666401
  0
CIRCLE
  5
182
330
1F
100
AcDbEntity
  8
1
  6
Continuous
 62
     7
370
     9
100
AcDbCircle
 10
514.2980161354329
 20
-193.0214088903166
 30
0.0
 40
3.416666666666401
  0
LINE
  5
183
330
1F
100
AcDbEntity
  8
1
  6
Continuous
 62
     7
370
     9
100
AcDbLine
 10
502.9720234458669
 20
-262.8818586068165
 30
0.0
 11
502.9720234458669
 21
-276.3485252734832
 31
0.0
  0
LINE
  5
184
330
1F
100
AcDbEntity
  8
1
  6
Continuous
 62
     7
370
     9
100
AcDbLine
 10
490.3933545698662
 20
-290.3485252734831
 30
0.0
 11
542.6898332813327
 21
-290.3485252734831
 31
0.0
  0
LINE
  5
185
330
1F
100
AcDbEntity
  8
1
  6
Continuous
 62
     7
370
     9
100
AcDbLine
 10
502.9720234458669
 20
-262.8818586068165
 30
0.0
 11
502.9720234458669
 21
-276.3485252734832
 31
0.0
  0
CIRCLE
  5
186
330
1F
100
AcDbEntity
  8
1
  6
Continuous
 62
     7
370
     9
100
AcDbCircle
 10
528.7381395922325
 20
-178.9948656804499
 30
0.0
 40
7.000000000000228
  0
CIRCLE
  5
187
330
1F
100
AcDbEntity
  8
1
  6
Continuous
 62
     7
370
     9
100
AcDbCircle
 10
514.2980161354329
 20
-193.0214088903166
 30
0.0
 40
4.500000000000171
  0
LINE
  5
188
330
1F
100
AcDbEntity
  8
1
  6
Continuous
 62
     7
370
     9
100
AcDbLine
 10
523.9720234458676
 20
-262.8818586068165
 30
0.0
 11
523.9720234458676
 21
-276.3485252734832
 31
0.0
  0
LINE
  5
189
330
1F
100
AcDbEntity
  8
0
  6
Continuous
 62
     7
370
     9
100
AcDbLine
 10
524.9720232666344
 20
-243.8818586068165
 30
0.0
 11
516.6386899333336
 21
-243.8818586068165
 31
0.0
  0
LINE
  5
18A
330
1F
100
AcDbEntity
  8
1
  6
Continuous
 62
     7
370
     9
100
AcDbLine
 10
502.9720232490336
 20
-240.21519194015
 30
0.0
 11
502.9720742723329
 21
-246.8818586068168
 31
0.0
  0
CIRCLE
  5
18B
330
1F
100
AcDbEntity
  8
1
  6
Continuous
 62
     7
370
     9
100
AcDbCircle
 10
528.7381395922325
 20
-178.9948656804499
 30
0.0
 40
3.416666666666401
  0
LINE
  5
18C
330
1F
100
AcDbEntity
  8
0
  6
Continuous
 62
     7
370
     9
100
AcDbLine
 10
502.9720232490336
 20
-243.8818586068165
 30
0.0
 11
511.3053567042008
 21
-243.8818586068165
 31
0.0
  0
CIRCLE
  5
18D
330
1F
100
AcDbEntity
  8
1
  6
Continuous
 62
     7
370
     9
100
AcDbCircle
 10
528.7381395922325
 20
-178.9948656804499
 30
0.0
 40
4.500000000000171
  0
LINE
  5
18E
330
1F
100
AcDbEntity
  8
0
  6
Continuous
 62
     7
370
     9
100
AcDbLine
 10
511.3053565250007
 20
-295.3485251748499
 30
0.0
 11
502.9720230698015
 21
-295.3485251748499
 31
0.0
  0
MTEXT
  5
18F
330
1F
100
AcDbEntity
  8
1
 62
     7
100
AcDbMText
 10
874.7335119689981
 20
-350.813636372136
 30
0.0
 40
3.0
 41
0.0
 46
0.0
 71
     1
 72
     1
  1
{\fＭＳ ゴシック;\W0.966479;\Q14.999825;ＭＴＫＢ－ＡＣＷ＿}
 73
     1
 44
1.0
  0
MTEXT
  5
190
330
1F
100
AcDbEntity
  8
1
 62
     7
100
AcDbMText
 10
845.4766802639506
 20
-363.1363636686307
 30
0.0
 40
3.0
 41
0.0
 46
0.0
 71
     1
 72
     1
  1
{\fＭＳ ゴシック;\W0.986718;第三角法}
 73
     1
 44
1.0
  0
MTEXT
  5
191
330
1F
100
AcDbEntity
  8
1
 62
     7
100
AcDbMText
 10
860.5087748472837
 20
-342.0159623959033
 30
0.0
 40
3.0
 41
0.0
 46
0.0
 71
     1
 72
     1
  1
{\fＭＳ ゴシック;\W1.112525;品}
 73
     1
 44
1.0
  0
MTEXT
  5
192
330
1F
100
AcDbEntity
  8
1
 62
     7
100
AcDbMText
 10
860.5087748472837
 20
-361.1478440625698
 30
0.0
 40
3.0
 41
0.0
 46
0.0
 71
     1
 72
     1
  1
{\fＭＳ ゴシック;\W1.112525;図}
 73
     1
 44
1.0
  0
MTEXT
  5
193
330
1F
100
AcDbEntity
  8
1
 62
     7
100
AcDbMText
 10
860.5087748472837
 20
-365.3478440625698
 30
0.0
 40
3.0
 41
0.0
 46
0.0
 71
     1
 72
     1
  1
{\fＭＳ ゴシック;\W1.112525;番}
 73
     1
 44
1.0
  0
MTEXT
  5
194
330
1F
100
AcDbEntity
  8
1
 62
     7
100
AcDbMText
 10
426.8455117432579
 20
-376.4818181904349
 30
0.0
 40
3.5
 41
0.0
 46
0.0
 71
     1
 72
     1
  1
{\fＭＳ ゴシック;\W0.819288;注１）「認定書」の仕様に基づき、正しく施工してください。}
 73
     1
 44
1.0
  0
MTEXT
  5
195
330
1F
100
AcDbEntity
  8
1
 62
     7
100
AcDbMText
 10
429.0839484402272
 20
-128.0163546449802
 30
0.0
 40
4.0
 41
0.0
 46
0.0
 71
     1
 72
     1
  1
{\fＭＳ ゴシック;\W0.871619;\L国土交通大臣認定\l}
 73
     1
 44
1.0
  0
MTEXT
  5
196
330
1F
100
AcDbEntity
  8
1
 62
     7
100
AcDbMText
 10
427.598996312722
 20
-119.3272727358892
 30
0.0
 40
6.0
 41
0.0
 46
0.0
 71
     1
 72
     1
  1
{\fＭＳ ゴシック;\W0.881402;\Q15;標準施工図}
 73
     1
 44
1.0
  0
MTEXT
  5
197
330
1F
100
AcDbEntity
  8
1
 62
     7
100
AcDbMText
 10
860.5087748472837
 20
-352.8159623959029
 30
0.0
 40
3.0
 41
0.0
 46
0.0
 71
     1
 72
     1
  1
{\fＭＳ ゴシック;\W1.112525;名}
 73
     1
 44
1.0
  0
MTEXT
  5
198
330
1F
100
AcDbEntity
  8
1
 62
     7
100
AcDbMText
 10
848.8221602791018
 20
-338.4272727595397
 30
0.0
 40
3.0
 41
0.0
 46
0.0
 71
     1
 72
     1
  1
{\fＭＳ ゴシック;\W1.025368;尺度}
 73
     1
 44
1.0
  0
MTEXT
  5
199
330
1F
100
AcDbEntity
  8
1
 62
     7
100
AcDbMText
 10
871.3925275709177
 20
-339.6702424262062
 30
0.0
 40
3.0
 41
0.0
 46
0.0
 71
     1
 72
     1
  1
{\fＭＳ ゴシック;\W0.950876;\Q14.999825;パテエース(丸穴キットＷ)}
 73
     1
 44
1.0
  0
MTEXT
  5
19A
330
1F
100
AcDbEntity
  8
1
 62
     7
100
AcDbMText
 10
876.4027333541687
 20
-363.3136363959034
 30
0.0
 40
3.0
 41
0.0
 46
0.0
 71
     1
 72
     1
  1
{\fＭＳ ゴシック;\W0.968465;\Q14.999825;Ｂ０７５５４０Ａ－２}
 73
     1
 44
1.0
  0
MTEXT
  5
19B
330
1F
100
AcDbEntity
  8
1
 62
     7
100
AcDbMText
 10
559.7335119638992
 20
-350.8136363722528
 30
0.0
 40
3.0
 41
0.0
 46
0.0
 71
     1
 72
     1
  1
{\fＭＳ ゴシック;\W0.966479;\Q14.999825;ＭＴＫＢ－ＡＣＷ＿}
 73
     1
 44
1.0
  0
MTEXT
  5
19C
330
1F
100
AcDbEntity
  8
1
 62
     7
100
AcDbMText
 10
861.6358058663068
 20
-332.4500000322671
 30
0.0
 40
4.0
 41
0.0
 46
0.0
 71
     1
 72
     1
  1
{\fＭＳ ゴシック;\W0.869831;\Q14.999825;製　品　仕　様　図}
 73
     1
 44
1.0
  0
MTEXT
  5
19D
330
1F
100
AcDbEntity
  8
1
 62
     7
100
AcDbMText
 10
429.0824915311363
 20
-134.1981728267983
 30
0.0
 40
4.0
 41
0.0
 46
0.0
 71
     1
 72
     1
  1
{\fＭＳ ゴシック;\W0.866277;\LＰＳ０６０ＷＬ－０７５５\l}
 73
     1
 44
1.0
  0
MTEXT
  5
19E
330
1F
100
AcDbEntity
  8
1
 62
     7
100
AcDbMText
 10
849.6323315783459
 20
-349.1431818504486
 30
0.0
 40
3.499999999999999
 41
0.0
 46
0.0
 71
     1
 72
     1
  1
{\fＭＳ ゴシック;\W0.777385;1/3}
 73
     1
 44
1.0
  0
MTEXT
  5
19F
330
1F
100
AcDbEntity
  8
1
 62
     7
100
AcDbMText
 10
426.8455902546216
 20
-370.9613636449801
 30
0.0
 40
3.5
 41
0.0
 46
0.0
 71
     1
 72
     1
  1
{\fＭＳ ゴシック;\W0.819617;　２）製品のご使用は、所轄行政機関にご確認ください。}
 73
     1
 44
1.0
  0
MTEXT
  5
1A0
330
1F
100
AcDbEntity
  8
1
 62
     7
100
AcDbMText
 10
741.8455902597218
 20
-370.9613636448634
 30
0.0
 40
3.499999999999999
 41
0.0
 46
0.0
 71
     1
 72
     1
  1
{\fＭＳ ゴシック;\W0.819617;　２）製品のご使用は、所轄行政機関にご確認ください。}
 73
     1
 44
1.0
  0
MTEXT
  5
1A1
330
1F
100
AcDbEntity
  8
1
 62
     7
100
AcDbMText
 10
744.0839484453273
 20
-128.0163546448634
 30
0.0
 40
4.0
 41
0.0
 46
0.0
 71
     1
 72
     1
  1
{\fＭＳ ゴシック;\W0.871619;\L国土交通大臣認定\l}
 73
     1
 44
1.0
  0
MTEXT
  5
1A2
330
1F
100
AcDbEntity
  8
1
 62
     7
100
AcDbMText
 10
744.0824915362365
 20
-134.1981728266815
 30
0.0
 40
4.0
 41
0.0
 46
0.0
 71
     1
 72
     1
  1
{\fＭＳ ゴシック;\W0.866277;\LＰＳ０６０ＷＬ－０７５５\l}
 73
     1
 44
1.0
  0
MTEXT
  5
1A3
330
1F
100
AcDbEntity
  8
1
 62
     7
100
AcDbMText
 10
742.5989963178209
 20
-119.3272727357724
 30
0.0
 40
6.0
 41
0.0
 46
0.0
 71
     1
 72
     1
  1
{\fＭＳ ゴシック;\W0.881402;\Q15;標準施工図}
 73
     1
 44
1.0
  0
MTEXT
  5
1A4
330
1F
100
AcDbEntity
  8
1
 62
     7
100
AcDbMText
 10
741.8455117483583
 20
-376.4818181903182
 30
0.0
 40
3.499999999999999
 41
0.0
 46
0.0
 71
     1
 72
     1
  1
{\fＭＳ ゴシック;\W0.819288;注１）「認定書」の仕様に基づき、正しく施工してください。}
 73
     1
 44
1.0
  0
MTEXT
  5
1A5
330
1F
100
AcDbEntity
  8
1
 62
     7
100
AcDbMText
 10
545.5087748472836
 20
-342.0159623959033
 30
0.0
 40
3.0
 41
0.0
 46
0.0
 71
     1
 72
     1
  1
{\fＭＳ ゴシック;\W1.112525;品}
 73
     1
 44
1.0
  0
MTEXT
  5
1A6
330
1F
100
AcDbEntity
  8
1
 62
     7
100
AcDbMText
 10
471.2088078851637
 20
-20.50726362773934
 30
0.0
 40
40.0
 41
0.0
 46
0.0
 71
     1
 72
     1
  1
{\fＭＳ ゴシック;\W0.866277;\L給水\l}
 73
     1
 44
1.0
  0
MTEXT
  5
1A7
330
1F
100
AcDbEntity
  8
1
 62
     7
100
AcDbMText
 10
545.5087748472836
 20
-365.3478440625698
 30
0.0
 40
3.0
 41
0.0
 46
0.0
 71
     1
 72
     1
  1
{\fＭＳ ゴシック;\W1.112525;番}
 73
     1
 44
1.0
  0
MTEXT
  5
1A8
330
1F
100
AcDbEntity
  8
1
 62
     7
100
AcDbMText
 10
786.2088078851638
 20
-20.50726362773934
 30
0.0
 40
40.0
 41
0.0
 46
0.0
 71
     1
 72
     1
  1
{\fＭＳ ゴシック;\W0.866277;\L給水\l}
 73
     1
 44
1.0
  0
MTEXT
  5
1A9
330
1F
100
AcDbEntity
  8
1
 62
     7
100
AcDbMText
 10
546.6358058663067
 20
-332.4500000322671
 30
0.0
 40
4.0
 41
0.0
 46
0.0
 71
     1
 72
     1
  1
{\fＭＳ ゴシック;\W0.869831;\Q14.999825;製　品　仕　様　図}
 73
     1
 44
1.0
  0
MTEXT
  5
1AA
330
1F
100
AcDbEntity
  8
1
 62
     7
100
AcDbMText
 10
533.8221602791017
 20
-338.4272727595397
 30
0.0
 40
3.0
 41
0.0
 46
0.0
 71
     1
 72
     1
  1
{\fＭＳ ゴシック;\W1.025368;尺度}
 73
     1
 44
1.0
  0
MTEXT
  5
1AB
330
1F
100
AcDbEntity
  8
1
 62
     7
100
AcDbMText
 10
530.4766802639505
 20
-363.1363636686307
 30
0.0
 40
3.0
 41
0.0
 46
0.0
 71
     1
 72
     1
  1
{\fＭＳ ゴシック;\W0.986718;第三角法}
 73
     1
 44
1.0
  0
MTEXT
  5
1AC
330
1F
100
AcDbEntity
  8
1
 62
     7
100
AcDbMText
 10
545.5087748472836
 20
-352.8159623959029
 30
0.0
 40
3.0
 41
0.0
 46
0.0
 71
     1
 72
     1
  1
{\fＭＳ ゴシック;\W1.112525;名}
 73
     1
 44
1.0
  0
MTEXT
  5
1AD
330
1F
100
AcDbEntity
  8
1
 62
     7
100
AcDbMText
 10
534.6323315783458
 20
-349.1431818504486
 30
0.0
 40
3.499999999999999
 41
0.0
 46
0.0
 71
     1
 72
     1
  1
{\fＭＳ ゴシック;\W0.777385;1/3}
 73
     1
 44
1.0
  0
MTEXT
  5
1AE
330
1F
100
AcDbEntity
  8
1
 62
     7
100
AcDbMText
 10
545.5087748472836
 20
-361.1478440625698
 30
0.0
 40
3.0
 41
0.0
 46
0.0
 71
     1
 72
     1
  1
{\fＭＳ ゴシック;\W1.112525;図}
 73
     1
 44
1.0
  0
MTEXT
  5
1AF
330
1F
100
AcDbEntity
  8
1
 62
     7
100
AcDbMText
 10
556.3925275709175
 20
-339.6702424262062
 30
0.0
 40
3.0
 41
0.0
 46
0.0
 71
     1
 72
     1
  1
{\fＭＳ ゴシック;\W0.950876;\Q14.999825;パテエース(丸穴キットＷ)}
 73
     1
 44
1.0
  0
MTEXT
  5
1B0
330
1F
100
AcDbEntity
  8
1
 62
     7
100
AcDbMText
 10
561.4027333541685
 20
-363.3136363959034
 30
0.0
 40
3.0
 41
0.0
 46
0.0
 71
     1
 72
     1
  1
{\fＭＳ ゴシック;\W0.968465;\Q14.999825;Ｂ０７５５４０Ａ－１}
 73
     1
 44
1.0
  0
LINE
  5
1B1
330
1F
100
AcDbEntity
  8
1
  6
Continuous
 62
     7
370
     9
100
AcDbLine
 10
568.797931598266
 20
-372.3661942674336
 30
0.0
 11
569.4447027063652
 21
-372.3661942674336
 31
0.0
  0
LINE
  5
1B2
330
1F
100
AcDbEntity
  8
1
  6
Continuous
 62
     7
370
     9
100
AcDbLine
 10
566.173022171766
 20
-372.3661942674336
 30
0.0
 11
566.6964778044993
 21
-372.3661942674336
 31
0.0
  0
LINE
  5
1B3
330
1F
100
AcDbEntity
  8
1
  6
Continuous
 62
     7
370
     9
100
AcDbLine
 10
568.7879315982665
 20
-372.6995276007668
 30
0.0
 11
569.454702706366
 21
-372.6995276007668
 31
0.0
  0
LINE
  5
1B4
330
1F
100
AcDbEntity
  8
1
  6
Continuous
 62
     7
370
     9
100
AcDbLine
 10
566.1663555050995
 20
-372.6995276007668
 30
0.0
 11
566.7031444711656
 21
-372.6995276007668
 31
0.0
  0
LINE
  5
1B5
330
1F
100
AcDbEntity
  8
1
  6
Continuous
 62
     7
370
     9
100
AcDbLine
 10
568.7779315982324
 20
-373.0328609341004
 30
0.0
 11
569.4647027063656
 21
-373.0328609341004
 31
0.0
  0
LINE
  5
1B6
330
1F
100
AcDbEntity
  8
1
  6
Continuous
 62
     7
370
     9
100
AcDbLine
 10
567.8305115895325
 20
-373.0328609341004
 30
0.0
 11
568.4271036402994
 21
-373.0328609341004
 31
0.0
  0
LINE
  5
1B7
330
1F
100
AcDbEntity
  8
1
  6
Continuous
 62
     7
370
     9
100
AcDbLine
 10
566.1596888384332
 20
-373.0328609341004
 30
0.0
 11
566.7098111378333
 21
-373.0328609341004
 31
0.0
  0
LINE
  5
1B8
330
1F
100
AcDbEntity
  8
1
  6
Continuous
 62
     7
370
     9
100
AcDbLine
 10
567.6553333870322
 20
-373.3661942674335
 30
0.0
 11
570.3587662703665
 21
-373.3661942674335
 31
0.0
  0
LINE
  5
1B9
330
1F
100
AcDbEntity
  8
1
  6
Continuous
 62
     7
370
     9
100
AcDbLine
 10
565.2583592147329
 20
-373.3661942674335
 30
0.0
 11
567.3669073829658
 21
-373.3661942674335
 31
0.0
  0
LINE
  5
1BA
330
1F
100
AcDbEntity
  8
1
  6
Continuous
 62
     7
370
     9
100
AcDbLine
 10
565.2583592147329
 20
-373.6995276007669
 30
0.0
 11
570.3587662703665
 21
-373.6995276007669
 31
0.0
  0
LINE
  5
1BB
330
1F
100
AcDbEntity
  8
1
  6
Continuous
 62
     7
370
     9
100
AcDbLine
 10
568.7479315982324
 20
-374.0328609341005
 30
0.0
 11
569.4947027063657
 21
-374.0328609341005
 31
0.0
  0
LINE
  5
1BC
330
1F
100
AcDbEntity
  8
1
  6
Continuous
 62
     7
370
     9
100
AcDbLine
 10
567.1118349707664
 20
-374.0328609341005
 30
0.0
 11
568.0831713814985
 21
-374.0328609341005
 31
0.0
  0
LINE
  5
1BD
330
1F
100
AcDbEntity
  8
1
  6
Continuous
 62
     7
370
     9
100
AcDbLine
 10
566.1032933334989
 20
-374.0328609341005
 30
0.0
 11
566.7794014625989
 21
-374.0328609341005
 31
0.0
  0
LINE
  5
1BE
330
1F
100
AcDbEntity
  8
1
  6
Continuous
 62
     7
370
     9
100
AcDbLine
 10
568.7379315982328
 20
-374.3661942674336
 30
0.0
 11
569.5047027063653
 21
-374.3661942674336
 31
0.0
  0
LINE
  5
1BF
330
1F
100
AcDbEntity
  8
1
  6
Continuous
 62
     7
370
     9
100
AcDbLine
 10
567.2683288861668
 20
-374.3661942674336
 30
0.0
 11
567.8872626865999
 21
-374.3661942674336
 31
0.0
  0
LINE
  5
1C0
330
1F
100
AcDbEntity
  8
1
  6
Continuous
 62
     7
370
     9
100
AcDbLine
 10
565.9991046471993
 20
-374.3661942674336
 30
0.0
 11
566.9214464015661
 21
-374.3661942674336
 31
0.0
  0
LINE
  5
1C1
330
1F
100
AcDbEntity
  8
1
  6
Continuous
 62
     7
370
     9
100
AcDbLine
 10
567.4564596217659
 20
-374.6995276007671
 30
0.0
 11
570.6640579935652
 21
-374.6995276007671
 31
0.0
  0
LINE
  5
1C2
330
1F
100
AcDbEntity
  8
1
  6
Continuous
 62
     7
370
     9
100
AcDbLine
 10
565.8683242265989
 20
-374.6995276007671
 30
0.0
 11
567.1209572166003
 21
-374.6995276007671
 31
0.0
  0
LINE
  5
1C3
330
1F
100
AcDbEntity
  8
1
  6
Continuous
 62
     7
370
     9
100
AcDbLine
 10
565.7116181150998
 20
-375.0328609341001
 30
0.0
 11
570.6640579935653
 21
-375.0328609341001
 31
0.0
  0
LINE
  5
1C4
330
1F
100
AcDbEntity
  8
1
  6
Continuous
 62
     7
370
     9
100
AcDbLine
 10
568.6064989695327
 20
-375.3661942674337
 30
0.0
 11
569.6361353350983
 21
-375.3661942674337
 31
0.0
  0
LINE
  5
1C5
330
1F
100
AcDbEntity
  8
1
  6
Continuous
 62
     7
370
     9
100
AcDbLine
 10
565.5264196249989
 20
-375.3661942674337
 30
0.0
 11
567.4943692283335
 21
-375.3661942674337
 31
0.0
  0
LINE
  5
1C6
330
1F
100
AcDbEntity
  8
1
  6
Continuous
 62
     7
370
     9
100
AcDbLine
 10
568.4263009530658
 20
-375.6995276007669
 30
0.0
 11
569.8163333515664
 21
-375.6995276007669
 31
0.0
  0
LINE
  5
1C7
330
1F
100
AcDbEntity
  8
1
  6
Continuous
 62
     7
370
     9
100
AcDbLine
 10
567.075286679299
 20
-375.6995276007669
 30
0.0
 11
567.2277025616662
 21
-375.6995276007669
 31
0.0
  0
LINE
  5
1C8
330
1F
100
AcDbEntity
  8
1
  6
Continuous
 62
     7
370
     9
100
AcDbLine
 10
565.3092356629652
 20
-375.6995276007669
 30
0.0
 11
566.7631444711657
 21
-375.6995276007669
 31
0.0
  0
LINE
  5
1C9
330
1F
100
AcDbEntity
  8
1
  6
Continuous
 62
     7
370
     9
100
AcDbLine
 10
568.2051356409668
 20
-376.0328609341003
 30
0.0
 11
570.0374986636326
 21
-376.0328609341003
 31
0.0
  0
LINE
  5
1CA
330
1F
100
AcDbEntity
  8
1
  6
Continuous
 62
     7
370
     9
100
AcDbLine
 10
565.0551953358322
 20
-376.0328609341003
 30
0.0
 11
566.7698111378334
 21
-376.0328609341003
 31
0.0
  0
LINE
  5
1CB
330
1F
100
AcDbEntity
  8
1
  6
Continuous
 62
     7
370
     9
100
AcDbLine
 10
567.9345561980322
 20
-376.3661942674336
 30
0.0
 11
570.3080781065655
 21
-376.3661942674336
 31
0.0
  0
LINE
  5
1CC
330
1F
100
AcDbEntity
  8
1
  6
Continuous
 62
     7
370
     9
100
AcDbLine
 10
566.0930221717655
 20
-376.3661942674336
 30
0.0
 11
566.7764778044987
 21
-376.3661942674336
 31
0.0
  0
LINE
  5
1CD
330
1F
100
AcDbEntity
  8
1
  6
Continuous
 62
     7
370
     9
100
AcDbLine
 10
564.7572440399986
 20
-376.3661942674336
 30
0.0
 11
565.7977741641988
 21
-376.3661942674336
 31
0.0
  0
LINE
  5
1CE
330
1F
100
AcDbEntity
  8
1
  6
Continuous
 62
     7
370
     9
100
AcDbLine
 10
567.6006678922323
 20
-376.6995276007671
 30
0.0
 11
570.6419664123999
 21
-376.6995276007671
 31
0.0
  0
LINE
  5
1CF
330
1F
100
AcDbEntity
  8
1
  6
Continuous
 62
     7
370
     9
100
AcDbLine
 10
566.0863555050989
 20
-376.6995276007671
 30
0.0
 11
566.783144471165
 21
-376.6995276007671
 31
0.0
  0
LINE
  5
1D0
330
1F
100
AcDbEntity
  8
1
  6
Continuous
 62
     7
370
     9
100
AcDbLine
 10
565.0473573097665
 20
-376.6995276007671
 30
0.0
 11
565.5135041152326
 21
-376.6995276007671
 31
0.0
  0
LINE
  5
1D1
330
1F
100
AcDbEntity
  8
1
  6
Continuous
 62
     7
370
     9
100
AcDbLine
 10
567.1777950593327
 20
-377.0328609341001
 30
0.0
 11
571.0648392452996
 21
-377.0328609341001
 31
0.0
  0
LINE
  5
1D2
330
1F
100
AcDbEntity
  8
1
  6
Continuous
 62
     7
370
     9
100
AcDbLine
 10
566.0796888384327
 20
-377.0328609341001
 30
0.0
 11
566.7898111378328
 21
-377.0328609341001
 31
0.0
  0
LINE
  5
1D3
330
1F
100
AcDbEntity
  8
1
  6
Continuous
 62
     7
370
     9
100
AcDbLine
 10
569.9697668648662
 20
-377.3661942674337
 30
0.0
 11
570.8354704120658
 21
-377.3661942674337
 31
0.0
  0
LINE
  5
1D4
330
1F
100
AcDbEntity
  8
1
  6
Continuous
 62
     7
370
     9
100
AcDbLine
 10
568.6479315982657
 20
-377.3661942674337
 30
0.0
 11
569.5947027063653
 21
-377.3661942674337
 31
0.0
  0
LINE
  5
1D5
330
1F
100
AcDbEntity
  8
1
  6
Continuous
 62
     7
370
     9
100
AcDbLine
 10
567.4071638925666
 20
-377.3661942674337
 30
0.0
 11
568.2728674397662
 21
-377.3661942674337
 31
0.0
  0
LINE
  5
1D6
330
1F
100
AcDbEntity
  8
1
  6
Continuous
 62
     7
370
     9
100
AcDbLine
 10
566.0730221717652
 20
-377.3661942674337
 30
0.0
 11
566.7964778044991
 21
-377.3661942674337
 31
0.0
  0
LINE
  5
1D7
330
1F
100
AcDbEntity
  8
1
  6
Continuous
 62
     7
370
     9
100
AcDbLine
 10
570.3941310553324
 20
-377.6995276007667
 30
0.0
 11
570.5021370787332
 21
-377.6995276007667
 31
0.0
  0
LINE
  5
1D8
330
1F
100
AcDbEntity
  8
1
  6
Continuous
 62
     7
370
     9
100
AcDbLine
 10
568.6379315982662
 20
-377.6995276007667
 30
0.0
 11
569.6047027063662
 21
-377.6995276007667
 31
0.0
  0
LINE
  5
1D9
330
1F
100
AcDbEntity
  8
1
  6
Continuous
 62
     7
370
     9
100
AcDbLine
 10
567.7404972258993
 20
-377.6995276007667
 30
0.0
 11
567.8485032493
 21
-377.6995276007667
 31
0.0
  0
LINE
  5
1DA
330
1F
100
AcDbEntity
  8
1
  6
Continuous
 62
     7
370
     9
100
AcDbLine
 10
566.0663555050986
 20
-377.6995276007667
 30
0.0
 11
566.8031444711655
 21
-377.6995276007667
 31
0.0
  0
LINE
  5
1DB
330
1F
100
AcDbEntity
  8
1
  6
Continuous
 62
     7
370
     9
100
AcDbLine
 10
568.6279315982665
 20
-378.0328609341003
 30
0.0
 11
569.6147027063658
 21
-378.0328609341003
 31
0.0
  0
LINE
  5
1DC
330
1F
100
AcDbEntity
  8
1
  6
Continuous
 62
     7
370
     9
100
AcDbLine
 10
566.0596888384334
 20
-378.0328609341003
 30
0.0
 11
566.8098111378331
 21
-378.0328609341003
 31
0.0
  0
LINE
  5
1DD
330
1F
100
AcDbEntity
  8
1
  6
Continuous
 62
     7
370
     9
100
AcDbLine
 10
568.6347096155986
 20
-378.3661942674338
 30
0.0
 11
569.6079246889996
 21
-378.3661942674338
 31
0.0
  0
LINE
  5
1DE
330
1F
100
AcDbEntity
  8
1
  6
Continuous
 62
     7
370
     9
100
AcDbLine
 10
566.069633297632
 20
-378.3661942674338
 30
0.0
 11
566.7998666786322
 21
-378.3661942674338
 31
0.0
  0
CIRCLE
  5
1DF
330
1F
100
AcDbEntity
  8
1
  6
Continuous
 62
     7
370
     9
100
AcDbCircle
 10
819.5240184839669
 20
-306.9812260922997
 30
0.0
 40
0.500000000000056
  0
MTEXT
  5
1E0
330
1F
100
AcDbEntity
  8
1
 62
     7
100
AcDbMText
 10
760.3934484718425
 20
-313.8369217660755
 30
0.0
 40
3.499999999999999
 41
0.0
 46
0.0
 71
     1
 72
     1
  1
{\fＭＳ ゴシック;\W0.953593;壁}
 73
     1
 44
1.0
  0
MTEXT
  5
1E1
330
1F
100
AcDbEntity
  8
1
 62
     7
100
AcDbMText
 10
760.3592599945697
 20
-318.1778308569847
 30
0.0
 40
3.499999999999999
 41
0.0
 46
0.0
 71
     1
 72
     1
  1
{\fＭＳ ゴシック;\W0.810327;ALCパネル又はコンクリート}
 73
     1
 44
1.0
  0
LINE
  5
1E2
330
1F
100
AcDbEntity
  8
1
  6
Continuous
 62
     7
370
     9
100
AcDbLine
 10
760.1658866511328
 20
-322.4710125110997
 30
0.0
 11
801.8855643441
 21
-322.4710125110997
 31
0.0
  0
LINE
  5
1E3
330
1F
100
AcDbEntity
  8
1
  6
Continuous
 62
     7
370
     9
100
AcDbLine
 10
819.5240184839669
 20
-306.9812260922997
 30
0.0
 11
801.8855643441
 21
-317.9710125110998
 31
0.0
  0
LINE
  5
1E4
330
1F
100
AcDbEntity
  8
1
  6
Continuous
 62
     7
370
     9
100
AcDbLine
 10
801.8855643441
 20
-317.9710125110997
 30
0.0
 11
760.1658866511328
 21
-317.9710125110997
 31
0.0
  0
LINE
  5
1E5
330
1F
100
AcDbEntity
  8
1
  6
Continuous
 62
     7
370
     9
100
AcDbLine
 10
503.9720234202341
 20
-233.2782687224164
 30
0.0
 11
505.4196530364333
 21
-231.8306391061831
 31
0.0
  0
LINE
  5
1E6
330
1F
100
AcDbEntity
  8
1
  6
Continuous
 62
     7
370
     9
100
AcDbLine
 10
508.1386900855671
 20
-233.3542427441834
 30
0.0
 11
509.6622937235672
 21
-231.8306391061831
 31
0.0
  0
LINE
  5
1E7
330
1F
100
AcDbEntity
  8
1
  6
Continuous
 62
     7
370
     9
100
AcDbLine
 10
503.9720233451345
 20
-237.5209094846164
 30
0.0
 11
508.1386900855671
 21
-233.3542427441835
 31
0.0
  0
LINE
  5
1E8
330
1F
100
AcDbEntity
  8
1
  6
Continuous
 62
     7
370
     9
100
AcDbLine
 10
508.1386900104343
 20
-237.5968835064163
 30
0.0
 11
512.305356750867
 21
-233.4302167659834
 31
0.0
  0
LINE
  5
1E9
330
1F
100
AcDbEntity
  8
1
  6
Continuous
 62
     7
370
     9
100
AcDbLine
 10
503.9720232700004
 20
-241.7635502468498
 30
0.0
 11
508.1386900104342
 21
-237.5968835064163
 31
0.0
  0
LINE
  5
1EA
330
1F
100
AcDbEntity
  8
1
  6
Continuous
 62
     7
370
     9
100
AcDbLine
 10
515.6386900680998
 20
-234.3395241358834
 30
0.0
 11
518.1475750978003
 21
-231.8306391061831
 31
0.0
  0
LINE
  5
1EB
330
1F
100
AcDbEntity
  8
1
  6
Continuous
 62
     7
370
     9
100
AcDbLine
 10
508.1386899353335
 20
-241.8395242686497
 30
0.0
 11
512.3053566757673
 21
-237.6728575282165
 31
0.0
  0
LINE
  5
1EC
330
1F
100
AcDbEntity
  8
1
  6
Continuous
 62
     7
370
     9
100
AcDbLine
 10
507.0296889304997
 20
-242.9485252734831
 30
0.0
 11
508.1386899353334
 21
-241.8395242686497
 31
0.0
  0
LINE
  5
1ED
330
1F
100
AcDbEntity
  8
1
  6
Continuous
 62
     7
370
     9
100
AcDbLine
 10
519.805356733434
 20
-234.4154981576833
 30
0.0
 11
522.3902157849342
 21
-231.8306391061831
 31
0.0
  0
LINE
  5
1EE
330
1F
100
AcDbEntity
  8
1
  6
Continuous
 62
     7
370
     9
100
AcDbLine
 10
515.6386899929989
 20
-238.5821648981165
 30
0.0
 11
519.805356733434
 21
-234.4154981576833
 31
0.0
  0
LINE
  5
1EF
330
1F
100
AcDbEntity
  8
1
  6
Continuous
 62
     7
370
     9
100
AcDbLine
 10
511.2723296176003
 20
-242.9485252734831
 30
0.0
 11
512.3053566006664
 21
-241.9154982904496
 31
0.0
  0
LINE
  5
1F0
330
1F
100
AcDbEntity
  8
1
  6
Continuous
 62
     7
370
     9
100
AcDbLine
 10
519.8053566583332
 20
-238.6581389199167
 30
0.0
 11
523.9720233987658
 21
-234.4914721794832
 31
0.0
  0
LINE
  5
1F1
330
1F
100
AcDbEntity
  8
1
  6
Continuous
 62
     7
370
     9
100
AcDbLine
 10
515.6386899178993
 20
-242.8248056603499
 30
0.0
 11
519.8053566583332
 21
-238.6581389199167
 31
0.0
  0
LINE
  5
1F2
330
1F
100
AcDbEntity
  8
1
  6
Continuous
 62
     7
370
     9
100
AcDbLine
 10
519.8053565831992
 20
-242.9007796821498
 30
0.0
 11
523.972023323633
 21
-238.7341129417166
 31
0.0
  0
LINE
  5
1F3
330
1F
100
AcDbEntity
  8
1
  6
Continuous
 62
     7
370
     9
100
AcDbLine
 10
519.7576109918667
 20
-242.9485252734831
 30
0.0
 11
519.8053565831992
 21
-242.9007796821498
 31
0.0
  0
LINE
  5
1F4
330
1F
100
AcDbEntity
  8
1
  6
Continuous
 62
     7
370
     9
100
AcDbLine
 10
503.9720230931997
 20
-296.9178793562164
 30
0.0
 11
504.6080439411998
 21
-296.2818585082166
 31
0.0
  0
LINE
  5
1F5
330
1F
100
AcDbEntity
  8
1
  6
Continuous
 62
     7
370
     9
100
AcDbLine
 10
508.1386897626668
 20
-296.9938533738499
 30
0.0
 11
508.8506846283336
 21
-296.2818585082166
 31
0.0
  0
LINE
  5
1F6
330
1F
100
AcDbEntity
  8
1
  6
Continuous
 62
     7
370
     9
100
AcDbLine
 10
503.9720232493663
 20
-301.1605198871499
 30
0.0
 11
508.1386897626668
 21
-296.9938533738499
 31
0.0
  0
LINE
  5
1F7
330
1F
100
AcDbEntity
  8
1
  6
Continuous
 62
     7
370
     9
100
AcDbLine
 10
508.1386899188334
 20
-301.2364939048165
 30
0.0
 11
512.305356432134
 21
-297.0698273915165
 31
0.0
  0
LINE
  5
1F8
330
1F
100
AcDbEntity
  8
1
  6
Continuous
 62
     7
370
     9
100
AcDbLine
 10
503.9720234055329
 20
-305.4031604181167
 30
0.0
 11
508.1386899188334
 21
-301.2364939048165
 31
0.0
  0
LINE
  5
1F9
330
1F
100
AcDbEntity
  8
1
  6
Continuous
 62
     7
370
     9
100
AcDbLine
 10
515.6386897989345
 20
-297.97913471185
 30
0.0
 11
517.3359660025669
 21
-296.2818585082166
 31
0.0
  0
LINE
  5
1FA
330
1F
100
AcDbEntity
  8
1
  6
Continuous
 62
     7
370
     9
100
AcDbLine
 10
508.1386900750001
 20
-305.4791344357834
 30
0.0
 11
512.3053565882994
 21
-301.3124679224831
 31
0.0
  0
LINE
  5
1FB
330
1F
100
AcDbEntity
  8
1
  6
Continuous
 62
     7
370
     9
100
AcDbLine
 10
507.1193456475665
 20
-306.4984788632166
 30
0.0
 11
508.1386900750001
 21
-305.4791344357834
 31
0.0
  0
LINE
  5
1FC
330
1F
100
AcDbEntity
  8
1
  6
Continuous
 62
     7
370
     9
100
AcDbLine
 10
519.8053564684004
 20
-298.0551087294834
 30
0.0
 11
521.5786066896995
 21
-296.2818585082166
 31
0.0
  0
LINE
  5
1FD
330
1F
100
AcDbEntity
  8
1
  6
Continuous
 62
     7
370
     9
100
AcDbLine
 10
515.6386899550998
 20
-302.2217752427831
 30
0.0
 11
519.8053564684004
 21
-298.0551087294834
 31
0.0
  0
LINE
  5
1FE
330
1F
100
AcDbEntity
  8
1
  6
Continuous
 62
     7
370
     9
100
AcDbLine
 10
511.3619863347003
 20
-306.4984788632166
 30
0.0
 11
512.305356744466
 21
-305.5551084534166
 31
0.0
  0
LINE
  5
1FF
330
1F
100
AcDbEntity
  8
1
  6
Continuous
 62
     7
370
     9
100
AcDbLine
 10
519.805356624567
 20
-302.2977492604497
 30
0.0
 11
523.9720231378664
 21
-298.1310827471501
 31
0.0
  0
LINE
  5
200
330
1F
100
AcDbEntity
  8
1
  6
Continuous
 62
     7
370
     9
100
AcDbLine
 10
515.6386901112664
 20
-306.4644157737499
 30
0.0
 11
519.805356624567
 21
-302.2977492604497
 31
0.0
  0
LINE
  5
201
330
1F
100
AcDbEntity
  8
1
  6
Continuous
 62
     7
370
     9
100
AcDbLine
 10
519.8472677089336
 20
-306.4984788631832
 30
0.0
 11
523.9720232940342
 21
-302.3737232781164
 31
0.0
  0
LINE
  5
202
330
1F
100
AcDbEntity
  8
1
  6
Continuous
 62
     7
370
     9
100
AcDbLine
 10
824.7975665535662
 20
-247.3623467977996
 30
0.0
 11
835.4642332201003
 21
-236.6956801312664
 31
0.0
  0
LINE
  5
203
330
1F
100
AcDbEntity
  8
1
  6
Continuous
 62
     7
370
     9
100
AcDbLine
 10
824.4360037698996
 20
-311.3635198882665
 30
0.0
 11
835.203843625633
 21
-300.5956800324998
 31
0.0
  0
LINE
  5
204
330
1F
100
AcDbEntity
  8
1
  6
Continuous
 62
     7
370
     9
100
AcDbLine
 10
820.5549258664668
 20
-247.3623467977996
 30
0.0
 11
831.2215925330007
 21
-236.6956801312664
 31
0.0
  0
LINE
  5
205
330
1F
100
AcDbEntity
  8
1
  6
Continuous
 62
     7
370
     9
100
AcDbLine
 10
820.193363082767
 20
-311.3635198882665
 30
0.0
 11
830.9612029385336
 21
-300.5956800324998
 31
0.0
  0
LINE
  5
206
330
1F
100
AcDbEntity
  8
1
  6
Continuous
 62
     7
370
     9
100
AcDbLine
 10
824.7975665535662
 20
-247.3623467977996
 30
0.0
 11
835.4642332201003
 21
-236.6956801312664
 31
0.0
  0
LINE
  5
207
330
1F
100
AcDbEntity
  8
1
  6
Continuous
 62
     7
370
     9
100
AcDbLine
 10
824.4360037698996
 20
-311.3635198882665
 30
0.0
 11
835.203843625633
 21
-300.5956800324998
 31
0.0
  0
CIRCLE
  5
208
330
1F
100
AcDbEntity
  8
1
  6
Continuous
 62
     7
370
     9
100
AcDbCircle
 10
518.8284688103333
 20
-157.9158415114833
 30
0.0
 40
0.500000000000056
  0
MTEXT
  5
209
330
1F
100
AcDbEntity
  8
1
 62
     7
100
AcDbMText
 10
524.0686593568946
 20
-147.3960807661925
 30
0.0
 40
3.5
 41
0.0
 46
0.0
 71
     1
 72
     1
  1
{\fＭＳ ゴシック;\W0.83943;被覆付配管}
 73
     1
 44
1.0
  0
LINE
  5
20A
330
1F
100
AcDbEntity
  8
1
  6
Continuous
 62
     7
370
     9
100
AcDbLine
 10
518.8284688103333
 20
-157.9158415114833
 30
0.0
 11
523.8683407810672
 21
-151.7051717883497
 31
0.0
  0
LINE
  5
20B
330
1F
100
AcDbEntity
  8
1
  6
Continuous
 62
     7
370
     9
100
AcDbLine
 10
523.8683407810672
 20
-151.7051717883497
 30
0.0
 11
540.2200050918001
 21
-151.7051717883497
 31
0.0
  0
CIRCLE
  5
20C
330
1F
100
AcDbEntity
  8
1
  6
Continuous
 62
     7
370
     9
100
AcDbCircle
 10
532.8654166339008
 20
-184.6486771577832
 30
0.0
 40
0.4999999999999449
  0
MTEXT
  5
20D
330
1F
100
AcDbEntity
  8
1
 62
     7
100
AcDbMText
 10
550.6365053190149
 20
-195.1541794328589
 30
0.0
 40
3.5
 41
0.0
 46
0.0
 71
     1
 72
     1
  1
{\fＭＳ ゴシック;\W0.85652;さや管}
 73
     1
 44
1.0
  0
LINE
  5
20E
330
1F
100
AcDbEntity
  8
1
  6
Continuous
 62
     7
370
     9
100
AcDbLine
 10
532.8654166339008
 20
-184.6486771577832
 30
0.0
 11
550.4321086013334
 21
-199.4632705041834
 31
0.0
  0
LINE
  5
20F
330
1F
100
AcDbEntity
  8
1
  6
Continuous
 62
     7
370
     9
100
AcDbLine
 10
550.4321086013333
 20
-199.4632705041834
 30
0.0
 11
560.2431071877668
 21
-199.4632705041834
 31
0.0
  0
CIRCLE
  5
210
330
1F
100
AcDbEntity
  8
1
  6
Continuous
 62
     7
370
     9
100
AcDbCircle
 10
847.8654166339005
 20
-184.6486771576996
 30
0.0
 40
0.500000000000056
  0
MTEXT
  5
211
330
1F
100
AcDbEntity
  8
1
 62
     7
100
AcDbMText
 10
865.636505324115
 20
-195.1541794327422
 30
0.0
 40
3.499999999999999
 41
0.0
 46
0.0
 71
     1
 72
     1
  1
{\fＭＳ ゴシック;\W0.85652;さや管}
 73
     1
 44
1.0
  0
LINE
  5
212
330
1F
100
AcDbEntity
  8
1
  6
Continuous
 62
     7
370
     9
100
AcDbLine
 10
847.8654166339005
 20
-184.6486771576996
 30
0.0
 11
865.432108601333
 21
-199.4632705040667
 31
0.0
  0
LINE
  5
213
330
1F
100
AcDbEntity
  8
1
  6
Continuous
 62
     7
370
     9
100
AcDbLine
 10
865.432108601333
 20
-199.4632705040666
 30
0.0
 11
875.2431071877666
 21
-199.4632705040666
 31
0.0
  0
LINE
  5
214
330
1F
100
AcDbEntity
  8
1
  6
Continuous
 62
     7
370
     9
100
AcDbLine
 10
868.5234631754328
 20
-372.7883316778001
 30
0.0
 11
872.9522284399987
 21
-372.7883316778001
 31
0.0
  0
LINE
  5
215
330
1F
100
AcDbEntity
  8
1
  6
Continuous
 62
     7
370
     9
100
AcDbLine
 10
868.5234631754328
 20
-373.1216650111336
 30
0.0
 11
872.9522284399987
 21
-373.1216650111336
 31
0.0
  0
LINE
  5
216
330
1F
100
AcDbEntity
  8
1
  6
Continuous
 62
     7
370
     9
100
AcDbLine
 10
870.1288265241323
 20
-373.4549983444667
 30
0.0
 11
871.3468650913004
 21
-373.4549983444667
 31
0.0
  0
LINE
  5
217
330
1F
100
AcDbEntity
  8
1
  6
Continuous
 62
     7
370
     9
100
AcDbLine
 10
870.2732211407324
 20
-373.7883316778002
 30
0.0
 11
871.2024704747004
 21
-373.7883316778002
 31
0.0
  0
LINE
  5
218
330
1F
100
AcDbEntity
  8
1
  6
Continuous
 62
     7
370
     9
100
AcDbLine
 10
870.2552893931659
 20
-374.1216650111338
 30
0.0
 11
871.2204022222668
 21
-374.1216650111338
 31
0.0
  0
LINE
  5
219
330
1F
100
AcDbEntity
  8
1
  6
Continuous
 62
     7
370
     9
100
AcDbLine
 10
870.2373576455994
 20
-374.4549983444668
 30
0.0
 11
871.2383339698334
 21
-374.4549983444668
 31
0.0
  0
LINE
  5
21A
330
1F
100
AcDbEntity
  8
1
  6
Continuous
 62
     7
370
     9
100
AcDbLine
 10
870.2194258980329
 20
-374.7883316778003
 30
0.0
 11
871.2562657173986
 21
-374.7883316778003
 31
0.0
  0
LINE
  5
21B
330
1F
100
AcDbEntity
  8
1
  6
Continuous
 62
     7
370
     9
100
AcDbLine
 10
870.2014941504652
 20
-375.1216650111336
 30
0.0
 11
871.2741974649653
 21
-375.1216650111336
 31
0.0
  0
LINE
  5
21C
330
1F
100
AcDbEntity
  8
1
  6
Continuous
 62
     7
370
     9
100
AcDbLine
 10
870.1835624028986
 20
-375.454998344467
 30
0.0
 11
871.2921292125328
 21
-375.454998344467
 31
0.0
  0
LINE
  5
21D
330
1F
100
AcDbEntity
  8
1
  6
Continuous
 62
     7
370
     9
100
AcDbLine
 10
870.1656306553333
 20
-375.7883316778002
 30
0.0
 11
871.3100609600995
 21
-375.7883316778002
 31
0.0
  0
LINE
  5
21E
330
1F
100
AcDbEntity
  8
1
  6
Continuous
 62
     7
370
     9
100
AcDbLine
 10
870.1476989077668
 20
-376.1216650111335
 30
0.0
 11
871.3279927076659
 21
-376.1216650111335
 31
0.0
  0
LINE
  5
21F
330
1F
100
AcDbEntity
  8
1
  6
Continuous
 62
     7
370
     9
100
AcDbLine
 10
870.1297671602003
 20
-376.4549983444668
 30
0.0
 11
871.3459244552325
 21
-376.4549983444668
 31
0.0
  0
LINE
  5
220
330
1F
100
AcDbEntity
  8
1
  6
Continuous
 62
     7
370
     9
100
AcDbLine
 10
870.1118354126327
 20
-376.7883316778003
 30
0.0
 11
871.3638562028002
 21
-376.7883316778003
 31
0.0
  0
LINE
  5
221
330
1F
100
AcDbEntity
  8
1
  6
Continuous
 62
     7
370
     9
100
AcDbLine
 10
870.032514774133
 20
-377.1216650111334
 30
0.0
 11
871.4431768413327
 21
-377.1216650111334
 31
0.0
  0
LINE
  5
222
330
1F
100
AcDbEntity
  8
1
  6
Continuous
 62
     7
370
     9
100
AcDbLine
 10
868.2181714522328
 20
-377.454998344467
 30
0.0
 11
873.2575201631998
 21
-377.454998344467
 31
0.0
  0
LINE
  5
223
330
1F
100
AcDbEntity
  8
1
  6
Continuous
 62
     7
370
     9
100
AcDbLine
 10
868.2181714522328
 20
-377.7883316778
 30
0.0
 11
873.2575201631998
 21
-377.7883316778
 31
0.0
  0
LINE
  5
224
330
1F
100
AcDbEntity
  8
1
  6
Continuous
 62
     7
370
     9
100
AcDbLine
 10
890.9718642857002
 20
-372.5145434307334
 30
0.0
 11
891.5136303603666
 21
-372.5145434307334
 31
0.0
  0
LINE
  5
225
330
1F
100
AcDbEntity
  8
1
  6
Continuous
 62
     7
370
     9
100
AcDbLine
 10
889.6239497916325
 20
-372.5145434307334
 30
0.0
 11
890.2380392659993
 21
-372.5145434307334
 31
0.0
  0
LINE
  5
226
330
1F
100
AcDbEntity
  8
1
  6
Continuous
 62
     7
370
     9
100
AcDbLine
 10
891.0324703462995
 20
-372.8478767640667
 30
0.0
 11
891.5742364209659
 21
-372.8478767640667
 31
0.0
  0
LINE
  5
227
330
1F
100
AcDbEntity
  8
1
  6
Continuous
 62
     7
370
     9
100
AcDbLine
 10
889.5945827307002
 20
-372.8478767640667
 30
0.0
 11
890.2204222681323
 21
-372.8478767640667
 31
0.0
  0
LINE
  5
228
330
1F
100
AcDbEntity
  8
1
  6
Continuous
 62
     7
370
     9
100
AcDbLine
 10
891.0370614725662
 20
-373.1812100974
 30
0.0
 11
891.6348424815662
 21
-373.1812100974
 31
0.0
  0
LINE
  5
229
330
1F
100
AcDbEntity
  8
1
  6
Continuous
 62
     7
370
     9
100
AcDbLine
 10
889.4471621302655
 20
-373.1812100974
 30
0.0
 11
890.356773380066
 21
-373.1812100974
 31
0.0
  0
LINE
  5
22A
330
1F
100
AcDbEntity
  8
1
  6
Continuous
 62
     7
370
     9
100
AcDbLine
 10
886.070591572867
 20
-373.5145434307335
 30
0.0
 11
891.6954485421996
 21
-373.5145434307335
 31
0.0
  0
LINE
  5
22B
330
1F
100
AcDbEntity
  8
1
  6
Continuous
 62
     7
370
     9
100
AcDbLine
 10
886.0868737980991
 20
-373.8478767640666
 30
0.0
 11
891.4600081264662
 21
-373.8478767640666
 31
0.0
  0
LINE
  5
22C
330
1F
100
AcDbEntity
  8
1
  6
Continuous
 62
     7
370
     9
100
AcDbLine
 10
889.590838723767
 20
-374.1812100974001
 30
0.0
 11
890.263399960466
 21
-374.1812100974001
 31
0.0
  0
LINE
  5
22D
330
1F
100
AcDbEntity
  8
1
  6
Continuous
 62
     7
370
     9
100
AcDbLine
 10
889.6183174245324
 20
-374.5145434307336
 30
0.0
 11
890.3026937984331
 21
-374.5145434307336
 31
0.0
  0
LINE
  5
22E
330
1F
100
AcDbEntity
  8
1
  6
Continuous
 62
     7
370
     9
100
AcDbLine
 10
889.6572949507666
 20
-374.8478767640667
 30
0.0
 11
890.3536250320672
 21
-374.8478767640667
 31
0.0
  0
LINE
  5
22F
330
1F
100
AcDbEntity
  8
1
  6
Continuous
 62
     7
370
     9
100
AcDbLine
 10
886.4369416406992
 20
-374.8478767640667
 30
0.0
 11
889.1560732553663
 21
-374.8478767640667
 31
0.0
  0
LINE
  5
230
330
1F
100
AcDbEntity
  8
1
  6
Continuous
 62
     7
370
     9
100
AcDbLine
 10
889.7079103182667
 20
-375.1812100974003
 30
0.0
 11
890.4163786517662
 21
-375.1812100974003
 31
0.0
  0
LINE
  5
231
330
1F
100
AcDbEntity
  8
1
  6
Continuous
 62
     7
370
     9
100
AcDbLine
 10
887.2437239294663
 20
-375.1812100974003
 30
0.0
 11
888.2271742756993
 21
-375.1812100974003
 31
0.0
  0
LINE
  5
232
330
1F
100
AcDbEntity
  8
1
  6
Continuous
 62
     7
370
     9
100
AcDbLine
 10
889.7703474189333
 20
-375.5145434307333
 30
0.0
 11
890.4911880277663
 21
-375.5145434307333
 31
0.0
  0
LINE
  5
233
330
1F
100
AcDbEntity
  8
1
  6
Continuous
 62
     7
370
     9
100
AcDbLine
 10
887.3292804602661
 20
-375.5145434307333
 30
0.0
 11
888.1416177464993
 21
-375.5145434307333
 31
0.0
  0
LINE
  5
234
330
1F
100
AcDbEntity
  8
1
  6
Continuous
 62
     7
370
     9
100
AcDbLine
 10
889.8448384784656
 20
-375.8478767640668
 30
0.0
 11
890.5783394707992
 21
-375.8478767640668
 31
0.0
  0
LINE
  5
235
330
1F
100
AcDbEntity
  8
1
  6
Continuous
 62
     7
370
     9
100
AcDbLine
 10
887.3060765334661
 20
-375.8478767640668
 30
0.0
 11
888.1648216732996
 21
-375.8478767640668
 31
0.0
  0
LINE
  5
236
330
1F
100
AcDbEntity
  8
1
  6
Continuous
 62
     7
370
     9
100
AcDbLine
 10
889.9316685933327
 20
-376.1812100974001
 30
0.0
 11
890.6781780934992
 21
-376.1812100974001
 31
0.0
  0
LINE
  5
237
330
1F
100
AcDbEntity
  8
1
  6
Continuous
 62
     7
370
     9
100
AcDbLine
 10
887.2828726066328
 20
-376.1812100974001
 30
0.0
 11
888.1880256001328
 21
-376.1812100974001
 31
0.0
  0
LINE
  5
238
330
1F
100
AcDbEntity
  8
1
  6
Continuous
 62
     7
370
     9
100
AcDbLine
 10
890.0311815646988
 20
-376.5145434307334
 30
0.0
 11
890.7911152711335
 21
-376.5145434307334
 31
0.0
  0
LINE
  5
239
330
1F
100
AcDbEntity
  8
1
  6
Continuous
 62
     7
370
     9
100
AcDbLine
 10
887.2596686798337
 20
-376.5145434307334
 30
0.0
 11
888.211720363467
 21
-376.5145434307334
 31
0.0
  0
LINE
  5
23A
330
1F
100
AcDbEntity
  8
1
  6
Continuous
 62
     7
370
     9
100
AcDbLine
 10
890.1437873255
 20
-376.8478767640667
 30
0.0
 11
890.9176381086654
 21
-376.8478767640667
 31
0.0
  0
LINE
  5
23B
330
1F
100
AcDbEntity
  8
1
  6
Continuous
 62
     7
370
     9
100
AcDbLine
 10
887.2263277216996
 20
-376.8478767640667
 30
0.0
 11
889.3432462149322
 21
-376.8478767640667
 31
0.0
  0
LINE
  5
23C
330
1F
100
AcDbEntity
  8
1
  6
Continuous
 62
     7
370
     9
100
AcDbLine
 10
890.2699713666668
 20
-377.1812100974003
 30
0.0
 11
891.6159437830987
 21
-377.1812100974003
 31
0.0
  0
LINE
  5
23D
330
1F
100
AcDbEntity
  8
1
  6
Continuous
 62
     7
370
     9
100
AcDbLine
 10
886.1996148381666
 20
-377.1812100974003
 30
0.0
 11
889.1223164054667
 21
-377.1812100974003
 31
0.0
  0
LINE
  5
23E
330
1F
100
AcDbEntity
  8
1
  6
Continuous
 62
     7
370
     9
100
AcDbLine
 10
890.4103067181994
 20
-377.5145434307333
 30
0.0
 11
891.6462532451665
 21
-377.5145434307333
 31
0.0
  0
LINE
  5
23F
330
1F
100
AcDbEntity
  8
1
  6
Continuous
 62
     7
370
     9
100
AcDbLine
 10
886.2412815048335
 20
-377.5145434307333
 30
0.0
 11
888.038983072133
 21
-377.5145434307333
 31
0.0
  0
LINE
  5
240
330
1F
100
AcDbEntity
  8
1
  6
Continuous
 62
     7
370
     9
100
AcDbLine
 10
890.565469256799
 20
-377.8478767640668
 30
0.0
 11
891.3719524220326
 21
-377.8478767640668
 31
0.0
  0
LINE
  5
241
330
1F
100
AcDbEntity
  8
1
  6
Continuous
 62
     7
370
     9
100
AcDbLine
 10
886.2829481715322
 20
-377.8478767640668
 30
0.0
 11
886.955649738799
 21
-377.8478767640668
 31
0.0
  0
LINE
  5
242
330
1F
100
AcDbEntity
  8
1
  6
Continuous
 62
     7
370
     9
100
AcDbLine
 10
890.7374825201322
 20
-378.1812100973999
 30
0.0
 11
891.0713401044327
 21
-378.1812100973999
 31
0.0
  0
LINE
  5
243
330
1F
100
AcDbEntity
  8
1
  6
Continuous
 62
     7
370
     9
100
AcDbLine
 10
858.0246513451007
 20
-372.5266845229004
 30
0.0
 11
858.8031685577998
 21
-372.5266845229004
 31
0.0
  0
LINE
  5
244
330
1F
100
AcDbEntity
  8
1
  6
Continuous
 62
     7
370
     9
100
AcDbLine
 10
857.9720650004672
 20
-372.8600178562335
 30
0.0
 11
858.8557549024332
 21
-372.8600178562335
 31
0.0
  0
LINE
  5
245
330
1F
100
AcDbEntity
  8
1
  6
Continuous
 62
     7
370
     9
100
AcDbLine
 10
856.199527319166
 20
-373.193351189567
 30
0.0
 11
860.628292583732
 21
-373.193351189567
 31
0.0
  0
LINE
  5
246
330
1F
100
AcDbEntity
  8
1
  6
Continuous
 62
     7
370
     9
100
AcDbLine
 10
857.8858238680997
 20
-373.5266845229005
 30
0.0
 11
858.9419960347998
 21
-373.5266845229005
 31
0.0
  0
LINE
  5
247
330
1F
100
AcDbEntity
  8
1
  6
Continuous
 62
     7
370
     9
100
AcDbLine
 10
857.9846513450999
 20
-373.8600178562336
 30
0.0
 11
858.8431685577996
 21
-373.8600178562336
 31
0.0
  0
LINE
  5
248
330
1F
100
AcDbEntity
  8
1
  6
Continuous
 62
     7
370
     9
100
AcDbLine
 10
857.9746513451003
 20
-374.1933511895671
 30
0.0
 11
858.8531685578004
 21
-374.1933511895671
 31
0.0
  0
LINE
  5
249
330
1F
100
AcDbEntity
  8
1
  6
Continuous
 62
     7
370
     9
100
AcDbLine
 10
855.7721189066663
 20
-374.5266845229002
 30
0.0
 11
861.0557009962331
 21
-374.5266845229002
 31
0.0
  0
LINE
  5
24A
330
1F
100
AcDbEntity
  8
1
  6
Continuous
 62
     7
370
     9
100
AcDbLine
 10
855.7721189066663
 20
-374.8600178562337
 30
0.0
 11
861.0557009962331
 21
-374.8600178562337
 31
0.0
  0
LINE
  5
24B
330
1F
100
AcDbEntity
  8
1
  6
Continuous
 62
     7
370
     9
100
AcDbLine
 10
857.5495914943994
 20
-375.193351189567
 30
0.0
 11
859.2782284085
 21
-375.193351189567
 31
0.0
  0
LINE
  5
24C
330
1F
100
AcDbEntity
  8
1
  6
Continuous
 62
     7
370
     9
100
AcDbLine
 10
857.4922551620336
 20
-375.5266845229003
 30
0.0
 11
859.335564740866
 21
-375.5266845229003
 31
0.0
  0
LINE
  5
24D
330
1F
100
AcDbEntity
  8
1
  6
Continuous
 62
     7
370
     9
100
AcDbLine
 10
857.271081643167
 20
-375.8600178562336
 30
0.0
 11
859.5567382597668
 21
-375.8600178562336
 31
0.0
  0
LINE
  5
24E
330
1F
100
AcDbEntity
  8
1
  6
Continuous
 62
     7
370
     9
100
AcDbLine
 10
857.0222920175337
 20
-376.1933511895671
 30
0.0
 11
859.8055278853659
 21
-376.1933511895671
 31
0.0
  0
LINE
  5
24F
330
1F
100
AcDbEntity
  8
1
  6
Continuous
 62
     7
370
     9
100
AcDbLine
 10
856.7421405084656
 20
-376.5266845229002
 30
0.0
 11
860.0856793944323
 21
-376.5266845229002
 31
0.0
  0
LINE
  5
250
330
1F
100
AcDbEntity
  8
1
  6
Continuous
 62
     7
370
     9
100
AcDbLine
 10
859.3760804916
 20
-376.8600178562337
 30
0.0
 11
860.4022746268673
 21
-376.8600178562337
 31
0.0
  0
LINE
  5
251
330
1F
100
AcDbEntity
  8
1
  6
Continuous
 62
     7
370
     9
100
AcDbLine
 10
857.8945597781656
 20
-376.8600178562337
 30
0.0
 11
858.9332601247327
 21
-376.8600178562337
 31
0.0
  0
LINE
  5
252
330
1F
100
AcDbEntity
  8
1
  6
Continuous
 62
     7
370
     9
100
AcDbLine
 10
856.4255452760332
 20
-376.8600178562337
 30
0.0
 11
857.4517394112994
 21
-376.8600178562337
 31
0.0
  0
LINE
  5
253
330
1F
100
AcDbEntity
  8
1
  6
Continuous
 62
     7
370
     9
100
AcDbLine
 10
859.5992232055669
 20
-377.1933511895667
 30
0.0
 11
860.7624835696332
 21
-377.1933511895667
 31
0.0
  0
LINE
  5
254
330
1F
100
AcDbEntity
  8
1
  6
Continuous
 62
     7
370
     9
100
AcDbLine
 10
857.8846513451001
 20
-377.1933511895667
 30
0.0
 11
858.9431685578005
 21
-377.1933511895667
 31
0.0
  0
LINE
  5
255
330
1F
100
AcDbEntity
  8
1
  6
Continuous
 62
     7
370
     9
100
AcDbLine
 10
856.0653363332659
 20
-377.1933511895667
 30
0.0
 11
857.2285966973666
 21
-377.1933511895667
 31
0.0
  0
LINE
  5
256
330
1F
100
AcDbEntity
  8
1
  6
Continuous
 62
     7
370
     9
100
AcDbLine
 10
859.8505930155993
 20
-377.5266845229003
 30
0.0
 11
861.1769816130665
 21
-377.5266845229003
 31
0.0
  0
LINE
  5
257
330
1F
100
AcDbEntity
  8
1
  6
Continuous
 62
     7
370
     9
100
AcDbLine
 10
857.8746513451006
 20
-377.5266845229003
 30
0.0
 11
858.9531685578002
 21
-377.5266845229003
 31
0.0
  0
LINE
  5
258
330
1F
100
AcDbEntity
  8
1
  6
Continuous
 62
     7
370
     9
100
AcDbLine
 10
855.6508382898327
 20
-377.5266845229003
 30
0.0
 11
856.9772268872986
 21
-377.5266845229003
 31
0.0
  0
LINE
  5
259
330
1F
100
AcDbEntity
  8
1
  6
Continuous
 62
     7
370
     9
100
AcDbLine
 10
860.1341284405654
 20
-377.8600178562338
 30
0.0
 11
861.0915476022328
 21
-377.8600178562338
 31
0.0
  0
LINE
  5
25A
330
1F
100
AcDbEntity
  8
1
  6
Continuous
 62
     7
370
     9
100
AcDbLine
 10
857.8646513450996
 20
-377.8600178562338
 30
0.0
 11
858.9631685577996
 21
-377.8600178562338
 31
0.0
  0
LINE
  5
25B
330
1F
100
AcDbEntity
  8
1
  6
Continuous
 62
     7
370
     9
100
AcDbLine
 10
856.0571437756328
 20
-377.8600178562338
 30
0.0
 11
856.6936914623336
 21
-377.8600178562338
 31
0.0
  0
LINE
  5
25C
330
1F
100
AcDbEntity
  8
1
  6
Continuous
 62
     7
370
     9
100
AcDbLine
 10
860.4552108166337
 20
-378.1933511895668
 30
0.0
 11
860.5582142688995
 21
-378.1933511895668
 31
0.0
  0
LINE
  5
25D
330
1F
100
AcDbEntity
  8
1
  6
Continuous
 62
     7
370
     9
100
AcDbLine
 10
857.8546513450999
 20
-378.1933511895668
 30
0.0
 11
858.9731685578005
 21
-378.1933511895668
 31
0.0
  0
CIRCLE
  5
25E
330
1F
100
AcDbEntity
  8
1
  6
Continuous
 62
     7
370
     9
100
AcDbCircle
 10
821.1552094108332
 20
-295.6600962361665
 30
0.0
 40
0.4999999999999449
  0
MTEXT
  5
25F
330
1F
100
AcDbEntity
  8
1
 62
     7
100
AcDbMText
 10
789.0139593619931
 20
-304.9819854327422
 30
0.0
 40
3.499999999999999
 41
0.0
 46
0.0
 71
     1
 72
     1
  1
{\fＭＳ ゴシック;\W0.83943;パテエース}
 73
     1
 44
1.0
  0
LINE
  5
260
330
1F
100
AcDbEntity
  8
1
  6
Continuous
 62
     7
370
     9
100
AcDbLine
 10
821.1552094108332
 20
-295.6600962361665
 30
0.0
 11
805.5015117552663
 21
-309.1160762409666
 31
0.0
  0
LINE
  5
261
330
1F
100
AcDbEntity
  8
1
  6
Continuous
 62
     7
370
     9
100
AcDbLine
 10
805.5015117552663
 20
-309.1160762409666
 30
0.0
 11
788.8136406780661
 21
-309.1160762409666
 31
0.0
  0
CIRCLE
  5
262
330
1F
100
AcDbEntity
  8
1
  6
Continuous
 62
     7
370
     9
100
AcDbCircle
 10
811.1050128364003
 20
-253.8334229843
 30
0.0
 40
0.4999999999999449
  0
MTEXT
  5
263
330
1F
100
AcDbEntity
  8
1
 62
     7
100
AcDbMText
 10
777.7355246574489
 20
-237.5051870994089
 30
0.0
 40
3.499999999999999
 41
0.0
 46
0.0
 71
     1
 72
     1
  1
{\fＭＳ ゴシック;\W0.85652;配管等}
 73
     1
 44
1.0
  0
LINE
  5
264
330
1F
100
AcDbEntity
  8
1
  6
Continuous
 62
     7
370
     9
100
AcDbLine
 10
811.1050128364003
 20
-253.8334229843
 30
0.0
 11
787.5438503449997
 21
-241.814277916733
 31
0.0
  0
LINE
  5
265
330
1F
100
AcDbEntity
  8
1
  6
Continuous
 62
     7
370
     9
100
AcDbLine
 10
787.5438503449997
 20
-241.814277916733
 30
0.0
 11
777.5311276986661
 21
-241.814277916733
 31
0.0
  0
LINE
  5
266
330
1F
100
AcDbEntity
  8
1
  6
Continuous
 62
     7
370
     9
100
AcDbLine
 10
902.2303204779993
 20
-372.6827571284334
 30
0.0
 11
902.9007078155659
 21
-372.6827571284334
 31
0.0
  0
LINE
  5
267
330
1F
100
AcDbEntity
  8
1
  6
Continuous
 62
     7
370
     9
100
AcDbLine
 10
899.3628895087993
 20
-372.6827571284334
 30
0.0
 11
900.0286543885655
 21
-372.6827571284334
 31
0.0
  0
LINE
  5
268
330
1F
100
AcDbEntity
  8
1
  6
Continuous
 62
     7
370
     9
100
AcDbLine
 10
902.218272285233
 20
-373.0160904617669
 30
0.0
 11
902.9127560083335
 21
-373.0160904617669
 31
0.0
  0
LINE
  5
269
330
1F
100
AcDbEntity
  8
1
  6
Continuous
 62
     7
370
     9
100
AcDbLine
 10
899.3528895087996
 20
-373.0160904617669
 30
0.0
 11
900.0386543885652
 21
-373.0160904617669
 31
0.0
  0
LINE
  5
26A
330
1F
100
AcDbEntity
  8
1
  6
Continuous
 62
     7
370
     9
100
AcDbLine
 10
902.2062240924333
 20
-373.3494237950999
 30
0.0
 11
902.9248042010987
 21
-373.3494237950999
 31
0.0
  0
LINE
  5
26B
330
1F
100
AcDbEntity
  8
1
  6
Continuous
 62
     7
370
     9
100
AcDbLine
 10
898.2751477967001
 20
-373.3494237950999
 30
0.0
 11
901.1042005078992
 21
-373.3494237950999
 31
0.0
  0
LINE
  5
26C
330
1F
100
AcDbEntity
  8
1
  6
Continuous
 62
     7
370
     9
100
AcDbLine
 10
902.1941758996659
 20
-373.6827571284335
 30
0.0
 11
902.9368523938664
 21
-373.6827571284335
 31
0.0
  0
LINE
  5
26D
330
1F
100
AcDbEntity
  8
1
  6
Continuous
 62
     7
370
     9
100
AcDbLine
 10
898.2751477967001
 20
-373.6827571284335
 30
0.0
 11
901.0321772925324
 21
-373.6827571284335
 31
0.0
  0
LINE
  5
26E
330
1F
100
AcDbEntity
  8
1
  6
Continuous
 62
     7
370
     9
100
AcDbLine
 10
902.143105499199
 20
-374.016090461767
 30
0.0
 11
902.9879227943333
 21
-374.016090461767
 31
0.0
  0
LINE
  5
26F
330
1F
100
AcDbEntity
  8
1
  6
Continuous
 62
     7
370
     9
100
AcDbLine
 10
900.2835381511322
 20
-374.016090461767
 30
0.0
 11
900.9349109227663
 21
-374.016090461767
 31
0.0
  0
LINE
  5
270
330
1F
100
AcDbEntity
  8
1
  6
Continuous
 62
     7
370
     9
100
AcDbLine
 10
901.0838316501663
 20
-374.3494237951001
 30
0.0
 11
904.0471966433659
 21
-374.3494237951001
 31
0.0
  0
LINE
  5
271
330
1F
100
AcDbEntity
  8
1
  6
Continuous
 62
     7
370
     9
100
AcDbLine
 10
900.1292016556658
 20
-374.3494237951001
 30
0.0
 11
900.8107539720323
 21
-374.3494237951001
 31
0.0
  0
LINE
  5
272
330
1F
100
AcDbEntity
  8
1
  6
Continuous
 62
     7
370
     9
100
AcDbLine
 10
902.0419276946336
 20
-374.6827571284336
 30
0.0
 11
903.0891005989329
 21
-374.6827571284336
 31
0.0
  0
LINE
  5
273
330
1F
100
AcDbEntity
  8
1
  6
Continuous
 62
     7
370
     9
100
AcDbLine
 10
899.9184337915666
 20
-374.6827571284336
 30
0.0
 11
900.6573869344002
 21
-374.6827571284336
 31
0.0
  0
LINE
  5
274
330
1F
100
AcDbEntity
  8
1
  6
Continuous
 62
     7
370
     9
100
AcDbLine
 10
902.1459831285989
 20
-375.0160904617666
 30
0.0
 11
902.9850451649664
 21
-375.0160904617666
 31
0.0
  0
LINE
  5
275
330
1F
100
AcDbEntity
  8
1
  6
Continuous
 62
     7
370
     9
100
AcDbLine
 10
899.6606323840336
 20
-375.0160904617666
 30
0.0
 11
900.8164020929994
 21
-375.0160904617666
 31
0.0
  0
LINE
  5
276
330
1F
100
AcDbEntity
  8
1
  6
Continuous
 62
     7
370
     9
100
AcDbLine
 10
902.1339349358326
 20
-375.3494237951002
 30
0.0
 11
902.9970933577329
 21
-375.3494237951002
 31
0.0
  0
LINE
  5
277
330
1F
100
AcDbEntity
  8
1
  6
Continuous
 62
     7
370
     9
100
AcDbLine
 10
899.3435595620668
 20
-375.3494237951002
 30
0.0
 11
901.2924514285668
 21
-375.3494237951002
 31
0.0
  0
LINE
  5
278
330
1F
100
AcDbEntity
  8
1
  6
Continuous
 62
     7
370
     9
100
AcDbLine
 10
902.121886743066
 20
-375.6827571284335
 30
0.0
 11
903.0091415504992
 21
-375.6827571284335
 31
0.0
  0
LINE
  5
279
330
1F
100
AcDbEntity
  8
1
  6
Continuous
 62
     7
370
     9
100
AcDbLine
 10
900.549199170966
 20
-375.6827571284335
 30
0.0
 11
901.4417304835993
 21
-375.6827571284335
 31
0.0
  0
LINE
  5
27A
330
1F
100
AcDbEntity
  8
1
  6
Continuous
 62
     7
370
     9
100
AcDbLine
 10
898.9453542322996
 20
-375.6827571284335
 30
0.0
 11
900.1220117659002
 21
-375.6827571284335
 31
0.0
  0
LINE
  5
27B
330
1F
100
AcDbEntity
  8
1
  6
Continuous
 62
     7
370
     9
100
AcDbLine
 10
902.1098385502653
 20
-376.0160904617667
 30
0.0
 11
903.0211897432669
 21
-376.0160904617667
 31
0.0
  0
LINE
  5
27C
330
1F
100
AcDbEntity
  8
1
  6
Continuous
 62
     7
370
     9
100
AcDbLine
 10
901.0624874922325
 20
-376.0160904617667
 30
0.0
 11
901.3118871936994
 21
-376.0160904617667
 31
0.0
  0
LINE
  5
27D
330
1F
100
AcDbEntity
  8
1
  6
Continuous
 62
     7
370
     9
100
AcDbLine
 10
898.419087092166
 20
-376.0160904617667
 30
0.0
 11
900.1286543885655
 21
-376.0160904617667
 31
0.0
  0
LINE
  5
27E
330
1F
100
AcDbEntity
  8
1
  6
Continuous
 62
     7
370
     9
100
AcDbLine
 10
902.0977903575
 20
-376.3494237951001
 30
0.0
 11
903.0332379360332
 21
-376.3494237951001
 31
0.0
  0
LINE
  5
27F
330
1F
100
AcDbEntity
  8
1
  6
Continuous
 62
     7
370
     9
100
AcDbLine
 10
897.622641856133
 20
-376.3494237951001
 30
0.0
 11
900.1386543885662
 21
-376.3494237951001
 31
0.0
  0
LINE
  5
280
330
1F
100
AcDbEntity
  8
1
  6
Continuous
 62
     7
370
     9
100
AcDbLine
 10
902.0857421647326
 20
-376.6827571284336
 30
0.0
 11
903.0452861287997
 21
-376.6827571284336
 31
0.0
  0
LINE
  5
281
330
1F
100
AcDbEntity
  8
1
  6
Continuous
 62
     7
370
     9
100
AcDbLine
 10
899.2425691306324
 20
-376.6827571284336
 30
0.0
 11
900.1486543885658
 21
-376.6827571284336
 31
0.0
  0
LINE
  5
282
330
1F
100
AcDbEntity
  8
1
  6
Continuous
 62
     7
370
     9
100
AcDbLine
 10
898.0615859334
 20
-376.6827571284336
 30
0.0
 11
898.7660073415327
 21
-376.6827571284336
 31
0.0
  0
LINE
  5
283
330
1F
100
AcDbEntity
  8
1
  6
Continuous
 62
     7
370
     9
100
AcDbLine
 10
902.073693971966
 20
-377.0160904617666
 30
0.0
 11
903.057334321566
 21
-377.0160904617666
 31
0.0
  0
LINE
  5
284
330
1F
100
AcDbEntity
  8
1
  6
Continuous
 62
     7
370
     9
100
AcDbLine
 10
899.2328895087995
 20
-377.0160904617666
 30
0.0
 11
900.1586543885654
 21
-377.0160904617666
 31
0.0
  0
LINE
  5
285
330
1F
100
AcDbEntity
  8
1
  6
Continuous
 62
     7
370
     9
100
AcDbLine
 10
901.8923102026663
 20
-377.3494237951002
 30
0.0
 11
903.2387180908659
 21
-377.3494237951002
 31
0.0
  0
LINE
  5
286
330
1F
100
AcDbEntity
  8
1
  6
Continuous
 62
     7
370
     9
100
AcDbLine
 10
899.2228895087987
 20
-377.3494237951002
 30
0.0
 11
900.1686543885664
 21
-377.3494237951002
 31
0.0
  0
LINE
  5
287
330
1F
100
AcDbEntity
  8
1
  6
Continuous
 62
     7
370
     9
100
AcDbLine
 10
900.5953648930331
 20
-377.6827571284333
 30
0.0
 11
904.5356634004991
 21
-377.6827571284333
 31
0.0
  0
LINE
  5
288
330
1F
100
AcDbEntity
  8
1
  6
Continuous
 62
     7
370
     9
100
AcDbLine
 10
899.2128895087992
 20
-377.6827571284333
 30
0.0
 11
900.178654388566
 21
-377.6827571284333
 31
0.0
  0
LINE
  5
289
330
1F
100
AcDbEntity
  8
1
  6
Continuous
 62
     7
370
     9
100
AcDbLine
 10
900.5953648930331
 20
-378.0160904617667
 30
0.0
 11
904.5356634004991
 21
-378.0160904617667
 31
0.0
  0
LINE
  5
28A
330
1F
100
AcDbEntity
  8
1
  6
Continuous
 62
     7
370
     9
100
AcDbLine
 10
899.2028895087996
 20
-378.0160904617667
 30
0.0
 11
900.1886543885656
 21
-378.0160904617667
 31
0.0
  0
LINE
  5
28B
330
1F
100
AcDbEntity
  8
1
  6
Continuous
 62
     7
370
     9
100
AcDbLine
 10
899.1928895087985
 20
-378.3494237951003
 30
0.0
 11
900.1986543885663
 21
-378.3494237951003
 31
0.0
  0
LINE
  5
28C
330
1F
100
AcDbEntity
  8
1
  6
Continuous
 62
     7
370
     9
100
AcDbLine
 10
876.8464194585989
 20
-372.3661942674336
 30
0.0
 11
877.4933397859993
 21
-372.3661942674336
 31
0.0
  0
LINE
  5
28D
330
1F
100
AcDbEntity
  8
1
  6
Continuous
 62
     7
370
     9
100
AcDbLine
 10
875.8694859443656
 20
-372.3661942674336
 30
0.0
 11
876.516406271766
 21
-372.3661942674336
 31
0.0
  0
LINE
  5
28E
330
1F
100
AcDbEntity
  8
1
  6
Continuous
 62
     7
370
     9
100
AcDbLine
 10
877.9412386399991
 20
-372.6995276007668
 30
0.0
 11
878.6917438227322
 21
-372.6995276007668
 31
0.0
  0
LINE
  5
28F
330
1F
100
AcDbEntity
  8
1
  6
Continuous
 62
     7
370
     9
100
AcDbLine
 10
876.8360027919326
 20
-372.6995276007668
 30
0.0
 11
877.5044003786331
 21
-372.6995276007668
 31
0.0
  0
LINE
  5
290
330
1F
100
AcDbEntity
  8
1
  6
Continuous
 62
     7
370
     9
100
AcDbLine
 10
875.8584253517332
 20
-372.6995276007668
 30
0.0
 11
876.5268229384325
 21
-372.6995276007668
 31
0.0
  0
LINE
  5
291
330
1F
100
AcDbEntity
  8
1
  6
Continuous
 62
     7
370
     9
100
AcDbLine
 10
874.6710819076328
 20
-372.6995276007668
 30
0.0
 11
875.4215870903658
 21
-372.6995276007668
 31
0.0
  0
LINE
  5
292
330
1F
100
AcDbEntity
  8
1
  6
Continuous
 62
     7
370
     9
100
AcDbLine
 10
874.8361778424998
 20
-373.0328609341004
 30
0.0
 11
878.5266478878334
 21
-373.0328609341004
 31
0.0
  0
LINE
  5
293
330
1F
100
AcDbEntity
  8
1
  6
Continuous
 62
     7
370
     9
100
AcDbLine
 10
873.917505131133
 20
-373.3661942674335
 30
0.0
 11
879.4453205992332
 21
-373.3661942674335
 31
0.0
  0
LINE
  5
294
330
1F
100
AcDbEntity
  8
1
  6
Continuous
 62
     7
370
     9
100
AcDbLine
 10
873.917505131133
 20
-373.6995276007669
 30
0.0
 11
879.4453205992332
 21
-373.6995276007669
 31
0.0
  0
LINE
  5
295
330
1F
100
AcDbEntity
  8
1
  6
Continuous
 62
     7
370
     9
100
AcDbLine
 10
877.0929945669659
 20
-374.0328609341005
 30
0.0
 11
878.0266478878333
 21
-374.0328609341005
 31
0.0
  0
LINE
  5
296
330
1F
100
AcDbEntity
  8
1
  6
Continuous
 62
     7
370
     9
100
AcDbLine
 10
875.3361778425328
 20
-374.0328609341005
 30
0.0
 11
876.2698311633991
 21
-374.0328609341005
 31
0.0
  0
LINE
  5
297
330
1F
100
AcDbEntity
  8
1
  6
Continuous
 62
     7
370
     9
100
AcDbLine
 10
874.659980257932
 20
-374.3661942674336
 30
0.0
 11
878.7028454724331
 21
-374.3661942674336
 31
0.0
  0
LINE
  5
298
330
1F
100
AcDbEntity
  8
1
  6
Continuous
 62
     7
370
     9
100
AcDbLine
 10
874.6502052667997
 20
-374.6995276007671
 30
0.0
 11
878.7126204635655
 21
-374.6995276007671
 31
0.0
  0
LINE
  5
299
330
1F
100
AcDbEntity
  8
1
  6
Continuous
 62
     7
370
     9
100
AcDbLine
 10
876.2833764433997
 20
-375.0328609341001
 30
0.0
 11
877.0794492869323
 21
-375.0328609341001
 31
0.0
  0
LINE
  5
29A
330
1F
100
AcDbEntity
  8
1
  6
Continuous
 62
     7
370
     9
100
AcDbLine
 10
874.6502052667997
 20
-375.3661942674337
 30
0.0
 11
878.7126204635655
 21
-375.3661942674337
 31
0.0
  0
LINE
  5
29B
330
1F
100
AcDbEntity
  8
1
  6
Continuous
 62
     7
370
     9
100
AcDbLine
 10
874.6502052667997
 20
-375.6995276007669
 30
0.0
 11
878.7126204635655
 21
-375.6995276007669
 31
0.0
  0
LINE
  5
29C
330
1F
100
AcDbEntity
  8
1
  6
Continuous
 62
     7
370
     9
100
AcDbLine
 10
876.2698629298997
 20
-376.0328609341003
 30
0.0
 11
877.0929628004666
 21
-376.0328609341003
 31
0.0
  0
LINE
  5
29D
330
1F
100
AcDbEntity
  8
1
  6
Continuous
 62
     7
370
     9
100
AcDbLine
 10
874.6502052667997
 20
-376.3661942674336
 30
0.0
 11
878.7126204635655
 21
-376.3661942674336
 31
0.0
  0
LINE
  5
29E
330
1F
100
AcDbEntity
  8
1
  6
Continuous
 62
     7
370
     9
100
AcDbLine
 10
874.6502052667997
 20
-376.6995276007671
 30
0.0
 11
878.7126204635655
 21
-376.6995276007671
 31
0.0
  0
LINE
  5
29F
330
1F
100
AcDbEntity
  8
1
  6
Continuous
 62
     7
370
     9
100
AcDbLine
 10
875.3944357956327
 20
-377.0328609341001
 30
0.0
 11
877.9683899346991
 21
-377.0328609341001
 31
0.0
  0
LINE
  5
2A0
330
1F
100
AcDbEntity
  8
1
  6
Continuous
 62
     7
370
     9
100
AcDbLine
 10
877.4003852020664
 20
-377.3661942674337
 30
0.0
 11
878.5292619831665
 21
-377.3661942674337
 31
0.0
  0
LINE
  5
2A1
330
1F
100
AcDbEntity
  8
1
  6
Continuous
 62
     7
370
     9
100
AcDbLine
 10
876.2518449118663
 20
-377.3661942674337
 30
0.0
 11
877.1109808184657
 21
-377.3661942674337
 31
0.0
  0
LINE
  5
2A2
330
1F
100
AcDbEntity
  8
1
  6
Continuous
 62
     7
370
     9
100
AcDbLine
 10
874.8335637471666
 20
-377.3661942674337
 30
0.0
 11
875.9624405282998
 21
-377.3661942674337
 31
0.0
  0
LINE
  5
2A3
330
1F
100
AcDbEntity
  8
1
  6
Continuous
 62
     7
370
     9
100
AcDbLine
 10
877.7861610850334
 20
-377.6995276007667
 30
0.0
 11
879.2256881830326
 21
-377.6995276007667
 31
0.0
  0
LINE
  5
2A4
330
1F
100
AcDbEntity
  8
1
  6
Continuous
 62
     7
370
     9
100
AcDbLine
 10
876.2473404073659
 20
-377.6995276007667
 30
0.0
 11
877.1154853229991
 21
-377.6995276007667
 31
0.0
  0
LINE
  5
2A5
330
1F
100
AcDbEntity
  8
1
  6
Continuous
 62
     7
370
     9
100
AcDbLine
 10
874.1371375473326
 20
-377.6995276007667
 30
0.0
 11
875.5766646453329
 21
-377.6995276007667
 31
0.0
  0
LINE
  5
2A6
330
1F
100
AcDbEntity
  8
1
  6
Continuous
 62
     7
370
     9
100
AcDbLine
 10
878.2345984266
 20
-378.0328609341003
 30
0.0
 11
878.9850085232665
 21
-378.0328609341003
 31
0.0
  0
LINE
  5
2A7
330
1F
100
AcDbEntity
  8
1
  6
Continuous
 62
     7
370
     9
100
AcDbLine
 10
876.2428359028667
 20
-378.0328609341003
 30
0.0
 11
877.1199898275006
 21
-378.0328609341003
 31
0.0
  0
LINE
  5
2A8
330
1F
100
AcDbEntity
  8
1
  6
Continuous
 62
     7
370
     9
100
AcDbLine
 10
874.3778172070995
 20
-378.0328609341003
 30
0.0
 11
875.128227303766
 21
-378.0328609341003
 31
0.0
  0
LINE
  5
2A9
330
1F
100
AcDbEntity
  8
1
  6
Continuous
 62
     7
370
     9
100
AcDbLine
 10
543.0246513451004
 20
-372.5266845229004
 30
0.0
 11
543.8031685577996
 21
-372.5266845229004
 31
0.0
  0
LINE
  5
2AA
330
1F
100
AcDbEntity
  8
1
  6
Continuous
 62
     7
370
     9
100
AcDbLine
 10
542.972065000467
 20
-372.8600178562335
 30
0.0
 11
543.8557549024331
 21
-372.8600178562335
 31
0.0
  0
LINE
  5
2AB
330
1F
100
AcDbEntity
  8
1
  6
Continuous
 62
     7
370
     9
100
AcDbLine
 10
541.1995273191659
 20
-373.193351189567
 30
0.0
 11
545.6282925837318
 21
-373.193351189567
 31
0.0
  0
LINE
  5
2AC
330
1F
100
AcDbEntity
  8
1
  6
Continuous
 62
     7
370
     9
100
AcDbLine
 10
542.8858238680996
 20
-373.5266845229005
 30
0.0
 11
543.9419960347997
 21
-373.5266845229005
 31
0.0
  0
LINE
  5
2AD
330
1F
100
AcDbEntity
  8
1
  6
Continuous
 62
     7
370
     9
100
AcDbLine
 10
542.9846513450998
 20
-373.8600178562336
 30
0.0
 11
543.8431685577995
 21
-373.8600178562336
 31
0.0
  0
LINE
  5
2AE
330
1F
100
AcDbEntity
  8
1
  6
Continuous
 62
     7
370
     9
100
AcDbLine
 10
542.9746513451001
 20
-374.1933511895671
 30
0.0
 11
543.8531685578001
 21
-374.1933511895671
 31
0.0
  0
LINE
  5
2AF
330
1F
100
AcDbEntity
  8
1
  6
Continuous
 62
     7
370
     9
100
AcDbLine
 10
540.772118906666
 20
-374.5266845229002
 30
0.0
 11
546.0557009962329
 21
-374.5266845229002
 31
0.0
  0
LINE
  5
2B0
330
1F
100
AcDbEntity
  8
1
  6
Continuous
 62
     7
370
     9
100
AcDbLine
 10
540.772118906666
 20
-374.8600178562337
 30
0.0
 11
546.0557009962329
 21
-374.8600178562337
 31
0.0
  0
LINE
  5
2B1
330
1F
100
AcDbEntity
  8
1
  6
Continuous
 62
     7
370
     9
100
AcDbLine
 10
542.5495914943991
 20
-375.193351189567
 30
0.0
 11
544.2782284084998
 21
-375.193351189567
 31
0.0
  0
LINE
  5
2B2
330
1F
100
AcDbEntity
  8
1
  6
Continuous
 62
     7
370
     9
100
AcDbLine
 10
542.4922551620334
 20
-375.5266845229003
 30
0.0
 11
544.3355647408657
 21
-375.5266845229003
 31
0.0
  0
LINE
  5
2B3
330
1F
100
AcDbEntity
  8
1
  6
Continuous
 62
     7
370
     9
100
AcDbLine
 10
542.2710816431668
 20
-375.8600178562336
 30
0.0
 11
544.5567382597667
 21
-375.8600178562336
 31
0.0
  0
LINE
  5
2B4
330
1F
100
AcDbEntity
  8
1
  6
Continuous
 62
     7
370
     9
100
AcDbLine
 10
542.0222920175335
 20
-376.1933511895671
 30
0.0
 11
544.8055278853657
 21
-376.1933511895671
 31
0.0
  0
LINE
  5
2B5
330
1F
100
AcDbEntity
  8
1
  6
Continuous
 62
     7
370
     9
100
AcDbLine
 10
541.7421405084655
 20
-376.5266845229002
 30
0.0
 11
545.0856793944322
 21
-376.5266845229002
 31
0.0
  0
LINE
  5
2B6
330
1F
100
AcDbEntity
  8
1
  6
Continuous
 62
     7
370
     9
100
AcDbLine
 10
544.3760804915997
 20
-376.8600178562337
 30
0.0
 11
545.4022746268672
 21
-376.8600178562337
 31
0.0
  0
LINE
  5
2B7
330
1F
100
AcDbEntity
  8
1
  6
Continuous
 62
     7
370
     9
100
AcDbLine
 10
542.8945597781653
 20
-376.8600178562337
 30
0.0
 11
543.9332601247326
 21
-376.8600178562337
 31
0.0
  0
LINE
  5
2B8
330
1F
100
AcDbEntity
  8
1
  6
Continuous
 62
     7
370
     9
100
AcDbLine
 10
541.4255452760331
 20
-376.8600178562337
 30
0.0
 11
542.4517394112992
 21
-376.8600178562337
 31
0.0
  0
LINE
  5
2B9
330
1F
100
AcDbEntity
  8
1
  6
Continuous
 62
     7
370
     9
100
AcDbLine
 10
544.5992232055668
 20
-377.1933511895667
 30
0.0
 11
545.7624835696331
 21
-377.1933511895667
 31
0.0
  0
LINE
  5
2BA
330
1F
100
AcDbEntity
  8
1
  6
Continuous
 62
     7
370
     9
100
AcDbLine
 10
542.8846513451
 20
-377.1933511895667
 30
0.0
 11
543.9431685578003
 21
-377.1933511895667
 31
0.0
  0
LINE
  5
2BB
330
1F
100
AcDbEntity
  8
1
  6
Continuous
 62
     7
370
     9
100
AcDbLine
 10
541.0653363332658
 20
-377.1933511895667
 30
0.0
 11
542.2285966973665
 21
-377.1933511895667
 31
0.0
  0
LINE
  5
2BC
330
1F
100
AcDbEntity
  8
1
  6
Continuous
 62
     7
370
     9
100
AcDbLine
 10
544.8505930155991
 20
-377.5266845229003
 30
0.0
 11
546.1769816130662
 21
-377.5266845229003
 31
0.0
  0
LINE
  5
2BD
330
1F
100
AcDbEntity
  8
1
  6
Continuous
 62
     7
370
     9
100
AcDbLine
 10
542.8746513451003
 20
-377.5266845229003
 30
0.0
 11
543.9531685577999
 21
-377.5266845229003
 31
0.0
  0
LINE
  5
2BE
330
1F
100
AcDbEntity
  8
1
  6
Continuous
 62
     7
370
     9
100
AcDbLine
 10
540.6508382898324
 20
-377.5266845229003
 30
0.0
 11
541.9772268872985
 21
-377.5266845229003
 31
0.0
  0
LINE
  5
2BF
330
1F
100
AcDbEntity
  8
1
  6
Continuous
 62
     7
370
     9
100
AcDbLine
 10
545.1341284405653
 20
-377.8600178562338
 30
0.0
 11
546.0915476022327
 21
-377.8600178562338
 31
0.0
  0
LINE
  5
2C0
330
1F
100
AcDbEntity
  8
1
  6
Continuous
 62
     7
370
     9
100
AcDbLine
 10
542.8646513450994
 20
-377.8600178562338
 30
0.0
 11
543.9631685577995
 21
-377.8600178562338
 31
0.0
  0
LINE
  5
2C1
330
1F
100
AcDbEntity
  8
1
  6
Continuous
 62
     7
370
     9
100
AcDbLine
 10
541.0571437756327
 20
-377.8600178562338
 30
0.0
 11
541.6936914623335
 21
-377.8600178562338
 31
0.0
  0
LINE
  5
2C2
330
1F
100
AcDbEntity
  8
1
  6
Continuous
 62
     7
370
     9
100
AcDbLine
 10
545.4552108166334
 20
-378.1933511895668
 30
0.0
 11
545.5582142688994
 21
-378.1933511895668
 31
0.0
  0
LINE
  5
2C3
330
1F
100
AcDbEntity
  8
1
  6
Continuous
 62
     7
370
     9
100
AcDbLine
 10
542.8546513450998
 20
-378.1933511895668
 30
0.0
 11
543.9731685578002
 21
-378.1933511895668
 31
0.0
  0
LINE
  5
2C4
330
1F
100
AcDbEntity
  8
1
  6
Continuous
 62
     7
370
     9
100
AcDbLine
 10
575.9718642857001
 20
-372.5145434307334
 30
0.0
 11
576.5136303603665
 21
-372.5145434307334
 31
0.0
  0
LINE
  5
2C5
330
1F
100
AcDbEntity
  8
1
  6
Continuous
 62
     7
370
     9
100
AcDbLine
 10
574.6239497916323
 20
-372.5145434307334
 30
0.0
 11
575.2380392659991
 21
-372.5145434307334
 31
0.0
  0
LINE
  5
2C6
330
1F
100
AcDbEntity
  8
1
  6
Continuous
 62
     7
370
     9
100
AcDbLine
 10
576.0324703462993
 20
-372.8478767640667
 30
0.0
 11
576.5742364209657
 21
-372.8478767640667
 31
0.0
  0
LINE
  5
2C7
330
1F
100
AcDbEntity
  8
1
  6
Continuous
 62
     7
370
     9
100
AcDbLine
 10
574.5945827306999
 20
-372.8478767640667
 30
0.0
 11
575.2204222681322
 21
-372.8478767640667
 31
0.0
  0
LINE
  5
2C8
330
1F
100
AcDbEntity
  8
1
  6
Continuous
 62
     7
370
     9
100
AcDbLine
 10
576.037061472566
 20
-373.1812100974
 30
0.0
 11
576.634842481566
 21
-373.1812100974
 31
0.0
  0
LINE
  5
2C9
330
1F
100
AcDbEntity
  8
1
  6
Continuous
 62
     7
370
     9
100
AcDbLine
 10
574.4471621302654
 20
-373.1812100974
 30
0.0
 11
575.3567733800659
 21
-373.1812100974
 31
0.0
  0
LINE
  5
2CA
330
1F
100
AcDbEntity
  8
1
  6
Continuous
 62
     7
370
     9
100
AcDbLine
 10
571.0705915728669
 20
-373.5145434307335
 30
0.0
 11
576.6954485421994
 21
-373.5145434307335
 31
0.0
  0
LINE
  5
2CB
330
1F
100
AcDbEntity
  8
1
  6
Continuous
 62
     7
370
     9
100
AcDbLine
 10
571.086873798099
 20
-373.8478767640666
 30
0.0
 11
576.460008126466
 21
-373.8478767640666
 31
0.0
  0
LINE
  5
2CC
330
1F
100
AcDbEntity
  8
1
  6
Continuous
 62
     7
370
     9
100
AcDbLine
 10
574.5908387237668
 20
-374.1812100974001
 30
0.0
 11
575.2633999604658
 21
-374.1812100974001
 31
0.0
  0
LINE
  5
2CD
330
1F
100
AcDbEntity
  8
1
  6
Continuous
 62
     7
370
     9
100
AcDbLine
 10
574.6183174245323
 20
-374.5145434307336
 30
0.0
 11
575.3026937984329
 21
-374.5145434307336
 31
0.0
  0
LINE
  5
2CE
330
1F
100
AcDbEntity
  8
1
  6
Continuous
 62
     7
370
     9
100
AcDbLine
 10
574.6572949507664
 20
-374.8478767640667
 30
0.0
 11
575.3536250320669
 21
-374.8478767640667
 31
0.0
  0
LINE
  5
2CF
330
1F
100
AcDbEntity
  8
1
  6
Continuous
 62
     7
370
     9
100
AcDbLine
 10
571.436941640699
 20
-374.8478767640667
 30
0.0
 11
574.1560732553662
 21
-374.8478767640667
 31
0.0
  0
LINE
  5
2D0
330
1F
100
AcDbEntity
  8
1
  6
Continuous
 62
     7
370
     9
100
AcDbLine
 10
574.7079103182666
 20
-375.1812100974003
 30
0.0
 11
575.4163786517661
 21
-375.1812100974003
 31
0.0
  0
LINE
  5
2D1
330
1F
100
AcDbEntity
  8
1
  6
Continuous
 62
     7
370
     9
100
AcDbLine
 10
572.2437239294662
 20
-375.1812100974003
 30
0.0
 11
573.2271742756991
 21
-375.1812100974003
 31
0.0
  0
LINE
  5
2D2
330
1F
100
AcDbEntity
  8
1
  6
Continuous
 62
     7
370
     9
100
AcDbLine
 10
574.7703474189332
 20
-375.5145434307333
 30
0.0
 11
575.491188027766
 21
-375.5145434307333
 31
0.0
  0
LINE
  5
2D3
330
1F
100
AcDbEntity
  8
1
  6
Continuous
 62
     7
370
     9
100
AcDbLine
 10
572.329280460266
 20
-375.5145434307333
 30
0.0
 11
573.141617746499
 21
-375.5145434307333
 31
0.0
  0
LINE
  5
2D4
330
1F
100
AcDbEntity
  8
1
  6
Continuous
 62
     7
370
     9
100
AcDbLine
 10
574.8448384784655
 20
-375.8478767640668
 30
0.0
 11
575.578339470799
 21
-375.8478767640668
 31
0.0
  0
LINE
  5
2D5
330
1F
100
AcDbEntity
  8
1
  6
Continuous
 62
     7
370
     9
100
AcDbLine
 10
572.306076533466
 20
-375.8478767640668
 30
0.0
 11
573.1648216732993
 21
-375.8478767640668
 31
0.0
  0
LINE
  5
2D6
330
1F
100
AcDbEntity
  8
1
  6
Continuous
 62
     7
370
     9
100
AcDbLine
 10
574.9316685933326
 20
-376.1812100974001
 30
0.0
 11
575.678178093499
 21
-376.1812100974001
 31
0.0
  0
LINE
  5
2D7
330
1F
100
AcDbEntity
  8
1
  6
Continuous
 62
     7
370
     9
100
AcDbLine
 10
572.2828726066326
 20
-376.1812100974001
 30
0.0
 11
573.1880256001327
 21
-376.1812100974001
 31
0.0
  0
LINE
  5
2D8
330
1F
100
AcDbEntity
  8
1
  6
Continuous
 62
     7
370
     9
100
AcDbLine
 10
575.0311815646986
 20
-376.5145434307334
 30
0.0
 11
575.7911152711333
 21
-376.5145434307334
 31
0.0
  0
LINE
  5
2D9
330
1F
100
AcDbEntity
  8
1
  6
Continuous
 62
     7
370
     9
100
AcDbLine
 10
572.2596686798336
 20
-376.5145434307334
 30
0.0
 11
573.2117203634667
 21
-376.5145434307334
 31
0.0
  0
LINE
  5
2DA
330
1F
100
AcDbEntity
  8
1
  6
Continuous
 62
     7
370
     9
100
AcDbLine
 10
575.1437873254998
 20
-376.8478767640667
 30
0.0
 11
575.9176381086652
 21
-376.8478767640667
 31
0.0
  0
LINE
  5
2DB
330
1F
100
AcDbEntity
  8
1
  6
Continuous
 62
     7
370
     9
100
AcDbLine
 10
572.2263277216995
 20
-376.8478767640667
 30
0.0
 11
574.343246214932
 21
-376.8478767640667
 31
0.0
  0
LINE
  5
2DC
330
1F
100
AcDbEntity
  8
1
  6
Continuous
 62
     7
370
     9
100
AcDbLine
 10
575.2699713666667
 20
-377.1812100974003
 30
0.0
 11
576.6159437830985
 21
-377.1812100974003
 31
0.0
  0
LINE
  5
2DD
330
1F
100
AcDbEntity
  8
1
  6
Continuous
 62
     7
370
     9
100
AcDbLine
 10
571.1996148381663
 20
-377.1812100974003
 30
0.0
 11
574.1223164054664
 21
-377.1812100974003
 31
0.0
  0
LINE
  5
2DE
330
1F
100
AcDbEntity
  8
1
  6
Continuous
 62
     7
370
     9
100
AcDbLine
 10
575.4103067181992
 20
-377.5145434307333
 30
0.0
 11
576.6462532451662
 21
-377.5145434307333
 31
0.0
  0
LINE
  5
2DF
330
1F
100
AcDbEntity
  8
1
  6
Continuous
 62
     7
370
     9
100
AcDbLine
 10
571.2412815048333
 20
-377.5145434307333
 30
0.0
 11
573.0389830721329
 21
-377.5145434307333
 31
0.0
  0
LINE
  5
2E0
330
1F
100
AcDbEntity
  8
1
  6
Continuous
 62
     7
370
     9
100
AcDbLine
 10
575.5654692567988
 20
-377.8478767640668
 30
0.0
 11
576.3719524220325
 21
-377.8478767640668
 31
0.0
  0
LINE
  5
2E1
330
1F
100
AcDbEntity
  8
1
  6
Continuous
 62
     7
370
     9
100
AcDbLine
 10
571.282948171532
 20
-377.8478767640668
 30
0.0
 11
571.9556497387988
 21
-377.8478767640668
 31
0.0
  0
LINE
  5
2E2
330
1F
100
AcDbEntity
  8
1
  6
Continuous
 62
     7
370
     9
100
AcDbLine
 10
575.737482520132
 20
-378.1812100973999
 30
0.0
 11
576.0713401044325
 21
-378.1812100973999
 31
0.0
  0
LINE
  5
2E3
330
1F
100
AcDbEntity
  8
1
  6
Continuous
 62
     7
370
     9
100
AcDbLine
 10
579.5788112444997
 20
-372.5447169940336
 30
0.0
 11
580.4197365719992
 21
-372.5447169940336
 31
0.0
  0
LINE
  5
2E4
330
1F
100
AcDbEntity
  8
1
  6
Continuous
 62
     7
370
     9
100
AcDbLine
 10
579.3128965583003
 20
-372.8780503273671
 30
0.0
 11
580.6856512581998
 21
-372.8780503273671
 31
0.0
  0
LINE
  5
2E5
330
1F
100
AcDbEntity
  8
1
  6
Continuous
 62
     7
370
     9
100
AcDbLine
 10
580.1245016224991
 20
-373.2113836607004
 30
0.0
 11
580.9930246004321
 21
-373.2113836607004
 31
0.0
  0
LINE
  5
2E6
330
1F
100
AcDbEntity
  8
1
  6
Continuous
 62
     7
370
     9
100
AcDbLine
 10
579.0055232160655
 20
-373.2113836607004
 30
0.0
 11
579.8740461939985
 21
-373.2113836607004
 31
0.0
  0
LINE
  5
2E7
330
1F
100
AcDbEntity
  8
1
  6
Continuous
 62
     7
370
     9
100
AcDbLine
 10
580.3631221075653
 20
-373.5447169940337
 30
0.0
 11
581.3513871651325
 21
-373.5447169940337
 31
0.0
  0
LINE
  5
2E8
330
1F
100
AcDbEntity
  8
1
  6
Continuous
 62
     7
370
     9
100
AcDbLine
 10
578.6471606513663
 20
-373.5447169940337
 30
0.0
 11
579.6354257089323
 21
-373.5447169940337
 31
0.0
  0
LINE
  5
2E9
330
1F
100
AcDbEntity
  8
1
  6
Continuous
 62
     7
370
     9
100
AcDbLine
 10
580.6088458497334
 20
-373.878050327367
 30
0.0
 11
581.7760105313326
 21
-373.878050327367
 31
0.0
  0
LINE
  5
2EA
330
1F
100
AcDbEntity
  8
1
  6
Continuous
 62
     7
370
     9
100
AcDbLine
 10
578.2225372851661
 20
-373.878050327367
 30
0.0
 11
579.3897019667667
 21
-373.878050327367
 31
0.0
  0
LINE
  5
2EB
330
1F
100
AcDbEntity
  8
1
  6
Continuous
 62
     7
370
     9
100
AcDbLine
 10
577.7042240051655
 20
-374.2113836607003
 30
0.0
 11
582.2943238113321
 21
-374.2113836607003
 31
0.0
  0
LINE
  5
2EC
330
1F
100
AcDbEntity
  8
1
  6
Continuous
 62
     7
370
     9
100
AcDbLine
 10
577.0320589283999
 20
-374.5447169940336
 30
0.0
 11
582.9664888880991
 21
-374.5447169940336
 31
0.0
  0
LINE
  5
2ED
330
1F
100
AcDbEntity
  8
1
  6
Continuous
 62
     7
370
     9
100
AcDbLine
 10
581.6673502679323
 20
-374.8780503273671
 30
0.0
 11
583.0856865679986
 21
-374.8780503273671
 31
0.0
  0
LINE
  5
2EE
330
1F
100
AcDbEntity
  8
1
  6
Continuous
 62
     7
370
     9
100
AcDbLine
 10
576.9128612484992
 20
-374.8780503273671
 30
0.0
 11
578.3311975485655
 21
-374.8780503273671
 31
0.0
  0
LINE
  5
2EF
330
1F
100
AcDbEntity
  8
1
  6
Continuous
 62
     7
370
     9
100
AcDbLine
 10
581.8432524074661
 20
-375.2113836607002
 30
0.0
 11
582.8773532346653
 21
-375.2113836607002
 31
0.0
  0
LINE
  5
2F0
330
1F
100
AcDbEntity
  8
1
  6
Continuous
 62
     7
370
     9
100
AcDbLine
 10
577.1211945818324
 20
-375.2113836607002
 30
0.0
 11
578.1552954090326
 21
-375.2113836607002
 31
0.0
  0
LINE
  5
2F1
330
1F
100
AcDbEntity
  8
1
  6
Continuous
 62
     7
370
     9
100
AcDbLine
 10
577.5220440625992
 20
-375.5447169940337
 30
0.0
 11
582.4765037538996
 21
-375.5447169940337
 31
0.0
  0
LINE
  5
2F2
330
1F
100
AcDbEntity
  8
1
  6
Continuous
 62
     7
370
     9
100
AcDbLine
 10
580.4175602918983
 20
-375.8780503273667
 30
0.0
 11
581.2000527587323
 21
-375.8780503273667
 31
0.0
  0
LINE
  5
2F3
330
1F
100
AcDbEntity
  8
1
  6
Continuous
 62
     7
370
     9
100
AcDbLine
 10
578.7718982155989
 20
-375.8780503273667
 30
0.0
 11
579.5767170746984
 21
-375.8780503273667
 31
0.0
  0
LINE
  5
2F4
330
1F
100
AcDbEntity
  8
1
  6
Continuous
 62
     7
370
     9
100
AcDbLine
 10
580.4937331396671
 20
-376.2113836607003
 30
0.0
 11
581.2858803504326
 21
-376.2113836607003
 31
0.0
  0
LINE
  5
2F5
330
1F
100
AcDbEntity
  8
1
  6
Continuous
 62
     7
370
     9
100
AcDbLine
 10
578.6114062458654
 20
-376.2113836607003
 30
0.0
 11
579.4767170746987
 21
-376.2113836607003
 31
0.0
  0
LINE
  5
2F6
330
1F
100
AcDbEntity
  8
1
  6
Continuous
 62
     7
370
     9
100
AcDbLine
 10
580.5820774136658
 20
-376.5447169940338
 30
0.0
 11
581.404008307032
 21
-376.5447169940338
 31
0.0
  0
LINE
  5
2F7
330
1F
100
AcDbEntity
  8
1
  6
Continuous
 62
     7
370
     9
100
AcDbLine
 10
578.4114062458658
 20
-376.5447169940338
 30
0.0
 11
579.376717074699
 21
-376.5447169940338
 31
0.0
  0
LINE
  5
2F8
330
1F
100
AcDbEntity
  8
1
  6
Continuous
 62
     7
370
     9
100
AcDbLine
 10
580.6832641153987
 20
-376.8780503273669
 30
0.0
 11
581.5379421487667
 21
-376.8780503273669
 31
0.0
  0
LINE
  5
2F9
330
1F
100
AcDbEntity
  8
1
  6
Continuous
 62
     7
370
     9
100
AcDbLine
 10
578.2114062458652
 20
-376.8780503273669
 30
0.0
 11
579.2767170746991
 21
-376.8780503273669
 31
0.0
  0
LINE
  5
2FA
330
1F
100
AcDbEntity
  8
1
  6
Continuous
 62
     7
370
     9
100
AcDbLine
 10
577.4795995527663
 20
-377.2113836607004
 30
0.0
 11
581.6885008588997
 21
-377.2113836607004
 31
0.0
  0
LINE
  5
2FB
330
1F
100
AcDbEntity
  8
1
  6
Continuous
 62
     7
370
     9
100
AcDbLine
 10
577.4795995527663
 20
-377.5447169940337
 30
0.0
 11
581.856674237266
 21
-377.5447169940337
 31
0.0
  0
LINE
  5
2FC
330
1F
100
AcDbEntity
  8
1
  6
Continuous
 62
     7
370
     9
100
AcDbLine
 10
581.0685526668655
 20
-377.878050327367
 30
0.0
 11
582.0436632956994
 21
-377.878050327367
 31
0.0
  0
LINE
  5
2FD
330
1F
100
AcDbEntity
  8
1
  6
Continuous
 62
     7
370
     9
100
AcDbLine
 10
577.4795995527663
 20
-377.878050327367
 30
0.0
 11
579.5052784117653
 21
-377.878050327367
 31
0.0
  0
LINE
  5
2FE
330
1F
100
AcDbEntity
  8
1
  6
Continuous
 62
     7
370
     9
100
AcDbLine
 10
581.2262332036329
 20
-378.2113836607003
 30
0.0
 11
581.8152893134663
 21
-378.2113836607003
 31
0.0
  0
CIRCLE
  5
2FF
330
1F
100
AcDbEntity
  8
1
  6
Continuous
 62
     7
370
     9
100
AcDbCircle
 10
503.985781707367
 20
-202.1214088903168
 30
0.0
 40
0.500000000000056
  0
MTEXT
  5
300
330
1F
100
AcDbEntity
  8
1
 62
     7
100
AcDbMText
 10
510.3323724212873
 20
-208.5692445237678
 30
0.0
 40
3.5
 41
0.0
 46
0.0
 71
     1
 72
     1
  1
{\fＭＳ ゴシック;\W0.827053;バックアップスリーブ}
 73
     1
 44
1.0
  0
MTEXT
  5
301
330
1F
100
AcDbEntity
  8
1
 62
     7
100
AcDbMText
 10
510.3331026485601
 20
-213.244244523768
 30
0.0
 40
3.5
 41
0.0
 46
0.0
 71
     1
 72
     1
  1
{\fＭＳ ゴシック;\W0.830113;（あり又はなし）}
 73
     1
 44
1.0
  0
LINE
  5
302
330
1F
100
AcDbEntity
  8
1
  6
Continuous
 62
     7
370
     9
100
AcDbLine
 10
510.1350074477327
 20
-217.5374263811499
 30
0.0
 11
536.8356011712333
 21
-217.5374263811499
 31
0.0
  0
LINE
  5
303
330
1F
100
AcDbEntity
  8
1
  6
Continuous
 62
     7
370
     9
100
AcDbLine
 10
503.985781707367
 20
-202.1214088903168
 30
0.0
 11
510.1350074477327
 21
-213.0374263811501
 31
0.0
  0
LINE
  5
304
330
1F
100
AcDbEntity
  8
1
  6
Continuous
 62
     7
370
     9
100
AcDbLine
 10
510.1350074477327
 20
-213.0374263811501
 30
0.0
 11
542.8383360692328
 21
-213.0374263811501
 31
0.0
  0
CIRCLE
  5
305
330
1F
100
AcDbEntity
  8
1
  6
Continuous
 62
     7
370
     9
100
AcDbCircle
 10
502.9720232490336
 20
-242.0671727960833
 30
0.0
 40
0.4999999999999449
  0
MTEXT
  5
306
330
1F
100
AcDbEntity
  8
1
 62
     7
100
AcDbMText
 10
465.0508754212884
 20
-228.5425588571017
 30
0.0
 40
3.5
 41
0.0
 46
0.0
 71
     1
 72
     1
  1
{\fＭＳ ゴシック;\W0.827053;バックアップスリーブ}
 73
     1
 44
1.0
  0
MTEXT
  5
307
330
1F
100
AcDbEntity
  8
1
 62
     7
100
AcDbMText
 10
465.0516056485612
 20
-233.2175588571015
 30
0.0
 40
3.5
 41
0.0
 46
0.0
 71
     1
 72
     1
  1
{\fＭＳ ゴシック;\W0.830113;（あり又はなし）}
 73
     1
 44
1.0
  0
LINE
  5
308
330
1F
100
AcDbEntity
  8
1
  6
Continuous
 62
     7
370
     9
100
AcDbLine
 10
464.8535105555338
 20
-237.5107407978165
 30
0.0
 11
491.5541042790331
 21
-237.5107407978165
 31
0.0
  0
LINE
  5
309
330
1F
100
AcDbEntity
  8
1
  6
Continuous
 62
     7
370
     9
100
AcDbLine
 10
502.9720232490336
 20
-242.0671727960833
 30
0.0
 11
498.2292527098998
 21
-233.0107407978166
 31
0.0
  0
LINE
  5
30A
330
1F
100
AcDbEntity
  8
1
  6
Continuous
 62
     7
370
     9
100
AcDbLine
 10
498.2292527098997
 20
-233.0107407978166
 30
0.0
 11
464.8535105555338
 21
-233.0107407978166
 31
0.0
  0
CIRCLE
  5
30B
330
1F
100
AcDbEntity
  8
1
  6
Continuous
 62
     7
370
     9
100
AcDbCircle
 10
818.9857817073666
 20
-202.1214088902331
 30
0.0
 40
0.500000000000056
  0
MTEXT
  5
30C
330
1F
100
AcDbEntity
  8
1
 62
     7
100
AcDbMText
 10
825.3323724263875
 20
-208.5692445236511
 30
0.0
 40
3.499999999999999
 41
0.0
 46
0.0
 71
     1
 72
     1
  1
{\fＭＳ ゴシック;\W0.827053;バックアップスリーブ}
 73
     1
 44
1.0
  0
MTEXT
  5
30D
330
1F
100
AcDbEntity
  8
1
 62
     7
100
AcDbMText
 10
825.3331026536601
 20
-213.2442445236512
 30
0.0
 40
3.499999999999999
 41
0.0
 46
0.0
 71
     1
 72
     1
  1
{\fＭＳ ゴシック;\W0.830113;（あり又はなし）}
 73
     1
 44
1.0
  0
LINE
  5
30E
330
1F
100
AcDbEntity
  8
1
  6
Continuous
 62
     7
370
     9
100
AcDbLine
 10
825.1350074477336
 20
-217.5374263810332
 30
0.0
 11
851.835601171233
 21
-217.5374263810332
 31
0.0
  0
LINE
  5
30F
330
1F
100
AcDbEntity
  8
1
  6
Continuous
 62
     7
370
     9
100
AcDbLine
 10
818.9857817073666
 20
-202.1214088902331
 30
0.0
 11
825.1350074477336
 21
-213.0374263810333
 31
0.0
  0
LINE
  5
310
330
1F
100
AcDbEntity
  8
1
  6
Continuous
 62
     7
370
     9
100
AcDbLine
 10
825.1350074477336
 20
-213.0374263810333
 30
0.0
 11
857.8383360692336
 21
-213.0374263810333
 31
0.0
  0
CIRCLE
  5
311
330
1F
100
AcDbEntity
  8
1
  6
Continuous
 62
     7
370
     9
100
AcDbCircle
 10
833.828468810333
 20
-157.9158415113664
 30
0.0
 40
0.500000000000056
  0
MTEXT
  5
312
330
1F
100
AcDbEntity
  8
1
 62
     7
100
AcDbMText
 10
839.0686593619947
 20
-147.3960807660757
 30
0.0
 40
3.499999999999999
 41
0.0
 46
0.0
 71
     1
 72
     1
  1
{\fＭＳ ゴシック;\W0.83943;被覆付配管}
 73
     1
 44
1.0
  0
LINE
  5
313
330
1F
100
AcDbEntity
  8
1
  6
Continuous
 62
     7
370
     9
100
AcDbLine
 10
833.828468810333
 20
-157.9158415113664
 30
0.0
 11
838.8683407810669
 21
-151.7051717882329
 31
0.0
  0
LINE
  5
314
330
1F
100
AcDbEntity
  8
1
  6
Continuous
 62
     7
370
     9
100
AcDbLine
 10
838.8683407810669
 20
-151.7051717882329
 30
0.0
 11
855.220005091833
 21
-151.7051717882329
 31
0.0
  0
LINE
  5
315
330
1F
100
AcDbEntity
  8
1
  6
Continuous
 62
     7
370
     9
100
AcDbLine
 10
883.7979315982662
 20
-372.3661942674336
 30
0.0
 11
884.4447027063654
 21
-372.3661942674336
 31
0.0
  0
LINE
  5
316
330
1F
100
AcDbEntity
  8
1
  6
Continuous
 62
     7
370
     9
100
AcDbLine
 10
881.1730221717662
 20
-372.3661942674336
 30
0.0
 11
881.6964778044994
 21
-372.3661942674336
 31
0.0
  0
LINE
  5
317
330
1F
100
AcDbEntity
  8
1
  6
Continuous
 62
     7
370
     9
100
AcDbLine
 10
883.7879315982666
 20
-372.6995276007668
 30
0.0
 11
884.4547027063661
 21
-372.6995276007668
 31
0.0
  0
LINE
  5
318
330
1F
100
AcDbEntity
  8
1
  6
Continuous
 62
     7
370
     9
100
AcDbLine
 10
881.1663555050997
 20
-372.6995276007668
 30
0.0
 11
881.7031444711658
 21
-372.6995276007668
 31
0.0
  0
LINE
  5
319
330
1F
100
AcDbEntity
  8
1
  6
Continuous
 62
     7
370
     9
100
AcDbLine
 10
883.7779315982326
 20
-373.0328609341004
 30
0.0
 11
884.4647027063658
 21
-373.0328609341004
 31
0.0
  0
LINE
  5
31A
330
1F
100
AcDbEntity
  8
1
  6
Continuous
 62
     7
370
     9
100
AcDbLine
 10
882.8305115895328
 20
-373.0328609341004
 30
0.0
 11
883.4271036402995
 21
-373.0328609341004
 31
0.0
  0
LINE
  5
31B
330
1F
100
AcDbEntity
  8
1
  6
Continuous
 62
     7
370
     9
100
AcDbLine
 10
881.1596888384335
 20
-373.0328609341004
 30
0.0
 11
881.7098111378335
 21
-373.0328609341004
 31
0.0
  0
LINE
  5
31C
330
1F
100
AcDbEntity
  8
1
  6
Continuous
 62
     7
370
     9
100
AcDbLine
 10
882.6553333870323
 20
-373.3661942674335
 30
0.0
 11
885.3587662703667
 21
-373.3661942674335
 31
0.0
  0
LINE
  5
31D
330
1F
100
AcDbEntity
  8
1
  6
Continuous
 62
     7
370
     9
100
AcDbLine
 10
880.258359214733
 20
-373.3661942674335
 30
0.0
 11
882.3669073829659
 21
-373.3661942674335
 31
0.0
  0
LINE
  5
31E
330
1F
100
AcDbEntity
  8
1
  6
Continuous
 62
     7
370
     9
100
AcDbLine
 10
880.258359214733
 20
-373.6995276007669
 30
0.0
 11
885.3587662703667
 21
-373.6995276007669
 31
0.0
  0
LINE
  5
31F
330
1F
100
AcDbEntity
  8
1
  6
Continuous
 62
     7
370
     9
100
AcDbLine
 10
883.7479315982326
 20
-374.0328609341005
 30
0.0
 11
884.4947027063658
 21
-374.0328609341005
 31
0.0
  0
LINE
  5
320
330
1F
100
AcDbEntity
  8
1
  6
Continuous
 62
     7
370
     9
100
AcDbLine
 10
882.1118349707666
 20
-374.0328609341005
 30
0.0
 11
883.0831713814986
 21
-374.0328609341005
 31
0.0
  0
LINE
  5
321
330
1F
100
AcDbEntity
  8
1
  6
Continuous
 62
     7
370
     9
100
AcDbLine
 10
881.103293333499
 20
-374.0328609341005
 30
0.0
 11
881.7794014625991
 21
-374.0328609341005
 31
0.0
  0
LINE
  5
322
330
1F
100
AcDbEntity
  8
1
  6
Continuous
 62
     7
370
     9
100
AcDbLine
 10
883.737931598233
 20
-374.3661942674336
 30
0.0
 11
884.5047027063655
 21
-374.3661942674336
 31
0.0
  0
LINE
  5
323
330
1F
100
AcDbEntity
  8
1
  6
Continuous
 62
     7
370
     9
100
AcDbLine
 10
882.268328886167
 20
-374.3661942674336
 30
0.0
 11
882.8872626866001
 21
-374.3661942674336
 31
0.0
  0
LINE
  5
324
330
1F
100
AcDbEntity
  8
1
  6
Continuous
 62
     7
370
     9
100
AcDbLine
 10
880.9991046471994
 20
-374.3661942674336
 30
0.0
 11
881.9214464015662
 21
-374.3661942674336
 31
0.0
  0
LINE
  5
325
330
1F
100
AcDbEntity
  8
1
  6
Continuous
 62
     7
370
     9
100
AcDbLine
 10
882.456459621766
 20
-374.6995276007671
 30
0.0
 11
885.6640579935654
 21
-374.6995276007671
 31
0.0
  0
LINE
  5
326
330
1F
100
AcDbEntity
  8
1
  6
Continuous
 62
     7
370
     9
100
AcDbLine
 10
880.868324226599
 20
-374.6995276007671
 30
0.0
 11
882.1209572166006
 21
-374.6995276007671
 31
0.0
  0
LINE
  5
327
330
1F
100
AcDbEntity
  8
1
  6
Continuous
 62
     7
370
     9
100
AcDbLine
 10
880.7116181151
 20
-375.0328609341001
 30
0.0
 11
885.6640579935655
 21
-375.0328609341001
 31
0.0
  0
LINE
  5
328
330
1F
100
AcDbEntity
  8
1
  6
Continuous
 62
     7
370
     9
100
AcDbLine
 10
883.6064989695329
 20
-375.3661942674337
 30
0.0
 11
884.6361353350984
 21
-375.3661942674337
 31
0.0
  0
LINE
  5
329
330
1F
100
AcDbEntity
  8
1
  6
Continuous
 62
     7
370
     9
100
AcDbLine
 10
880.5264196249991
 20
-375.3661942674337
 30
0.0
 11
882.4943692283337
 21
-375.3661942674337
 31
0.0
  0
LINE
  5
32A
330
1F
100
AcDbEntity
  8
1
  6
Continuous
 62
     7
370
     9
100
AcDbLine
 10
883.4263009530661
 20
-375.6995276007669
 30
0.0
 11
884.8163333515666
 21
-375.6995276007669
 31
0.0
  0
LINE
  5
32B
330
1F
100
AcDbEntity
  8
1
  6
Continuous
 62
     7
370
     9
100
AcDbLine
 10
882.0752866792991
 20
-375.6995276007669
 30
0.0
 11
882.2277025616663
 21
-375.6995276007669
 31
0.0
  0
LINE
  5
32C
330
1F
100
AcDbEntity
  8
1
  6
Continuous
 62
     7
370
     9
100
AcDbLine
 10
880.3092356629653
 20
-375.6995276007669
 30
0.0
 11
881.7631444711659
 21
-375.6995276007669
 31
0.0
  0
LINE
  5
32D
330
1F
100
AcDbEntity
  8
1
  6
Continuous
 62
     7
370
     9
100
AcDbLine
 10
883.2051356409669
 20
-376.0328609341003
 30
0.0
 11
885.0374986636327
 21
-376.0328609341003
 31
0.0
  0
LINE
  5
32E
330
1F
100
AcDbEntity
  8
1
  6
Continuous
 62
     7
370
     9
100
AcDbLine
 10
880.0551953358324
 20
-376.0328609341003
 30
0.0
 11
881.7698111378336
 21
-376.0328609341003
 31
0.0
  0
LINE
  5
32F
330
1F
100
AcDbEntity
  8
1
  6
Continuous
 62
     7
370
     9
100
AcDbLine
 10
882.9345561980324
 20
-376.3661942674336
 30
0.0
 11
885.3080781065657
 21
-376.3661942674336
 31
0.0
  0
LINE
  5
330
330
1F
100
AcDbEntity
  8
1
  6
Continuous
 62
     7
370
     9
100
AcDbLine
 10
881.0930221717656
 20
-376.3661942674336
 30
0.0
 11
881.7764778044989
 21
-376.3661942674336
 31
0.0
  0
LINE
  5
331
330
1F
100
AcDbEntity
  8
1
  6
Continuous
 62
     7
370
     9
100
AcDbLine
 10
879.7572440399988
 20
-376.3661942674336
 30
0.0
 11
880.797774164199
 21
-376.3661942674336
 31
0.0
  0
LINE
  5
332
330
1F
100
AcDbEntity
  8
1
  6
Continuous
 62
     7
370
     9
100
AcDbLine
 10
882.6006678922324
 20
-376.6995276007671
 30
0.0
 11
885.6419664124
 21
-376.6995276007671
 31
0.0
  0
LINE
  5
333
330
1F
100
AcDbEntity
  8
1
  6
Continuous
 62
     7
370
     9
100
AcDbLine
 10
881.0863555050992
 20
-376.6995276007671
 30
0.0
 11
881.7831444711651
 21
-376.6995276007671
 31
0.0
  0
LINE
  5
334
330
1F
100
AcDbEntity
  8
1
  6
Continuous
 62
     7
370
     9
100
AcDbLine
 10
880.0473573097667
 20
-376.6995276007671
 30
0.0
 11
880.5135041152329
 21
-376.6995276007671
 31
0.0
  0
LINE
  5
335
330
1F
100
AcDbEntity
  8
1
  6
Continuous
 62
     7
370
     9
100
AcDbLine
 10
882.1777950593328
 20
-377.0328609341001
 30
0.0
 11
886.0648392452997
 21
-377.0328609341001
 31
0.0
  0
LINE
  5
336
330
1F
100
AcDbEntity
  8
1
  6
Continuous
 62
     7
370
     9
100
AcDbLine
 10
881.0796888384328
 20
-377.0328609341001
 30
0.0
 11
881.7898111378329
 21
-377.0328609341001
 31
0.0
  0
LINE
  5
337
330
1F
100
AcDbEntity
  8
1
  6
Continuous
 62
     7
370
     9
100
AcDbLine
 10
884.9697668648664
 20
-377.3661942674337
 30
0.0
 11
885.835470412066
 21
-377.3661942674337
 31
0.0
  0
LINE
  5
338
330
1F
100
AcDbEntity
  8
1
  6
Continuous
 62
     7
370
     9
100
AcDbLine
 10
883.6479315982659
 20
-377.3661942674337
 30
0.0
 11
884.5947027063655
 21
-377.3661942674337
 31
0.0
  0
LINE
  5
339
330
1F
100
AcDbEntity
  8
1
  6
Continuous
 62
     7
370
     9
100
AcDbLine
 10
882.4071638925668
 20
-377.3661942674337
 30
0.0
 11
883.2728674397664
 21
-377.3661942674337
 31
0.0
  0
LINE
  5
33A
330
1F
100
AcDbEntity
  8
1
  6
Continuous
 62
     7
370
     9
100
AcDbLine
 10
881.0730221717653
 20
-377.3661942674337
 30
0.0
 11
881.7964778044993
 21
-377.3661942674337
 31
0.0
  0
LINE
  5
33B
330
1F
100
AcDbEntity
  8
1
  6
Continuous
 62
     7
370
     9
100
AcDbLine
 10
885.3941310553325
 20
-377.6995276007667
 30
0.0
 11
885.5021370787333
 21
-377.6995276007667
 31
0.0
  0
LINE
  5
33C
330
1F
100
AcDbEntity
  8
1
  6
Continuous
 62
     7
370
     9
100
AcDbLine
 10
883.6379315982663
 20
-377.6995276007667
 30
0.0
 11
884.6047027063663
 21
-377.6995276007667
 31
0.0
  0
LINE
  5
33D
330
1F
100
AcDbEntity
  8
1
  6
Continuous
 62
     7
370
     9
100
AcDbLine
 10
882.7404972258994
 20
-377.6995276007667
 30
0.0
 11
882.8485032493002
 21
-377.6995276007667
 31
0.0
  0
LINE
  5
33E
330
1F
100
AcDbEntity
  8
1
  6
Continuous
 62
     7
370
     9
100
AcDbLine
 10
881.0663555050988
 20
-377.6995276007667
 30
0.0
 11
881.8031444711656
 21
-377.6995276007667
 31
0.0
  0
LINE
  5
33F
330
1F
100
AcDbEntity
  8
1
  6
Continuous
 62
     7
370
     9
100
AcDbLine
 10
883.6279315982666
 20
-378.0328609341003
 30
0.0
 11
884.614702706366
 21
-378.0328609341003
 31
0.0
  0
LINE
  5
340
330
1F
100
AcDbEntity
  8
1
  6
Continuous
 62
     7
370
     9
100
AcDbLine
 10
881.0596888384337
 20
-378.0328609341003
 30
0.0
 11
881.8098111378333
 21
-378.0328609341003
 31
0.0
  0
LINE
  5
341
330
1F
100
AcDbEntity
  8
1
  6
Continuous
 62
     7
370
     9
100
AcDbLine
 10
883.6347096155987
 20
-378.3661942674338
 30
0.0
 11
884.6079246889997
 21
-378.3661942674338
 31
0.0
  0
LINE
  5
342
330
1F
100
AcDbEntity
  8
1
  6
Continuous
 62
     7
370
     9
100
AcDbLine
 10
881.0696332976322
 20
-378.3661942674338
 30
0.0
 11
881.7998666786323
 21
-378.3661942674338
 31
0.0
  0
CIRCLE
  5
343
330
1F
100
AcDbEntity
  8
1
  6
Continuous
 62
     7
370
     9
100
AcDbCircle
 10
524.0130421597
 20
-252.5421548572834
 30
0.0
 40
0.500000000000056
  0
MTEXT
  5
344
330
1F
100
AcDbEntity
  8
1
 62
     7
100
AcDbMText
 10
546.0896753190148
 20
-232.6401460995256
 30
0.0
 40
3.5
 41
0.0
 46
0.0
 71
     1
 72
     1
  1
{\fＭＳ ゴシック;\W0.85652;配管等}
 73
     1
 44
1.0
  0
LINE
  5
345
330
1F
100
AcDbEntity
  8
1
  6
Continuous
 62
     7
370
     9
100
AcDbLine
 10
524.0130421597
 20
-252.5421548572834
 30
0.0
 11
545.885278579034
 21
-236.9492368916831
 31
0.0
  0
LINE
  5
346
330
1F
100
AcDbEntity
  8
1
  6
Continuous
 62
     7
370
     9
100
AcDbLine
 10
545.885278579034
 20
-236.9492368916831
 30
0.0
 11
555.6962771654664
 21
-236.9492368916831
 31
0.0
  0
LINE
  5
347
330
1F
100
AcDbEntity
  8
1
  6
Continuous
 62
     7
370
     9
100
AcDbLine
 10
549.1283676018002
 20
-372.5266845229004
 30
0.0
 11
549.9068848144993
 21
-372.5266845229004
 31
0.0
  0
LINE
  5
348
330
1F
100
AcDbEntity
  8
1
  6
Continuous
 62
     7
370
     9
100
AcDbLine
 10
549.0757812571667
 20
-372.8600178562335
 30
0.0
 11
549.9594711591328
 21
-372.8600178562335
 31
0.0
  0
LINE
  5
349
330
1F
100
AcDbEntity
  8
1
  6
Continuous
 62
     7
370
     9
100
AcDbLine
 10
547.3032435758666
 20
-373.193351189567
 30
0.0
 11
551.7320088404326
 21
-373.193351189567
 31
0.0
  0
LINE
  5
34A
330
1F
100
AcDbEntity
  8
1
  6
Continuous
 62
     7
370
     9
100
AcDbLine
 10
550.808795050933
 20
-373.5266845229005
 30
0.0
 11
551.1312843286661
 21
-373.5266845229005
 31
0.0
  0
LINE
  5
34B
330
1F
100
AcDbEntity
  8
1
  6
Continuous
 62
     7
370
     9
100
AcDbLine
 10
548.9895401248001
 20
-373.5266845229005
 30
0.0
 11
550.0457122915002
 21
-373.5266845229005
 31
0.0
  0
LINE
  5
34C
330
1F
100
AcDbEntity
  8
1
  6
Continuous
 62
     7
370
     9
100
AcDbLine
 10
547.9039680876332
 20
-373.5266845229005
 30
0.0
 11
548.2264573653662
 21
-373.5266845229005
 31
0.0
  0
LINE
  5
34D
330
1F
100
AcDbEntity
  8
1
  6
Continuous
 62
     7
370
     9
100
AcDbLine
 10
550.6667945074659
 20
-373.8600178562336
 30
0.0
 11
551.3668857201657
 21
-373.8600178562336
 31
0.0
  0
LINE
  5
34E
330
1F
100
AcDbEntity
  8
1
  6
Continuous
 62
     7
370
     9
100
AcDbLine
 10
549.0883676018003
 20
-373.8600178562336
 30
0.0
 11
549.9468848145
 21
-373.8600178562336
 31
0.0
  0
LINE
  5
34F
330
1F
100
AcDbEntity
  8
1
  6
Continuous
 62
     7
370
     9
100
AcDbLine
 10
547.6683666961324
 20
-373.8600178562336
 30
0.0
 11
548.3684579088322
 21
-373.8600178562336
 31
0.0
  0
LINE
  5
350
330
1F
100
AcDbEntity
  8
1
  6
Continuous
 62
     7
370
     9
100
AcDbLine
 10
550.4434611741326
 20
-374.1933511895671
 30
0.0
 11
551.2710828601998
 21
-374.1933511895671
 31
0.0
  0
LINE
  5
351
330
1F
100
AcDbEntity
  8
1
  6
Continuous
 62
     7
370
     9
100
AcDbLine
 10
549.0783676017996
 20
-374.1933511895671
 30
0.0
 11
549.9568848144996
 21
-374.1933511895671
 31
0.0
  0
LINE
  5
352
330
1F
100
AcDbEntity
  8
1
  6
Continuous
 62
     7
370
     9
100
AcDbLine
 10
547.7641695560993
 20
-374.1933511895671
 30
0.0
 11
548.5917912421664
 21
-374.1933511895671
 31
0.0
  0
LINE
  5
353
330
1F
100
AcDbEntity
  8
1
  6
Continuous
 62
     7
370
     9
100
AcDbLine
 10
550.2201278407996
 20
-374.5266845229002
 30
0.0
 11
551.1044161935325
 21
-374.5266845229002
 31
0.0
  0
LINE
  5
354
330
1F
100
AcDbEntity
  8
1
  6
Continuous
 62
     7
370
     9
100
AcDbLine
 10
549.0683676018
 20
-374.5266845229002
 30
0.0
 11
549.9668848144993
 21
-374.5266845229002
 31
0.0
  0
LINE
  5
355
330
1F
100
AcDbEntity
  8
1
  6
Continuous
 62
     7
370
     9
100
AcDbLine
 10
547.9308362227657
 20
-374.5266845229002
 30
0.0
 11
548.8151245754987
 21
-374.5266845229002
 31
0.0
  0
LINE
  5
356
330
1F
100
AcDbEntity
  8
1
  6
Continuous
 62
     7
370
     9
100
AcDbLine
 10
546.8758351633669
 20
-374.8600178562337
 30
0.0
 11
552.1594172529326
 21
-374.8600178562337
 31
0.0
  0
LINE
  5
357
330
1F
100
AcDbEntity
  8
1
  6
Continuous
 62
     7
370
     9
100
AcDbLine
 10
546.8758351633669
 20
-375.193351189567
 30
0.0
 11
552.1594172529326
 21
-375.193351189567
 31
0.0
  0
LINE
  5
358
330
1F
100
AcDbEntity
  8
1
  6
Continuous
 62
     7
370
     9
100
AcDbLine
 10
548.4710238743995
 20
-375.5266845229003
 30
0.0
 11
550.5642285419
 21
-375.5266845229003
 31
0.0
  0
LINE
  5
359
330
1F
100
AcDbEntity
  8
1
  6
Continuous
 62
     7
370
     9
100
AcDbLine
 10
548.3747978998332
 20
-375.8600178562336
 30
0.0
 11
550.660454516465
 21
-375.8600178562336
 31
0.0
  0
LINE
  5
35A
330
1F
100
AcDbEntity
  8
1
  6
Continuous
 62
     7
370
     9
100
AcDbLine
 10
548.126008274233
 20
-376.1933511895671
 30
0.0
 11
550.9092441420652
 21
-376.1933511895671
 31
0.0
  0
LINE
  5
35B
330
1F
100
AcDbEntity
  8
1
  6
Continuous
 62
     7
370
     9
100
AcDbLine
 10
547.8458567651662
 20
-376.5266845229002
 30
0.0
 11
551.1893956511329
 21
-376.5266845229002
 31
0.0
  0
LINE
  5
35C
330
1F
100
AcDbEntity
  8
1
  6
Continuous
 62
     7
370
     9
100
AcDbLine
 10
550.4797967482995
 20
-376.8600178562337
 30
0.0
 11
551.5059908835668
 21
-376.8600178562337
 31
0.0
  0
LINE
  5
35D
330
1F
100
AcDbEntity
  8
1
  6
Continuous
 62
     7
370
     9
100
AcDbLine
 10
548.9982760348662
 20
-376.8600178562337
 30
0.0
 11
550.036976381432
 21
-376.8600178562337
 31
0.0
  0
LINE
  5
35E
330
1F
100
AcDbEntity
  8
1
  6
Continuous
 62
     7
370
     9
100
AcDbLine
 10
547.5292615327324
 20
-376.8600178562337
 30
0.0
 11
548.5554556679987
 21
-376.8600178562337
 31
0.0
  0
LINE
  5
35F
330
1F
100
AcDbEntity
  8
1
  6
Continuous
 62
     7
370
     9
100
AcDbLine
 10
550.702939462232
 20
-377.1933511895667
 30
0.0
 11
551.8661998263326
 21
-377.1933511895667
 31
0.0
  0
LINE
  5
360
330
1F
100
AcDbEntity
  8
1
  6
Continuous
 62
     7
370
     9
100
AcDbLine
 10
548.9883676017995
 20
-377.1933511895667
 30
0.0
 11
550.0468848144998
 21
-377.1933511895667
 31
0.0
  0
LINE
  5
361
330
1F
100
AcDbEntity
  8
1
  6
Continuous
 62
     7
370
     9
100
AcDbLine
 10
547.1690525899666
 20
-377.1933511895667
 30
0.0
 11
548.3323129540317
 21
-377.1933511895667
 31
0.0
  0
LINE
  5
362
330
1F
100
AcDbEntity
  8
1
  6
Continuous
 62
     7
370
     9
100
AcDbLine
 10
550.9543092722988
 20
-377.5266845229003
 30
0.0
 11
552.2806978697671
 21
-377.5266845229003
 31
0.0
  0
LINE
  5
363
330
1F
100
AcDbEntity
  8
1
  6
Continuous
 62
     7
370
     9
100
AcDbLine
 10
548.9783676017998
 20
-377.5266845229003
 30
0.0
 11
550.0568848144994
 21
-377.5266845229003
 31
0.0
  0
LINE
  5
364
330
1F
100
AcDbEntity
  8
1
  6
Continuous
 62
     7
370
     9
100
AcDbLine
 10
546.7545545465333
 20
-377.5266845229003
 30
0.0
 11
548.0809431439992
 21
-377.5266845229003
 31
0.0
  0
LINE
  5
365
330
1F
100
AcDbEntity
  8
1
  6
Continuous
 62
     7
370
     9
100
AcDbLine
 10
551.237844697265
 20
-377.8600178562338
 30
0.0
 11
552.1952638589323
 21
-377.8600178562338
 31
0.0
  0
LINE
  5
366
330
1F
100
AcDbEntity
  8
1
  6
Continuous
 62
     7
370
     9
100
AcDbLine
 10
548.9683676018002
 20
-377.8600178562338
 30
0.0
 11
550.0668848144991
 21
-377.8600178562338
 31
0.0
  0
LINE
  5
367
330
1F
100
AcDbEntity
  8
1
  6
Continuous
 62
     7
370
     9
100
AcDbLine
 10
547.1608600323323
 20
-377.8600178562338
 30
0.0
 11
547.7974077190331
 21
-377.8600178562338
 31
0.0
  0
LINE
  5
368
330
1F
100
AcDbEntity
  8
1
  6
Continuous
 62
     7
370
     9
100
AcDbLine
 10
551.5589270733332
 20
-378.1933511895668
 30
0.0
 11
551.6619305255991
 21
-378.1933511895668
 31
0.0
  0
LINE
  5
369
330
1F
100
AcDbEntity
  8
1
  6
Continuous
 62
     7
370
     9
100
AcDbLine
 10
548.9583676017995
 20
-378.1933511895668
 30
0.0
 11
550.0768848145
 21
-378.1933511895668
 31
0.0
  0
LINE
  5
36A
330
1F
100
AcDbEntity
  8
1
  6
Continuous
 62
     7
370
     9
100
AcDbLine
 10
553.5234631754327
 20
-372.7883316778001
 30
0.0
 11
557.9522284399985
 21
-372.7883316778001
 31
0.0
  0
LINE
  5
36B
330
1F
100
AcDbEntity
  8
1
  6
Continuous
 62
     7
370
     9
100
AcDbLine
 10
553.5234631754327
 20
-373.1216650111336
 30
0.0
 11
557.9522284399985
 21
-373.1216650111336
 31
0.0
  0
LINE
  5
36C
330
1F
100
AcDbEntity
  8
1
  6
Continuous
 62
     7
370
     9
100
AcDbLine
 10
555.128826524132
 20
-373.4549983444667
 30
0.0
 11
556.3468650913003
 21
-373.4549983444667
 31
0.0
  0
LINE
  5
36D
330
1F
100
AcDbEntity
  8
1
  6
Continuous
 62
     7
370
     9
100
AcDbLine
 10
555.2732211407323
 20
-373.7883316778002
 30
0.0
 11
556.2024704747001
 21
-373.7883316778002
 31
0.0
  0
LINE
  5
36E
330
1F
100
AcDbEntity
  8
1
  6
Continuous
 62
     7
370
     9
100
AcDbLine
 10
555.2552893931656
 20
-374.1216650111338
 30
0.0
 11
556.2204022222667
 21
-374.1216650111338
 31
0.0
  0
LINE
  5
36F
330
1F
100
AcDbEntity
  8
1
  6
Continuous
 62
     7
370
     9
100
AcDbLine
 10
555.2373576455993
 20
-374.4549983444668
 30
0.0
 11
556.2383339698332
 21
-374.4549983444668
 31
0.0
  0
LINE
  5
370
330
1F
100
AcDbEntity
  8
1
  6
Continuous
 62
     7
370
     9
100
AcDbLine
 10
555.2194258980327
 20
-374.7883316778003
 30
0.0
 11
556.2562657173985
 21
-374.7883316778003
 31
0.0
  0
LINE
  5
371
330
1F
100
AcDbEntity
  8
1
  6
Continuous
 62
     7
370
     9
100
AcDbLine
 10
555.201494150465
 20
-375.1216650111336
 30
0.0
 11
556.274197464965
 21
-375.1216650111336
 31
0.0
  0
LINE
  5
372
330
1F
100
AcDbEntity
  8
1
  6
Continuous
 62
     7
370
     9
100
AcDbLine
 10
555.1835624028985
 20
-375.454998344467
 30
0.0
 11
556.2921292125327
 21
-375.454998344467
 31
0.0
  0
LINE
  5
373
330
1F
100
AcDbEntity
  8
1
  6
Continuous
 62
     7
370
     9
100
AcDbLine
 10
555.1656306553332
 20
-375.7883316778002
 30
0.0
 11
556.3100609600992
 21
-375.7883316778002
 31
0.0
  0
LINE
  5
374
330
1F
100
AcDbEntity
  8
1
  6
Continuous
 62
     7
370
     9
100
AcDbLine
 10
555.1476989077665
 20
-376.1216650111335
 30
0.0
 11
556.3279927076658
 21
-376.1216650111335
 31
0.0
  0
LINE
  5
375
330
1F
100
AcDbEntity
  8
1
  6
Continuous
 62
     7
370
     9
100
AcDbLine
 10
555.1297671602002
 20
-376.4549983444668
 30
0.0
 11
556.3459244552323
 21
-376.4549983444668
 31
0.0
  0
LINE
  5
376
330
1F
100
AcDbEntity
  8
1
  6
Continuous
 62
     7
370
     9
100
AcDbLine
 10
555.1118354126326
 20
-376.7883316778003
 30
0.0
 11
556.3638562028
 21
-376.7883316778003
 31
0.0
  0
LINE
  5
377
330
1F
100
AcDbEntity
  8
1
  6
Continuous
 62
     7
370
     9
100
AcDbLine
 10
555.0325147741328
 20
-377.1216650111334
 30
0.0
 11
556.4431768413326
 21
-377.1216650111334
 31
0.0
  0
LINE
  5
378
330
1F
100
AcDbEntity
  8
1
  6
Continuous
 62
     7
370
     9
100
AcDbLine
 10
553.2181714522326
 20
-377.454998344467
 30
0.0
 11
558.2575201631997
 21
-377.454998344467
 31
0.0
  0
LINE
  5
379
330
1F
100
AcDbEntity
  8
1
  6
Continuous
 62
     7
370
     9
100
AcDbLine
 10
553.2181714522326
 20
-377.7883316778
 30
0.0
 11
558.2575201631997
 21
-377.7883316778
 31
0.0
  0
LINE
  5
37A
330
1F
100
AcDbEntity
  8
1
  6
Continuous
 62
     7
370
     9
100
AcDbLine
 10
587.2303204779992
 20
-372.6827571284334
 30
0.0
 11
587.9007078155656
 21
-372.6827571284334
 31
0.0
  0
LINE
  5
37B
330
1F
100
AcDbEntity
  8
1
  6
Continuous
 62
     7
370
     9
100
AcDbLine
 10
584.3628895087991
 20
-372.6827571284334
 30
0.0
 11
585.0286543885654
 21
-372.6827571284334
 31
0.0
  0
LINE
  5
37C
330
1F
100
AcDbEntity
  8
1
  6
Continuous
 62
     7
370
     9
100
AcDbLine
 10
587.2182722852328
 20
-373.0160904617669
 30
0.0
 11
587.9127560083333
 21
-373.0160904617669
 31
0.0
  0
LINE
  5
37D
330
1F
100
AcDbEntity
  8
1
  6
Continuous
 62
     7
370
     9
100
AcDbLine
 10
584.3528895087994
 20
-373.0160904617669
 30
0.0
 11
585.0386543885651
 21
-373.0160904617669
 31
0.0
  0
LINE
  5
37E
330
1F
100
AcDbEntity
  8
1
  6
Continuous
 62
     7
370
     9
100
AcDbLine
 10
587.2062240924331
 20
-373.3494237950999
 30
0.0
 11
587.9248042010986
 21
-373.3494237950999
 31
0.0
  0
LINE
  5
37F
330
1F
100
AcDbEntity
  8
1
  6
Continuous
 62
     7
370
     9
100
AcDbLine
 10
583.2751477966999
 20
-373.3494237950999
 30
0.0
 11
586.1042005078991
 21
-373.3494237950999
 31
0.0
  0
LINE
  5
380
330
1F
100
AcDbEntity
  8
1
  6
Continuous
 62
     7
370
     9
100
AcDbLine
 10
587.1941758996657
 20
-373.6827571284335
 30
0.0
 11
587.9368523938663
 21
-373.6827571284335
 31
0.0
  0
LINE
  5
381
330
1F
100
AcDbEntity
  8
1
  6
Continuous
 62
     7
370
     9
100
AcDbLine
 10
583.2751477966999
 20
-373.6827571284335
 30
0.0
 11
586.0321772925323
 21
-373.6827571284335
 31
0.0
  0
LINE
  5
382
330
1F
100
AcDbEntity
  8
1
  6
Continuous
 62
     7
370
     9
100
AcDbLine
 10
587.1431054991989
 20
-374.016090461767
 30
0.0
 11
587.987922794333
 21
-374.016090461767
 31
0.0
  0
LINE
  5
383
330
1F
100
AcDbEntity
  8
1
  6
Continuous
 62
     7
370
     9
100
AcDbLine
 10
585.2835381511321
 20
-374.016090461767
 30
0.0
 11
585.9349109227661
 21
-374.016090461767
 31
0.0
  0
LINE
  5
384
330
1F
100
AcDbEntity
  8
1
  6
Continuous
 62
     7
370
     9
100
AcDbLine
 10
586.0838316501662
 20
-374.3494237951001
 30
0.0
 11
589.0471966433656
 21
-374.3494237951001
 31
0.0
  0
LINE
  5
385
330
1F
100
AcDbEntity
  8
1
  6
Continuous
 62
     7
370
     9
100
AcDbLine
 10
585.1292016556657
 20
-374.3494237951001
 30
0.0
 11
585.8107539720322
 21
-374.3494237951001
 31
0.0
  0
LINE
  5
386
330
1F
100
AcDbEntity
  8
1
  6
Continuous
 62
     7
370
     9
100
AcDbLine
 10
587.0419276946335
 20
-374.6827571284336
 30
0.0
 11
588.0891005989326
 21
-374.6827571284336
 31
0.0
  0
LINE
  5
387
330
1F
100
AcDbEntity
  8
1
  6
Continuous
 62
     7
370
     9
100
AcDbLine
 10
584.9184337915665
 20
-374.6827571284336
 30
0.0
 11
585.6573869344
 21
-374.6827571284336
 31
0.0
  0
LINE
  5
388
330
1F
100
AcDbEntity
  8
1
  6
Continuous
 62
     7
370
     9
100
AcDbLine
 10
587.1459831285988
 20
-375.0160904617666
 30
0.0
 11
587.9850451649663
 21
-375.0160904617666
 31
0.0
  0
LINE
  5
389
330
1F
100
AcDbEntity
  8
1
  6
Continuous
 62
     7
370
     9
100
AcDbLine
 10
584.6606323840335
 20
-375.0160904617666
 30
0.0
 11
585.8164020929992
 21
-375.0160904617666
 31
0.0
  0
LINE
  5
38A
330
1F
100
AcDbEntity
  8
1
  6
Continuous
 62
     7
370
     9
100
AcDbLine
 10
587.1339349358324
 20
-375.3494237951002
 30
0.0
 11
587.9970933577328
 21
-375.3494237951002
 31
0.0
  0
LINE
  5
38B
330
1F
100
AcDbEntity
  8
1
  6
Continuous
 62
     7
370
     9
100
AcDbLine
 10
584.3435595620667
 20
-375.3494237951002
 30
0.0
 11
586.2924514285667
 21
-375.3494237951002
 31
0.0
  0
LINE
  5
38C
330
1F
100
AcDbEntity
  8
1
  6
Continuous
 62
     7
370
     9
100
AcDbLine
 10
587.1218867430658
 20
-375.6827571284335
 30
0.0
 11
588.009141550499
 21
-375.6827571284335
 31
0.0
  0
LINE
  5
38D
330
1F
100
AcDbEntity
  8
1
  6
Continuous
 62
     7
370
     9
100
AcDbLine
 10
585.5491991709658
 20
-375.6827571284335
 30
0.0
 11
586.4417304835991
 21
-375.6827571284335
 31
0.0
  0
LINE
  5
38E
330
1F
100
AcDbEntity
  8
1
  6
Continuous
 62
     7
370
     9
100
AcDbLine
 10
583.9453542322995
 20
-375.6827571284335
 30
0.0
 11
585.1220117659001
 21
-375.6827571284335
 31
0.0
  0
LINE
  5
38F
330
1F
100
AcDbEntity
  8
1
  6
Continuous
 62
     7
370
     9
100
AcDbLine
 10
587.1098385502651
 20
-376.0160904617667
 30
0.0
 11
588.0211897432666
 21
-376.0160904617667
 31
0.0
  0
LINE
  5
390
330
1F
100
AcDbEntity
  8
1
  6
Continuous
 62
     7
370
     9
100
AcDbLine
 10
586.0624874922324
 20
-376.0160904617667
 30
0.0
 11
586.3118871936991
 21
-376.0160904617667
 31
0.0
  0
LINE
  5
391
330
1F
100
AcDbEntity
  8
1
  6
Continuous
 62
     7
370
     9
100
AcDbLine
 10
583.4190870921658
 20
-376.0160904617667
 30
0.0
 11
585.1286543885653
 21
-376.0160904617667
 31
0.0
  0
LINE
  5
392
330
1F
100
AcDbEntity
  8
1
  6
Continuous
 62
     7
370
     9
100
AcDbLine
 10
587.0977903574999
 20
-376.3494237951001
 30
0.0
 11
588.033237936033
 21
-376.3494237951001
 31
0.0
  0
LINE
  5
393
330
1F
100
AcDbEntity
  8
1
  6
Continuous
 62
     7
370
     9
100
AcDbLine
 10
582.6226418561329
 20
-376.3494237951001
 30
0.0
 11
585.138654388566
 21
-376.3494237951001
 31
0.0
  0
LINE
  5
394
330
1F
100
AcDbEntity
  8
1
  6
Continuous
 62
     7
370
     9
100
AcDbLine
 10
587.0857421647324
 20
-376.6827571284336
 30
0.0
 11
588.0452861287996
 21
-376.6827571284336
 31
0.0
  0
LINE
  5
395
330
1F
100
AcDbEntity
  8
1
  6
Continuous
 62
     7
370
     9
100
AcDbLine
 10
584.2425691306323
 20
-376.6827571284336
 30
0.0
 11
585.1486543885657
 21
-376.6827571284336
 31
0.0
  0
LINE
  5
396
330
1F
100
AcDbEntity
  8
1
  6
Continuous
 62
     7
370
     9
100
AcDbLine
 10
583.0615859333998
 20
-376.6827571284336
 30
0.0
 11
583.7660073415326
 21
-376.6827571284336
 31
0.0
  0
LINE
  5
397
330
1F
100
AcDbEntity
  8
1
  6
Continuous
 62
     7
370
     9
100
AcDbLine
 10
587.0736939719658
 20
-377.0160904617666
 30
0.0
 11
588.0573343215659
 21
-377.0160904617666
 31
0.0
  0
LINE
  5
398
330
1F
100
AcDbEntity
  8
1
  6
Continuous
 62
     7
370
     9
100
AcDbLine
 10
584.2328895087993
 20
-377.0160904617666
 30
0.0
 11
585.1586543885653
 21
-377.0160904617666
 31
0.0
  0
LINE
  5
399
330
1F
100
AcDbEntity
  8
1
  6
Continuous
 62
     7
370
     9
100
AcDbLine
 10
586.8923102026662
 20
-377.3494237951002
 30
0.0
 11
588.2387180908656
 21
-377.3494237951002
 31
0.0
  0
LINE
  5
39A
330
1F
100
AcDbEntity
  8
1
  6
Continuous
 62
     7
370
     9
100
AcDbLine
 10
584.2228895087986
 20
-377.3494237951002
 30
0.0
 11
585.1686543885662
 21
-377.3494237951002
 31
0.0
  0
LINE
  5
39B
330
1F
100
AcDbEntity
  8
1
  6
Continuous
 62
     7
370
     9
100
AcDbLine
 10
585.595364893033
 20
-377.6827571284333
 30
0.0
 11
589.5356634004988
 21
-377.6827571284333
 31
0.0
  0
LINE
  5
39C
330
1F
100
AcDbEntity
  8
1
  6
Continuous
 62
     7
370
     9
100
AcDbLine
 10
584.212889508799
 20
-377.6827571284333
 30
0.0
 11
585.1786543885659
 21
-377.6827571284333
 31
0.0
  0
LINE
  5
39D
330
1F
100
AcDbEntity
  8
1
  6
Continuous
 62
     7
370
     9
100
AcDbLine
 10
585.595364893033
 20
-378.0160904617667
 30
0.0
 11
589.5356634004988
 21
-378.0160904617667
 31
0.0
  0
LINE
  5
39E
330
1F
100
AcDbEntity
  8
1
  6
Continuous
 62
     7
370
     9
100
AcDbLine
 10
584.2028895087993
 20
-378.0160904617667
 30
0.0
 11
585.1886543885655
 21
-378.0160904617667
 31
0.0
  0
LINE
  5
39F
330
1F
100
AcDbEntity
  8
1
  6
Continuous
 62
     7
370
     9
100
AcDbLine
 10
584.1928895087984
 20
-378.3494237951003
 30
0.0
 11
585.1986543885661
 21
-378.3494237951003
 31
0.0
  0
LINE
  5
3A0
330
1F
100
AcDbEntity
  8
1
  6
Continuous
 62
     7
370
     9
100
AcDbLine
 10
561.8464194585988
 20
-372.3661942674336
 30
0.0
 11
562.4933397859991
 21
-372.3661942674336
 31
0.0
  0
LINE
  5
3A1
330
1F
100
AcDbEntity
  8
1
  6
Continuous
 62
     7
370
     9
100
AcDbLine
 10
560.8694859443655
 20
-372.3661942674336
 30
0.0
 11
561.5164062717657
 21
-372.3661942674336
 31
0.0
  0
LINE
  5
3A2
330
1F
100
AcDbEntity
  8
1
  6
Continuous
 62
     7
370
     9
100
AcDbLine
 10
562.941238639999
 20
-372.6995276007668
 30
0.0
 11
563.691743822732
 21
-372.6995276007668
 31
0.0
  0
LINE
  5
3A3
330
1F
100
AcDbEntity
  8
1
  6
Continuous
 62
     7
370
     9
100
AcDbLine
 10
561.8360027919324
 20
-372.6995276007668
 30
0.0
 11
562.504400378633
 21
-372.6995276007668
 31
0.0
  0
LINE
  5
3A4
330
1F
100
AcDbEntity
  8
1
  6
Continuous
 62
     7
370
     9
100
AcDbLine
 10
560.858425351733
 20
-372.6995276007668
 30
0.0
 11
561.5268229384324
 21
-372.6995276007668
 31
0.0
  0
LINE
  5
3A5
330
1F
100
AcDbEntity
  8
1
  6
Continuous
 62
     7
370
     9
100
AcDbLine
 10
559.6710819076327
 20
-372.6995276007668
 30
0.0
 11
560.4215870903657
 21
-372.6995276007668
 31
0.0
  0
LINE
  5
3A6
330
1F
100
AcDbEntity
  8
1
  6
Continuous
 62
     7
370
     9
100
AcDbLine
 10
559.8361778424996
 20
-373.0328609341004
 30
0.0
 11
563.5266478878332
 21
-373.0328609341004
 31
0.0
  0
LINE
  5
3A7
330
1F
100
AcDbEntity
  8
1
  6
Continuous
 62
     7
370
     9
100
AcDbLine
 10
558.9175051311328
 20
-373.3661942674335
 30
0.0
 11
564.4453205992331
 21
-373.3661942674335
 31
0.0
  0
LINE
  5
3A8
330
1F
100
AcDbEntity
  8
1
  6
Continuous
 62
     7
370
     9
100
AcDbLine
 10
558.9175051311328
 20
-373.6995276007669
 30
0.0
 11
564.4453205992331
 21
-373.6995276007669
 31
0.0
  0
LINE
  5
3A9
330
1F
100
AcDbEntity
  8
1
  6
Continuous
 62
     7
370
     9
100
AcDbLine
 10
562.0929945669657
 20
-374.0328609341005
 30
0.0
 11
563.0266478878332
 21
-374.0328609341005
 31
0.0
  0
LINE
  5
3AA
330
1F
100
AcDbEntity
  8
1
  6
Continuous
 62
     7
370
     9
100
AcDbLine
 10
560.3361778425326
 20
-374.0328609341005
 30
0.0
 11
561.2698311633989
 21
-374.0328609341005
 31
0.0
  0
LINE
  5
3AB
330
1F
100
AcDbEntity
  8
1
  6
Continuous
 62
     7
370
     9
100
AcDbLine
 10
559.6599802579318
 20
-374.3661942674336
 30
0.0
 11
563.7028454724328
 21
-374.3661942674336
 31
0.0
  0
LINE
  5
3AC
330
1F
100
AcDbEntity
  8
1
  6
Continuous
 62
     7
370
     9
100
AcDbLine
 10
559.6502052667995
 20
-374.6995276007671
 30
0.0
 11
563.7126204635653
 21
-374.6995276007671
 31
0.0
  0
LINE
  5
3AD
330
1F
100
AcDbEntity
  8
1
  6
Continuous
 62
     7
370
     9
100
AcDbLine
 10
561.2833764433996
 20
-375.0328609341001
 30
0.0
 11
562.0794492869322
 21
-375.0328609341001
 31
0.0
  0
LINE
  5
3AE
330
1F
100
AcDbEntity
  8
1
  6
Continuous
 62
     7
370
     9
100
AcDbLine
 10
559.6502052667995
 20
-375.3661942674337
 30
0.0
 11
563.7126204635653
 21
-375.3661942674337
 31
0.0
  0
LINE
  5
3AF
330
1F
100
AcDbEntity
  8
1
  6
Continuous
 62
     7
370
     9
100
AcDbLine
 10
559.6502052667995
 20
-375.6995276007669
 30
0.0
 11
563.7126204635653
 21
-375.6995276007669
 31
0.0
  0
LINE
  5
3B0
330
1F
100
AcDbEntity
  8
1
  6
Continuous
 62
     7
370
     9
100
AcDbLine
 10
561.2698629298995
 20
-376.0328609341003
 30
0.0
 11
562.0929628004664
 21
-376.0328609341003
 31
0.0
  0
LINE
  5
3B1
330
1F
100
AcDbEntity
  8
1
  6
Continuous
 62
     7
370
     9
100
AcDbLine
 10
559.6502052667995
 20
-376.3661942674336
 30
0.0
 11
563.7126204635653
 21
-376.3661942674336
 31
0.0
  0
LINE
  5
3B2
330
1F
100
AcDbEntity
  8
1
  6
Continuous
 62
     7
370
     9
100
AcDbLine
 10
559.6502052667995
 20
-376.6995276007671
 30
0.0
 11
563.7126204635653
 21
-376.6995276007671
 31
0.0
  0
LINE
  5
3B3
330
1F
100
AcDbEntity
  8
1
  6
Continuous
 62
     7
370
     9
100
AcDbLine
 10
560.3944357956325
 20
-377.0328609341001
 30
0.0
 11
562.9683899346988
 21
-377.0328609341001
 31
0.0
  0
LINE
  5
3B4
330
1F
100
AcDbEntity
  8
1
  6
Continuous
 62
     7
370
     9
100
AcDbLine
 10
562.4003852020662
 20
-377.3661942674337
 30
0.0
 11
563.5292619831663
 21
-377.3661942674337
 31
0.0
  0
LINE
  5
3B5
330
1F
100
AcDbEntity
  8
1
  6
Continuous
 62
     7
370
     9
100
AcDbLine
 10
561.2518449118662
 20
-377.3661942674337
 30
0.0
 11
562.1109808184656
 21
-377.3661942674337
 31
0.0
  0
LINE
  5
3B6
330
1F
100
AcDbEntity
  8
1
  6
Continuous
 62
     7
370
     9
100
AcDbLine
 10
559.8335637471665
 20
-377.3661942674337
 30
0.0
 11
560.9624405282997
 21
-377.3661942674337
 31
0.0
  0
LINE
  5
3B7
330
1F
100
AcDbEntity
  8
1
  6
Continuous
 62
     7
370
     9
100
AcDbLine
 10
562.7861610850333
 20
-377.6995276007667
 30
0.0
 11
564.2256881830324
 21
-377.6995276007667
 31
0.0
  0
LINE
  5
3B8
330
1F
100
AcDbEntity
  8
1
  6
Continuous
 62
     7
370
     9
100
AcDbLine
 10
561.2473404073656
 20
-377.6995276007667
 30
0.0
 11
562.1154853229989
 21
-377.6995276007667
 31
0.0
  0
LINE
  5
3B9
330
1F
100
AcDbEntity
  8
1
  6
Continuous
 62
     7
370
     9
100
AcDbLine
 10
559.1371375473324
 20
-377.6995276007667
 30
0.0
 11
560.5766646453327
 21
-377.6995276007667
 31
0.0
  0
LINE
  5
3BA
330
1F
100
AcDbEntity
  8
1
  6
Continuous
 62
     7
370
     9
100
AcDbLine
 10
563.2345984265999
 20
-378.0328609341003
 30
0.0
 11
563.9850085232664
 21
-378.0328609341003
 31
0.0
  0
LINE
  5
3BB
330
1F
100
AcDbEntity
  8
1
  6
Continuous
 62
     7
370
     9
100
AcDbLine
 10
561.2428359028664
 20
-378.0328609341003
 30
0.0
 11
562.1199898275004
 21
-378.0328609341003
 31
0.0
  0
LINE
  5
3BC
330
1F
100
AcDbEntity
  8
1
  6
Continuous
 62
     7
370
     9
100
AcDbLine
 10
559.3778172070993
 20
-378.0328609341003
 30
0.0
 11
560.1282273037658
 21
-378.0328609341003
 31
0.0
  0
LINE
  5
3BD
330
1F
100
AcDbEntity
  8
1
  6
Continuous
 62
     7
370
     9
100
AcDbLine
 10
894.5788112444999
 20
-372.5447169940336
 30
0.0
 11
895.4197365719995
 21
-372.5447169940336
 31
0.0
  0
LINE
  5
3BE
330
1F
100
AcDbEntity
  8
1
  6
Continuous
 62
     7
370
     9
100
AcDbLine
 10
894.3128965583005
 20
-372.8780503273671
 30
0.0
 11
895.6856512582
 21
-372.8780503273671
 31
0.0
  0
LINE
  5
3BF
330
1F
100
AcDbEntity
  8
1
  6
Continuous
 62
     7
370
     9
100
AcDbLine
 10
895.1245016224993
 20
-373.2113836607004
 30
0.0
 11
895.9930246004322
 21
-373.2113836607004
 31
0.0
  0
LINE
  5
3C0
330
1F
100
AcDbEntity
  8
1
  6
Continuous
 62
     7
370
     9
100
AcDbLine
 10
894.0055232160657
 20
-373.2113836607004
 30
0.0
 11
894.8740461939987
 21
-373.2113836607004
 31
0.0
  0
LINE
  5
3C1
330
1F
100
AcDbEntity
  8
1
  6
Continuous
 62
     7
370
     9
100
AcDbLine
 10
895.3631221075655
 20
-373.5447169940337
 30
0.0
 11
896.3513871651326
 21
-373.5447169940337
 31
0.0
  0
LINE
  5
3C2
330
1F
100
AcDbEntity
  8
1
  6
Continuous
 62
     7
370
     9
100
AcDbLine
 10
893.6471606513664
 20
-373.5447169940337
 30
0.0
 11
894.6354257089325
 21
-373.5447169940337
 31
0.0
  0
LINE
  5
3C3
330
1F
100
AcDbEntity
  8
1
  6
Continuous
 62
     7
370
     9
100
AcDbLine
 10
895.6088458497335
 20
-373.878050327367
 30
0.0
 11
896.7760105313328
 21
-373.878050327367
 31
0.0
  0
LINE
  5
3C4
330
1F
100
AcDbEntity
  8
1
  6
Continuous
 62
     7
370
     9
100
AcDbLine
 10
893.2225372851663
 20
-373.878050327367
 30
0.0
 11
894.3897019667668
 21
-373.878050327367
 31
0.0
  0
LINE
  5
3C5
330
1F
100
AcDbEntity
  8
1
  6
Continuous
 62
     7
370
     9
100
AcDbLine
 10
892.7042240051657
 20
-374.2113836607003
 30
0.0
 11
897.2943238113323
 21
-374.2113836607003
 31
0.0
  0
LINE
  5
3C6
330
1F
100
AcDbEntity
  8
1
  6
Continuous
 62
     7
370
     9
100
AcDbLine
 10
892.0320589284
 20
-374.5447169940336
 30
0.0
 11
897.9664888880992
 21
-374.5447169940336
 31
0.0
  0
LINE
  5
3C7
330
1F
100
AcDbEntity
  8
1
  6
Continuous
 62
     7
370
     9
100
AcDbLine
 10
896.6673502679325
 20
-374.8780503273671
 30
0.0
 11
898.0856865679987
 21
-374.8780503273671
 31
0.0
  0
LINE
  5
3C8
330
1F
100
AcDbEntity
  8
1
  6
Continuous
 62
     7
370
     9
100
AcDbLine
 10
891.9128612484994
 20
-374.8780503273671
 30
0.0
 11
893.3311975485656
 21
-374.8780503273671
 31
0.0
  0
LINE
  5
3C9
330
1F
100
AcDbEntity
  8
1
  6
Continuous
 62
     7
370
     9
100
AcDbLine
 10
896.8432524074663
 20
-375.2113836607002
 30
0.0
 11
897.8773532346654
 21
-375.2113836607002
 31
0.0
  0
LINE
  5
3CA
330
1F
100
AcDbEntity
  8
1
  6
Continuous
 62
     7
370
     9
100
AcDbLine
 10
892.1211945818326
 20
-375.2113836607002
 30
0.0
 11
893.1552954090328
 21
-375.2113836607002
 31
0.0
  0
LINE
  5
3CB
330
1F
100
AcDbEntity
  8
1
  6
Continuous
 62
     7
370
     9
100
AcDbLine
 10
892.5220440625993
 20
-375.5447169940337
 30
0.0
 11
897.4765037538997
 21
-375.5447169940337
 31
0.0
  0
LINE
  5
3CC
330
1F
100
AcDbEntity
  8
1
  6
Continuous
 62
     7
370
     9
100
AcDbLine
 10
895.4175602918986
 20
-375.8780503273667
 30
0.0
 11
896.2000527587325
 21
-375.8780503273667
 31
0.0
  0
LINE
  5
3CD
330
1F
100
AcDbEntity
  8
1
  6
Continuous
 62
     7
370
     9
100
AcDbLine
 10
893.7718982155991
 20
-375.8780503273667
 30
0.0
 11
894.5767170746986
 21
-375.8780503273667
 31
0.0
  0
LINE
  5
3CE
330
1F
100
AcDbEntity
  8
1
  6
Continuous
 62
     7
370
     9
100
AcDbLine
 10
895.4937331396673
 20
-376.2113836607003
 30
0.0
 11
896.2858803504329
 21
-376.2113836607003
 31
0.0
  0
LINE
  5
3CF
330
1F
100
AcDbEntity
  8
1
  6
Continuous
 62
     7
370
     9
100
AcDbLine
 10
893.6114062458655
 20
-376.2113836607003
 30
0.0
 11
894.4767170746989
 21
-376.2113836607003
 31
0.0
  0
LINE
  5
3D0
330
1F
100
AcDbEntity
  8
1
  6
Continuous
 62
     7
370
     9
100
AcDbLine
 10
895.582077413666
 20
-376.5447169940338
 30
0.0
 11
896.4040083070321
 21
-376.5447169940338
 31
0.0
  0
LINE
  5
3D1
330
1F
100
AcDbEntity
  8
1
  6
Continuous
 62
     7
370
     9
100
AcDbLine
 10
893.411406245866
 20
-376.5447169940338
 30
0.0
 11
894.3767170746991
 21
-376.5447169940338
 31
0.0
  0
LINE
  5
3D2
330
1F
100
AcDbEntity
  8
1
  6
Continuous
 62
     7
370
     9
100
AcDbLine
 10
895.6832641153989
 20
-376.8780503273669
 30
0.0
 11
896.5379421487668
 21
-376.8780503273669
 31
0.0
  0
LINE
  5
3D3
330
1F
100
AcDbEntity
  8
1
  6
Continuous
 62
     7
370
     9
100
AcDbLine
 10
893.2114062458653
 20
-376.8780503273669
 30
0.0
 11
894.2767170746994
 21
-376.8780503273669
 31
0.0
  0
LINE
  5
3D4
330
1F
100
AcDbEntity
  8
1
  6
Continuous
 62
     7
370
     9
100
AcDbLine
 10
892.4795995527666
 20
-377.2113836607004
 30
0.0
 11
896.6885008588999
 21
-377.2113836607004
 31
0.0
  0
LINE
  5
3D5
330
1F
100
AcDbEntity
  8
1
  6
Continuous
 62
     7
370
     9
100
AcDbLine
 10
892.4795995527666
 20
-377.5447169940337
 30
0.0
 11
896.8566742372662
 21
-377.5447169940337
 31
0.0
  0
LINE
  5
3D6
330
1F
100
AcDbEntity
  8
1
  6
Continuous
 62
     7
370
     9
100
AcDbLine
 10
896.0685526668657
 20
-377.878050327367
 30
0.0
 11
897.0436632956996
 21
-377.878050327367
 31
0.0
  0
LINE
  5
3D7
330
1F
100
AcDbEntity
  8
1
  6
Continuous
 62
     7
370
     9
100
AcDbLine
 10
892.4795995527666
 20
-377.878050327367
 30
0.0
 11
894.5052784117655
 21
-377.878050327367
 31
0.0
  0
LINE
  5
3D8
330
1F
100
AcDbEntity
  8
1
  6
Continuous
 62
     7
370
     9
100
AcDbLine
 10
896.226233203633
 20
-378.2113836607003
 30
0.0
 11
896.8152893134666
 21
-378.2113836607003
 31
0.0
  0
LINE
  5
3D9
330
1F
100
AcDbEntity
  8
1
  6
Continuous
 62
     7
370
     9
100
AcDbLine
 10
864.1283676018003
 20
-372.5266845229004
 30
0.0
 11
864.9068848144994
 21
-372.5266845229004
 31
0.0
  0
LINE
  5
3DA
330
1F
100
AcDbEntity
  8
1
  6
Continuous
 62
     7
370
     9
100
AcDbLine
 10
864.0757812571669
 20
-372.8600178562335
 30
0.0
 11
864.9594711591329
 21
-372.8600178562335
 31
0.0
  0
LINE
  5
3DB
330
1F
100
AcDbEntity
  8
1
  6
Continuous
 62
     7
370
     9
100
AcDbLine
 10
862.3032435758669
 20
-373.193351189567
 30
0.0
 11
866.7320088404327
 21
-373.193351189567
 31
0.0
  0
LINE
  5
3DC
330
1F
100
AcDbEntity
  8
1
  6
Continuous
 62
     7
370
     9
100
AcDbLine
 10
865.8087950509332
 20
-373.5266845229005
 30
0.0
 11
866.1312843286662
 21
-373.5266845229005
 31
0.0
  0
LINE
  5
3DD
330
1F
100
AcDbEntity
  8
1
  6
Continuous
 62
     7
370
     9
100
AcDbLine
 10
863.9895401248003
 20
-373.5266845229005
 30
0.0
 11
865.0457122915004
 21
-373.5266845229005
 31
0.0
  0
LINE
  5
3DE
330
1F
100
AcDbEntity
  8
1
  6
Continuous
 62
     7
370
     9
100
AcDbLine
 10
862.9039680876333
 20
-373.5266845229005
 30
0.0
 11
863.2264573653664
 21
-373.5266845229005
 31
0.0
  0
LINE
  5
3DF
330
1F
100
AcDbEntity
  8
1
  6
Continuous
 62
     7
370
     9
100
AcDbLine
 10
865.6667945074661
 20
-373.8600178562336
 30
0.0
 11
866.3668857201658
 21
-373.8600178562336
 31
0.0
  0
LINE
  5
3E0
330
1F
100
AcDbEntity
  8
1
  6
Continuous
 62
     7
370
     9
100
AcDbLine
 10
864.0883676018005
 20
-373.8600178562336
 30
0.0
 11
864.9468848145002
 21
-373.8600178562336
 31
0.0
  0
LINE
  5
3E1
330
1F
100
AcDbEntity
  8
1
  6
Continuous
 62
     7
370
     9
100
AcDbLine
 10
862.6683666961326
 20
-373.8600178562336
 30
0.0
 11
863.3684579088323
 21
-373.8600178562336
 31
0.0
  0
LINE
  5
3E2
330
1F
100
AcDbEntity
  8
1
  6
Continuous
 62
     7
370
     9
100
AcDbLine
 10
865.4434611741328
 20
-374.1933511895671
 30
0.0
 11
866.2710828602001
 21
-374.1933511895671
 31
0.0
  0
LINE
  5
3E3
330
1F
100
AcDbEntity
  8
1
  6
Continuous
 62
     7
370
     9
100
AcDbLine
 10
864.0783676017998
 20
-374.1933511895671
 30
0.0
 11
864.9568848144999
 21
-374.1933511895671
 31
0.0
  0
LINE
  5
3E4
330
1F
100
AcDbEntity
  8
1
  6
Continuous
 62
     7
370
     9
100
AcDbLine
 10
862.7641695560994
 20
-374.1933511895671
 30
0.0
 11
863.5917912421667
 21
-374.1933511895671
 31
0.0
  0
LINE
  5
3E5
330
1F
100
AcDbEntity
  8
1
  6
Continuous
 62
     7
370
     9
100
AcDbLine
 10
865.2201278407998
 20
-374.5266845229002
 30
0.0
 11
866.1044161935328
 21
-374.5266845229002
 31
0.0
  0
LINE
  5
3E6
330
1F
100
AcDbEntity
  8
1
  6
Continuous
 62
     7
370
     9
100
AcDbLine
 10
864.0683676018001
 20
-374.5266845229002
 30
0.0
 11
864.9668848144994
 21
-374.5266845229002
 31
0.0
  0
LINE
  5
3E7
330
1F
100
AcDbEntity
  8
1
  6
Continuous
 62
     7
370
     9
100
AcDbLine
 10
862.9308362227658
 20
-374.5266845229002
 30
0.0
 11
863.8151245754988
 21
-374.5266845229002
 31
0.0
  0
LINE
  5
3E8
330
1F
100
AcDbEntity
  8
1
  6
Continuous
 62
     7
370
     9
100
AcDbLine
 10
861.875835163367
 20
-374.8600178562337
 30
0.0
 11
867.1594172529327
 21
-374.8600178562337
 31
0.0
  0
LINE
  5
3E9
330
1F
100
AcDbEntity
  8
1
  6
Continuous
 62
     7
370
     9
100
AcDbLine
 10
861.875835163367
 20
-375.193351189567
 30
0.0
 11
867.1594172529327
 21
-375.193351189567
 31
0.0
  0
LINE
  5
3EA
330
1F
100
AcDbEntity
  8
1
  6
Continuous
 62
     7
370
     9
100
AcDbLine
 10
863.4710238743996
 20
-375.5266845229003
 30
0.0
 11
865.5642285419002
 21
-375.5266845229003
 31
0.0
  0
LINE
  5
3EB
330
1F
100
AcDbEntity
  8
1
  6
Continuous
 62
     7
370
     9
100
AcDbLine
 10
863.3747978998334
 20
-375.8600178562336
 30
0.0
 11
865.6604545164652
 21
-375.8600178562336
 31
0.0
  0
LINE
  5
3EC
330
1F
100
AcDbEntity
  8
1
  6
Continuous
 62
     7
370
     9
100
AcDbLine
 10
863.1260082742331
 20
-376.1933511895671
 30
0.0
 11
865.9092441420654
 21
-376.1933511895671
 31
0.0
  0
LINE
  5
3ED
330
1F
100
AcDbEntity
  8
1
  6
Continuous
 62
     7
370
     9
100
AcDbLine
 10
862.8458567651664
 20
-376.5266845229002
 30
0.0
 11
866.1893956511332
 21
-376.5266845229002
 31
0.0
  0
LINE
  5
3EE
330
1F
100
AcDbEntity
  8
1
  6
Continuous
 62
     7
370
     9
100
AcDbLine
 10
865.4797967482997
 20
-376.8600178562337
 30
0.0
 11
866.505990883567
 21
-376.8600178562337
 31
0.0
  0
LINE
  5
3EF
330
1F
100
AcDbEntity
  8
1
  6
Continuous
 62
     7
370
     9
100
AcDbLine
 10
863.9982760348663
 20
-376.8600178562337
 30
0.0
 11
865.0369763814323
 21
-376.8600178562337
 31
0.0
  0
LINE
  5
3F0
330
1F
100
AcDbEntity
  8
1
  6
Continuous
 62
     7
370
     9
100
AcDbLine
 10
862.5292615327327
 20
-376.8600178562337
 30
0.0
 11
863.5554556679988
 21
-376.8600178562337
 31
0.0
  0
LINE
  5
3F1
330
1F
100
AcDbEntity
  8
1
  6
Continuous
 62
     7
370
     9
100
AcDbLine
 10
865.7029394622322
 20
-377.1933511895667
 30
0.0
 11
866.8661998263328
 21
-377.1933511895667
 31
0.0
  0
LINE
  5
3F2
330
1F
100
AcDbEntity
  8
1
  6
Continuous
 62
     7
370
     9
100
AcDbLine
 10
863.9883676017996
 20
-377.1933511895667
 30
0.0
 11
865.0468848145
 21
-377.1933511895667
 31
0.0
  0
LINE
  5
3F3
330
1F
100
AcDbEntity
  8
1
  6
Continuous
 62
     7
370
     9
100
AcDbLine
 10
862.1690525899668
 20
-377.1933511895667
 30
0.0
 11
863.3323129540319
 21
-377.1933511895667
 31
0.0
  0
LINE
  5
3F4
330
1F
100
AcDbEntity
  8
1
  6
Continuous
 62
     7
370
     9
100
AcDbLine
 10
865.9543092722989
 20
-377.5266845229003
 30
0.0
 11
867.2806978697672
 21
-377.5266845229003
 31
0.0
  0
LINE
  5
3F5
330
1F
100
AcDbEntity
  8
1
  6
Continuous
 62
     7
370
     9
100
AcDbLine
 10
863.9783676018
 20
-377.5266845229003
 30
0.0
 11
865.0568848144995
 21
-377.5266845229003
 31
0.0
  0
LINE
  5
3F6
330
1F
100
AcDbEntity
  8
1
  6
Continuous
 62
     7
370
     9
100
AcDbLine
 10
861.7545545465334
 20
-377.5266845229003
 30
0.0
 11
863.0809431439994
 21
-377.5266845229003
 31
0.0
  0
LINE
  5
3F7
330
1F
100
AcDbEntity
  8
1
  6
Continuous
 62
     7
370
     9
100
AcDbLine
 10
866.2378446972651
 20
-377.8600178562338
 30
0.0
 11
867.1952638589325
 21
-377.8600178562338
 31
0.0
  0
LINE
  5
3F8
330
1F
100
AcDbEntity
  8
1
  6
Continuous
 62
     7
370
     9
100
AcDbLine
 10
863.9683676018004
 20
-377.8600178562338
 30
0.0
 11
865.0668848144992
 21
-377.8600178562338
 31
0.0
  0
LINE
  5
3F9
330
1F
100
AcDbEntity
  8
1
  6
Continuous
 62
     7
370
     9
100
AcDbLine
 10
862.1608600323325
 20
-377.8600178562338
 30
0.0
 11
862.7974077190333
 21
-377.8600178562338
 31
0.0
  0
LINE
  5
3FA
330
1F
100
AcDbEntity
  8
1
  6
Continuous
 62
     7
370
     9
100
AcDbLine
 10
866.5589270733334
 20
-378.1933511895668
 30
0.0
 11
866.6619305255992
 21
-378.1933511895668
 31
0.0
  0
LINE
  5
3FB
330
1F
100
AcDbEntity
  8
1
  6
Continuous
 62
     7
370
     9
100
AcDbLine
 10
863.9583676017996
 20
-378.1933511895668
 30
0.0
 11
865.0768848145002
 21
-378.1933511895668
 31
0.0
  0
CIRCLE
  5
3FC
330
1F
100
AcDbEntity
  8
1
  6
Continuous
 62
     7
370
     9
100
AcDbCircle
 10
814.4642139773338
 20
-246.3809943203665
 30
0.0
 40
0.500000000000056
  0
MTEXT
  5
3FD
330
1F
100
AcDbEntity
  8
1
 62
     7
100
AcDbMText
 10
775.494023426387
 20
-226.2162948569846
 30
0.0
 40
3.499999999999999
 41
0.0
 46
0.0
 71
     1
 72
     1
  1
{\fＭＳ ゴシック;\W0.827053;バックアップスリーブ}
 73
     1
 44
1.0
  0
MTEXT
  5
3FE
330
1F
100
AcDbEntity
  8
1
 62
     7
100
AcDbMText
 10
775.4947536536598
 20
-230.8912948569845
 30
0.0
 40
3.499999999999999
 41
0.0
 46
0.0
 71
     1
 72
     1
  1
{\fＭＳ ゴシック;\W0.830113;（あり又はなし）}
 73
     1
 44
1.0
  0
LINE
  5
3FF
330
1F
100
AcDbEntity
  8
1
  6
Continuous
 62
     7
370
     9
100
AcDbLine
 10
775.2966584810658
 20
-235.1844765349331
 30
0.0
 11
801.9972522045332
 21
-235.1844765349331
 31
0.0
  0
LINE
  5
400
330
1F
100
AcDbEntity
  8
1
  6
Continuous
 62
     7
370
     9
100
AcDbLine
 10
814.4642139773338
 20
-246.3809943203665
 30
0.0
 11
808.672400635433
 21
-230.6844765349331
 31
0.0
  0
LINE
  5
401
330
1F
100
AcDbEntity
  8
1
  6
Continuous
 62
     7
370
     9
100
AcDbLine
 10
808.672400635433
 20
-230.6844765349331
 30
0.0
 11
775.2966584810658
 21
-230.6844765349331
 31
0.0
  0
CIRCLE
  5
402
330
1F
100
AcDbEntity
  8
1
  6
Continuous
 62
     7
370
     9
100
AcDbCircle
 10
503.9468460719993
 20
-195.4374263811499
 30
0.0
 40
0.500000000000056
  0
MTEXT
  5
403
330
1F
100
AcDbEntity
  8
1
 62
     7
100
AcDbMText
 10
479.2474550235608
 20
-208.9033354328587
 30
0.0
 40
3.5
 41
0.0
 46
0.0
 71
     1
 72
     1
  1
{\fＭＳ ゴシック;\W0.83943;パテエース}
 73
     1
 44
1.0
  0
LINE
  5
404
330
1F
100
AcDbEntity
  8
1
  6
Continuous
 62
     7
370
     9
100
AcDbLine
 10
503.9468460719993
 20
-195.4374263811499
 30
0.0
 11
495.7350074477331
 21
-213.0374263811501
 31
0.0
  0
LINE
  5
405
330
1F
100
AcDbEntity
  8
1
  6
Continuous
 62
     7
370
     9
100
AcDbLine
 10
495.7350074477331
 20
-213.0374263811501
 30
0.0
 11
479.0471363705673
 21
-213.0374263811501
 31
0.0
  0
CIRCLE
  5
406
330
1F
100
AcDbEntity
  8
1
  6
Continuous
 62
     7
370
     9
100
AcDbCircle
 10
506.177870093235
 20
-292.9885141409499
 30
0.0
 40
0.500000000000056
  0
MTEXT
  5
407
330
1F
100
AcDbEntity
  8
1
 62
     7
100
AcDbMText
 10
466.2256143375949
 20
-303.711511553592
 30
0.0
 40
3.5
 41
0.0
 46
0.0
 71
     1
 72
     1
  1
{\fＭＳ ゴシック;\W0.83943;パテエース}
 73
     1
 44
1.0
  0
LINE
  5
408
330
1F
100
AcDbEntity
  8
1
  6
Continuous
 62
     7
370
     9
100
AcDbLine
 10
506.177870093235
 20
-292.9885141409499
 30
0.0
 11
482.7131668312347
 21
-307.8456023592165
 31
0.0
  0
LINE
  5
409
330
1F
100
AcDbEntity
  8
1
  6
Continuous
 62
     7
370
     9
100
AcDbLine
 10
482.7131668312347
 20
-307.8456023592165
 30
0.0
 11
466.0252957540677
 21
-307.8456023592165
 31
0.0
  0
CIRCLE
  5
40A
330
1F
100
AcDbEntity
  8
1
  6
Continuous
 62
     7
370
     9
100
AcDbCircle
 10
818.9468460720002
 20
-195.4374263810331
 30
0.0
 40
0.500000000000056
  0
MTEXT
  5
40B
330
1F
100
AcDbEntity
  8
1
 62
     7
100
AcDbMText
 10
794.247455028661
 20
-208.903335432742
 30
0.0
 40
3.499999999999999
 41
0.0
 46
0.0
 71
     1
 72
     1
  1
{\fＭＳ ゴシック;\W0.83943;パテエース}
 73
     1
 44
1.0
  0
LINE
  5
40C
330
1F
100
AcDbEntity
  8
1
  6
Continuous
 62
     7
370
     9
100
AcDbLine
 10
818.9468460720002
 20
-195.4374263810331
 30
0.0
 11
810.7350074477328
 21
-213.0374263810333
 31
0.0
  0
LINE
  5
40D
330
1F
100
AcDbEntity
  8
1
  6
Continuous
 62
     7
370
     9
100
AcDbLine
 10
810.7350074477329
 20
-213.0374263810333
 30
0.0
 11
794.0471363705672
 21
-213.0374263810333
 31
0.0
  0
ENDSEC
  0
SECTION
  2
OBJECTS
  0
DICTIONARY
  5
C
330
0
100
AcDbDictionary
281
     1
  3
ACAD_DETAILVIEWSTYLE
350
415
  3
ACAD_GROUP
350
D
  3
ACAD_LAYOUT
350
1A
  3
ACAD_MATERIAL
350
43
  3
ACAD_MLEADERSTYLE
350
6B
  3
ACAD_MLINESTYLE
350
17
  3
ACAD_PLOTSETTINGS
350
19
  3
ACAD_PLOTSTYLENAME
350
E
  3
ACAD_SCALELIST
350
47
  3
ACAD_SECTIONVIEWSTYLE
350
416
  3
ACAD_TABLESTYLE
350
69
  3
ACAD_VISUALSTYLE
350
2A
  3
ACDB_RECOMPOSE_DATA
350
412
  3
AcDbVariableDictionary
350
40E
  0
SUN
  5
6D
330
29
100
AcDbSun
 90
        1
290
     0
 63
     7
421
 16777215
 40
1.0
291
     1
 91
  2455826
 92
 54000000
292
     0
 70
     2
 71
   256
280
     1
  0
DICTIONARY
  5
415
102
{ACAD_REACTORS
330
C
102
}
330
C
100
AcDbDictionary
281
     1
  0
DICTIONARY
  5
D
102
{ACAD_REACTORS
330
C
102
}
330
C
100
AcDbDictionary
281
     1
  0
DICTIONARY
  5
1A
102
{ACAD_REACTORS
330
C
102
}
330
C
100
AcDbDictionary
281
     1
  3
Layout1
350
1E
  3
Layout2
350
26
  3
Model
350
22
  0
DICTIONARY
  5
43
102
{ACAD_REACTORS
330
C
102
}
330
C
100
AcDbDictionary
281
     1
  3
ByBlock
350
45
  3
ByLayer
350
44
  3
Global
350
46
  0
DICTIONARY
  5
6B
102
{ACAD_REACTORS
330
C
102
}
330
C
100
AcDbDictionary
281
     1
  3
Standard
350
6C
  0
DICTIONARY
  5
17
102
{ACAD_REACTORS
330
C
102
}
330
C
100
AcDbDictionary
281
     1
  3
Standard
350
18
  0
DICTIONARY
  5
19
102
{ACAD_REACTORS
330
C
102
}
330
C
100
AcDbDictionary
281
     1
  0
ACDBDICTIONARYWDFLT
  5
E
102
{ACAD_REACTORS
330
C
102
}
330
C
100
AcDbDictionary
281
     1
  3
Normal
350
F
100
AcDbDictionaryWithDefault
340
F
  0
DICTIONARY
  5
47
102
{ACAD_REACTORS
330
C
102
}
330
C
100
AcDbDictionary
281
     1
  3
A0
350
48
  3
A1
350
49
  3
A2
350
4A
  3
A3
350
4B
  3
A4
350
4C
  3
A5
350
4D
  3
A6
350
4E
  3
A7
350
4F
  3
A8
350
50
  3
A9
350
51
  3
B0
350
52
  3
B1
350
53
  3
B2
350
54
  3
B3
350
55
  3
B4
350
56
  3
B5
350
57
  3
B6
350
58
  3
B7
350
59
  3
B8
350
5A
  3
B9
350
5B
  3
C0
350
5C
  3
C1
350
5D
  3
C2
350
5E
  3
C3
350
5F
  3
C4
350
60
  3
C5
350
61
  3
C6
350
62
  3
C7
350
63
  3
C8
350
64
  3
C9
350
65
  3
D0
350
66
  3
D1
350
67
  3
D2
350
68
  0
DICTIONARY
  5
416
102
{ACAD_REACTORS
330
C
102
}
330
C
100
AcDbDictionary
281
     1
  0
DICTIONARY
  5
69
102
{ACAD_REACTORS
330
C
102
}
330
C
100
AcDbDictionary
281
     1
  3
Standard
350
6A
  0
DICTIONARY
  5
2A
102
{ACAD_REACTORS
330
C
102
}
330
C
100
AcDbDictionary
281
     1
  3
2dWireframe
350
2F
  3
Basic
350
32
  3
Brighten
350
36
  3
ColorChange
350
3A
  3
Conceptual
350
34
  3
Dim
350
35
  3
EdgeColorOff
350
3D
  3
Facepattern
350
39
  3
Flat
350
2B
  3
FlatWithEdges
350
2C
  3
Gouraud
350
2D
  3
GouraudWithEdges
350
2E
  3
Hidden
350
31
  3
JitterOff
350
3B
  3
Linepattern
350
38
  3
OverhangOff
350
3C
  3
Realistic
350
33
  3
Shaded
350
42
  3
Shaded with edges
350
41
  3
Shades of Gray
350
3E
  3
Sketchy
350
3F
  3
Thicken
350
37
  3
Wireframe
350
30
  3
X-Ray
350
40
  0
XRECORD
  5
412
102
{ACAD_REACTORS
330
C
102
}
330
C
100
AcDbXrecord
280
     1
 90
        1
330
6A
  0
DICTIONARY
  5
40E
102
{ACAD_REACTORS
330
C
102
}
330
C
100
AcDbDictionary
281
     1
  3
CANNOSCALE
350
40F
  3
CMLEADERSTYLE
350
414
  3
CTABLESTYLE
350
413
  0
LAYOUT
  5
1E
102
{ACAD_REACTORS
330
1A
102
}
330
1A
100
AcDbPlotSettings
  1

  2
none_device
  4

  6

 40
0.0
 41
0.0
 42
0.0
 43
0.0
 44
0.0
 45
0.0
 46
0.0
 47
0.0
 48
0.0
 49
0.0
140
0.0
141
0.0
142
1.0
143
1.0
 70
   688
 72
     0
 73
     0
 74
     5
  7

 75
    16
 76
     0
 77
     2
 78
   300
147
1.0
148
0.0
149
0.0
100
AcDbLayout
  1
Layout1
 70
     1
 71
     1
 10
0.0
 20
0.0
 11
12.0
 21
9.0
 12
0.0
 22
0.0
 32
0.0
 14
1.000000000000000E+20
 24
1.000000000000000E+20
 34
1.000000000000000E+20
 15
-1.000000000000000E+20
 25
-1.000000000000000E+20
 35
-1.000000000000000E+20
146
0.0
 13
0.0
 23
0.0
 33
0.0
 16
1.0
 26
0.0
 36
0.0
 17
0.0
 27
1.0
 37
0.0
 76
     0
330
1B
  0
LAYOUT
  5
26
102
{ACAD_REACTORS
330
1A
102
}
330
1A
100
AcDbPlotSettings
  1

  2
none_device
  4

  6

 40
0.0
 41
0.0
 42
0.0
 43
0.0
 44
0.0
 45
0.0
 46
0.0
 47
0.0
 48
0.0
 49
0.0
140
0.0
141
0.0
142
1.0
143
1.0
 70
   688
 72
     0
 73
     0
 74
     5
  7

 75
    16
 76
     0
 77
     2
 78
   300
147
1.0
148
0.0
149
0.0
100
AcDbLayout
  1
Layout2
 70
     1
 71
     2
 10
0.0
 20
0.0
 11
0.0
 21
0.0
 12
0.0
 22
0.0
 32
0.0
 14
0.0
 24
0.0
 34
0.0
 15
0.0
 25
0.0
 35
0.0
146
0.0
 13
0.0
 23
0.0
 33
0.0
 16
1.0
 26
0.0
 36
0.0
 17
0.0
 27
1.0
 37
0.0
 76
     0
330
23
  0
LAYOUT
  5
22
102
{ACAD_REACTORS
330
1A
102
}
330
1A
100
AcDbPlotSettings
  1

  2
none_device
  4
Letter_(8.50_x_11.00_Inches)
  6

 40
6.35
 41
6.35
 42
6.35000508
 43
6.35000508
 44
215.9
 45
279.4
 46
0.0
 47
0.0
 48
0.0
 49
0.0
140
0.0
141
0.0
142
1.0
143
1.0
 70
  1712
 72
     0
 73
     0
 74
     0
  7

 75
     0
 76
     0
 77
     2
 78
   300
147
1.0
148
0.0
149
0.0
100
AcDbLayout
  1
Model
 70
     1
 71
     0
 10
0.0
 20
0.0
 11
12.0
 21
9.0
 12
0.0
 22
0.0
 32
0.0
 14
405.0499999999996
 24
-396.0000000000998
 34
0.0
 15
929.9499999999999
 25
-19.9618090822848
 35
0.0
146
0.0
 13
0.0
 23
0.0
 33
0.0
 16
1.0
 26
0.0
 36
0.0
 17
0.0
 27
1.0
 37
0.0
 76
     0
330
1F
331
29
  0
MATERIAL
  5
45
102
{ACAD_REACTORS
330
43
102
}
330
43
100
AcDbMaterial
  1
ByBlock
 72
     1
 94
      127
  0
MATERIAL
  5
44
102
{ACAD_REACTORS
330
43
102
}
330
43
100
AcDbMaterial
  1
ByLayer
 72
     1
 94
      127
  0
MATERIAL
  5
46
102
{ACAD_REACTORS
330
43
102
}
330
43
100
AcDbMaterial
  1
Global
 72
     1
 94
      127
  0
MLEADERSTYLE
  5
6C
102
{ACAD_REACTORS
330
6B
102
}
330
6B
100
AcDbMLeaderStyle
179
     2
170
     2
171
     1
172
     0
 90
        2
 40
0.0
 41
0.0
173
     1
 91
-1056964608
340
14
 92
       -2
290
     1
 42
0.09
291
     1
 43
0.36
  3
Standard
341
0
 44
0.18
300

342
11
174
     1
178
     6
175
     1
176
     0
 93
-1056964608
 45
0.18
292
     0
297
     0
 46
0.18
343
0
 94
-1056964608
 47
1.0
 49
1.0
140
1.0
293
     1
141
0.0
294
     1
177
     0
142
1.0
295
     0
296
     0
143
0.125
271
     0
272
     9
273
     9
298
     0
  0
MLINESTYLE
  5
18
102
{ACAD_REACTORS
330
17
102
}
330
17
100
AcDbMlineStyle
  2
Standard
 70
     0
  3

 62
   256
 51
90.0
 52
90.0
 71
     2
 49
0.5
 62
   256
  6
BYLAYER
 49
-0.5
 62
   256
  6
BYLAYER
  0
ACDBPLACEHOLDER
  5
F
102
{ACAD_REACTORS
330
E
102
}
330
E
  0
SCALE
  5
48
102
{ACAD_REACTORS
330
47
102
}
330
47
100
AcDbScale
 70
     0
300
1:1
140
1.0
141
1.0
290
     1
  0
SCALE
  5
49
102
{ACAD_REACTORS
330
47
102
}
330
47
100
AcDbScale
 70
     0
300
1:2
140
1.0
141
2.0
290
     0
  0
SCALE
  5
4A
102
{ACAD_REACTORS
330
47
102
}
330
47
100
AcDbScale
 70
     0
300
1:4
140
1.0
141
4.0
290
     0
  0
SCALE
  5
4B
102
{ACAD_REACTORS
330
47
102
}
330
47
100
AcDbScale
 70
     0
300
1:5
140
1.0
141
5.0
290
     0
  0
SCALE
  5
4C
102
{ACAD_REACTORS
330
47
102
}
330
47
100
AcDbScale
 70
     0
300
1:8
140
1.0
141
8.0
290
     0
  0
SCALE
  5
4D
102
{ACAD_REACTORS
330
47
102
}
330
47
100
AcDbScale
 70
     0
300
1:10
140
1.0
141
10.0
290
     0
  0
SCALE
  5
4E
102
{ACAD_REACTORS
330
47
102
}
330
47
100
AcDbScale
 70
     0
300
1:16
140
1.0
141
16.0
290
     0
  0
SCALE
  5
4F
102
{ACAD_REACTORS
330
47
102
}
330
47
100
AcDbScale
 70
     0
300
1:20
140
1.0
141
20.0
290
     0
  0
SCALE
  5
50
102
{ACAD_REACTORS
330
47
102
}
330
47
100
AcDbScale
 70
     0
300
1:30
140
1.0
141
30.0
290
     0
  0
SCALE
  5
51
102
{ACAD_REACTORS
330
47
102
}
330
47
100
AcDbScale
 70
     0
300
1:40
140
1.0
141
40.0
290
     0
  0
SCALE
  5
52
102
{ACAD_REACTORS
330
47
102
}
330
47
100
AcDbScale
 70
     0
300
1:50
140
1.0
141
50.0
290
     0
  0
SCALE
  5
53
102
{ACAD_REACTORS
330
47
102
}
330
47
100
AcDbScale
 70
     0
300
1:100
140
1.0
141
100.0
290
     0
  0
SCALE
  5
54
102
{ACAD_REACTORS
330
47
102
}
330
47
100
AcDbScale
 70
     0
300
2:1
140
2.0
141
1.0
290
     0
  0
SCALE
  5
55
102
{ACAD_REACTORS
330
47
102
}
330
47
100
AcDbScale
 70
     0
300
4:1
140
4.0
141
1.0
290
     0
  0
SCALE
  5
56
102
{ACAD_REACTORS
330
47
102
}
330
47
100
AcDbScale
 70
     0
300
8:1
140
8.0
141
1.0
290
     0
  0
SCALE
  5
57
102
{ACAD_REACTORS
330
47
102
}
330
47
100
AcDbScale
 70
     0
300
10:1
140
10.0
141
1.0
290
     0
  0
SCALE
  5
58
102
{ACAD_REACTORS
330
47
102
}
330
47
100
AcDbScale
 70
     0
300
100:1
140
100.0
141
1.0
290
     0
  0
SCALE
  5
59
102
{ACAD_REACTORS
330
47
102
}
330
47
100
AcDbScale
 70
     0
300
1/128" = 1'-0"
140
0.0078125
141
12.0
290
     0
  0
SCALE
  5
5A
102
{ACAD_REACTORS
330
47
102
}
330
47
100
AcDbScale
 70
     0
300
1/64" = 1'-0"
140
0.015625
141
12.0
290
     0
  0
SCALE
  5
5B
102
{ACAD_REACTORS
330
47
102
}
330
47
100
AcDbScale
 70
     0
300
1/32" = 1'-0"
140
0.03125
141
12.0
290
     0
  0
SCALE
  5
5C
102
{ACAD_REACTORS
330
47
102
}
330
47
100
AcDbScale
 70
     0
300
1/16" = 1'-0"
140
0.0625
141
12.0
290
     0
  0
SCALE
  5
5D
102
{ACAD_REACTORS
330
47
102
}
330
47
100
AcDbScale
 70
     0
300
3/32" = 1'-0"
140
0.09375
141
12.0
290
     0
  0
SCALE
  5
5E
102
{ACAD_REACTORS
330
47
102
}
330
47
100
AcDbScale
 70
     0
300
1/8" = 1'-0"
140
0.125
141
12.0
290
     0
  0
SCALE
  5
5F
102
{ACAD_REACTORS
330
47
102
}
330
47
100
AcDbScale
 70
     0
300
3/16" = 1'-0"
140
0.1875
141
12.0
290
     0
  0
SCALE
  5
60
102
{ACAD_REACTORS
330
47
102
}
330
47
100
AcDbScale
 70
     0
300
1/4" = 1'-0"
140
0.25
141
12.0
290
     0
  0
SCALE
  5
61
102
{ACAD_REACTORS
330
47
102
}
330
47
100
AcDbScale
 70
     0
300
3/8" = 1'-0"
140
0.375
141
12.0
290
     0
  0
SCALE
  5
62
102
{ACAD_REACTORS
330
47
102
}
330
47
100
AcDbScale
 70
     0
300
1/2" = 1'-0"
140
0.5
141
12.0
290
     0
  0
SCALE
  5
63
102
{ACAD_REACTORS
330
47
102
}
330
47
100
AcDbScale
 70
     0
300
3/4" = 1'-0"
140
0.75
141
12.0
290
     0
  0
SCALE
  5
64
102
{ACAD_REACTORS
330
47
102
}
330
47
100
AcDbScale
 70
     0
300
1" = 1'-0"
140
1.0
141
12.0
290
     0
  0
SCALE
  5
65
102
{ACAD_REACTORS
330
47
102
}
330
47
100
AcDbScale
 70
     0
300
1-1/2" = 1'-0"
140
1.5
141
12.0
290
     0
  0
SCALE
  5
66
102
{ACAD_REACTORS
330
47
102
}
330
47
100
AcDbScale
 70
     0
300
3" = 1'-0"
140
3.0
141
12.0
290
     0
  0
SCALE
  5
67
102
{ACAD_REACTORS
330
47
102
}
330
47
100
AcDbScale
 70
     0
300
6" = 1'-0"
140
6.0
141
12.0
290
     0
  0
SCALE
  5
68
102
{ACAD_REACTORS
330
47
102
}
330
47
100
AcDbScale
 70
     0
300
1'-0" = 1'-0"
140
12.0
141
12.0
290
     0
  0
TABLESTYLE
  5
6A
102
{ACAD_REACTORS
330
69
102
}
102
{ACAD_XDICTIONARY
360
410
102
}
330
69
100
AcDbTableStyle
  3
Standard
 70
     0
 71
     0
 40
0.06
 41
0.06
280
     0
281
     0
  7
Standard
140
0.18
170
     2
 62
     0
 63
   257
283
     0
 90
        4
 91
        0
  1

274
    -2
284
     1
 64
     0
275
    -2
285
     1
 65
     0
276
    -2
286
     1
 66
     0
277
    -2
287
     1
 67
     0
278
    -2
288
     1
 68
     0
279
    -2
289
     1
 69
     0
  7
Standard
140
0.25
170
     5
 62
     0
 63
   257
283
     0
 90
        4
 91
        0
  1

274
    -2
284
     1
 64
     0
275
    -2
285
     1
 65
     0
276
    -2
286
     1
 66
     0
277
    -2
287
     1
 67
     0
278
    -2
288
     1
 68
     0
279
    -2
289
     1
 69
     0
  7
Standard
140
0.18
170
     5
 62
     0
 63
   257
283
     0
 90
        4
 91
        0
  1

274
    -2
284
     1
 64
     0
275
    -2
285
     1
 65
     0
276
    -2
286
     1
 66
     0
277
    -2
287
     1
 67
     0
278
    -2
288
     1
 68
     0
279
    -2
289
     1
 69
     0
  0
VISUALSTYLE
  5
2F
102
{ACAD_REACTORS
330
2A
102
}
330
2A
100
AcDbVisualStyle
  2
2dWireframe
 70
     4
177
     3
291
     0
 70
    58
 90
        0
176
     1
 90
        2
176
     1
 90
        0
176
     1
 90
        0
176
     1
 40
0.6
176
     1
 40
30.0
176
     1
 62
     7
420
 16777215
176
     1
 90
        1
176
     1
 90
        4
176
     1
 62
     7
176
     1
 62
   257
176
     1
 90
        1
176
     1
 90
        1
176
     1
 40
1.0
176
     1
 90
        0
176
     1
 62
   257
176
     1
 40
1.0
176
     1
 90
        1
176
     1
 90
        6
176
     1
 90
        2
176
     1
 62
     7
176
     1
 90
        5
176
     1
 90
        0
176
     1
 90
        0
176
     1
290
     0
176
     1
 90
        1
176
     1
 40
0.0
176
     1
 90
        0
176
     1
290
     1
176
     1
290
     1
176
     1
290
     0
176
     1
290
     0
176
     1
290
     0
176
     1
290
     0
176
     1
290
     0
176
     1
290
     0
176
     1
290
     0
176
     1
 90
       50
176
     1
 40
0.0
176
     1
 40
1.0
176
     1
 90
        0
176
     1
 62
    18
420
        0
176
     1
 90
       50
176
     1
 90
        3
176
     1
 62
     5
420
      255
176
     1
290
     0
176
     1
 90
       50
176
     1
 90
       50
176
     1
 90
       50
176
     1
290
     0
176
     1
 90
       50
176
     1
 62
   256
176
     0
 40
1.0
176
     0
 90
        2
176
     1
  1
strokes_ogs.tif
176
     1
290
     0
176
     1
 40
1.0
176
     1
 40
1.0
176
     1
  0
VISUALSTYLE
  5
32
102
{ACAD_REACTORS
330
2A
102
}
330
2A
100
AcDbVisualStyle
  2
Basic
 70
     7
177
     3
291
     1
 70
    58
 90
        1
176
     1
 90
        0
176
     1
 90
        1
176
     1
 90
        0
176
     1
 40
0.6
176
     1
 40
30.0
176
     1
 62
     7
420
 16777215
176
     1
 90
        0
176
     1
 90
        4
176
     1
 62
     7
176
     1
 62
   257
176
     1
 90
        1
176
     1
 90
        1
176
     1
 40
1.0
176
     1
 90
        8
176
     1
 62
     7
176
     1
 40
1.0
176
     1
 90
        1
176
     1
 90
        6
176
     1
 90
        2
176
     1
 62
     7
176
     1
 90
        5
176
     1
 90
        0
176
     1
 90
        0
176
     1
290
     0
176
     1
 90
        1
176
     1
 40
0.0
176
     1
 90
        0
176
     1
290
     0
176
     1
290
     1
176
     1
290
     1
176
     1
290
     0
176
     1
290
     0
176
     1
290
     0
176
     1
290
     0
176
     1
290
     0
176
     1
290
     0
176
     1
 90
       50
176
     1
 40
0.0
176
     1
 40
1.0
176
     1
 90
        0
176
     1
 62
    18
420
        0
176
     1
 90
       50
176
     1
 90
        3
176
     1
 62
     5
420
      255
176
     1
290
     0
176
     1
 90
       50
176
     1
 90
       50
176
     1
 90
       50
176
     1
290
     0
176
     1
 90
       50
176
     1
 62
   256
176
     0
 40
1.0
176
     0
 90
        2
176
     1
  1
strokes_ogs.tif
176
     1
290
     0
176
     1
 40
1.0
176
     1
 40
1.0
176
     1
  0
VISUALSTYLE
  5
36
102
{ACAD_REACTORS
330
2A
102
}
330
2A
100
AcDbVisualStyle
  2
Brighten
 70
    12
177
     3
291
     1
 70
    58
 90
        2
176
     1
 90
        2
176
     1
 90
        0
176
     1
 90
        0
176
     1
 40
0.6
176
     1
 40
30.0
176
     1
 62
     7
420
 16777215
176
     1
 90
        1
176
     1
 90
        4
176
     1
 62
     7
176
     1
 62
   257
176
     1
 90
        1
176
     1
 90
        1
176
     1
 40
1.0
176
     1
 90
        8
176
     1
 62
     7
176
     1
 40
1.0
176
     1
 90
        1
176
     1
 90
        6
176
     1
 90
        2
176
     1
 62
     7
176
     1
 90
        5
176
     1
 90
        0
176
     1
 90
        0
176
     1
290
     0
176
     1
 90
        1
176
     1
 40
50.0
176
     1
 90
        0
176
     1
290
     0
176
     1
290
     1
176
     1
290
     1
176
     1
290
     0
176
     1
290
     0
176
     1
290
     0
176
     1
290
     0
176
     1
290
     0
176
     1
290
     0
176
     1
 90
       50
176
     1
 40
0.0
176
     1
 40
1.0
176
     1
 90
        0
176
     1
 62
    18
420
        0
176
     1
 90
       50
176
     1
 90
        3
176
     1
 62
     5
420
      255
176
     1
290
     0
176
     1
 90
       50
176
     1
 90
       50
176
     1
 90
       50
176
     1
290
     0
176
     1
 90
       50
176
     1
 62
   256
176
     0
 40
1.0
176
     0
 90
        2
176
     1
  1
strokes_ogs.tif
176
     1
290
     0
176
     1
 40
1.0
176
     1
 40
1.0
176
     1
  0
VISUALSTYLE
  5
3A
102
{ACAD_REACTORS
330
2A
102
}
330
2A
100
AcDbVisualStyle
  2
ColorChange
 70
    16
177
     3
291
     1
 70
    58
 90
        2
176
     1
 90
        2
176
     1
 90
        3
176
     1
 90
        0
176
     1
 40
0.6
176
     1
 40
30.0
176
     1
 62
     8
420
  8421504
176
     1
 90
        1
176
     1
 90
        4
176
     1
 62
     7
176
     1
 62
   257
176
     1
 90
        1
176
     1
 90
        1
176
     1
 40
1.0
176
     1
 90
        8
176
     1
 62
     8
420
  8421504
176
     1
 40
1.0
176
     1
 90
        1
176
     1
 90
        6
176
     1
 90
        2
176
     1
 62
     7
176
     1
 90
        5
176
     1
 90
        0
176
     1
 90
        0
176
     1
290
     0
176
     1
 90
        1
176
     1
 40
0.0
176
     1
 90
        0
176
     1
290
     0
176
     1
290
     1
176
     1
290
     1
176
     1
290
     0
176
     1
290
     0
176
     1
290
     0
176
     1
290
     0
176
     1
290
     0
176
     1
290
     0
176
     1
 90
       50
176
     1
 40
0.0
176
     1
 40
1.0
176
     1
 90
        0
176
     1
 62
    18
420
        0
176
     1
 90
       50
176
     1
 90
        3
176
     1
 62
     5
420
      255
176
     1
290
     0
176
     1
 90
       50
176
     1
 90
       50
176
     1
 90
       50
176
     1
290
     0
176
     1
 90
       50
176
     1
 62
   256
176
     0
 40
1.0
176
     0
 90
        2
176
     1
  1
strokes_ogs.tif
176
     1
290
     0
176
     1
 40
1.0
176
     1
 40
1.0
176
     1
  0
VISUALSTYLE
  5
34
102
{ACAD_REACTORS
330
2A
102
}
330
2A
100
AcDbVisualStyle
  2
Conceptual
 70
     9
177
     3
291
     0
 70
    58
 90
        3
176
     1
 90
        2
176
     1
 90
        0
176
     1
 90
        0
176
     1
 40
0.6
176
     1
 40
30.0
176
     1
 62
     7
420
 16777215
176
     1
 90
        2
176
     1
 90
        2
176
     1
 62
     7
176
     1
 62
   257
176
     1
 90
        1
176
     1
 90
        1
176
     1
 40
179.0
176
     1
 90
        8
176
     1
 62
     7
176
     1
 40
1.0
176
     1
 90
        1
176
     1
 90
        6
176
     1
 90
        2
176
     1
 62
     7
176
     1
 90
        3
176
     1
 90
        0
176
     1
 90
        0
176
     1
290
     0
176
     1
 90
        1
176
     1
 40
0.0
176
     1
 90
        0
176
     1
290
     0
176
     1
290
     1
176
     1
290
     1
176
     1
290
     0
176
     1
290
     0
176
     1
290
     0
176
     1
290
     0
176
     1
290
     0
176
     1
290
     0
176
     1
 90
       50
176
     1
 40
0.0
176
     1
 40
1.0
176
     1
 90
        0
176
     1
 62
    18
420
        0
176
     1
 90
       50
176
     1
 90
        3
176
     1
 62
     5
420
      255
176
     1
290
     0
176
     1
 90
       50
176
     1
 90
       50
176
     1
 90
       50
176
     1
290
     0
176
     1
 90
       50
176
     1
 62
   256
176
     0
 40
1.0
176
     0
 90
        2
176
     1
  1
strokes_ogs.tif
176
     1
290
     0
176
     1
 40
1.0
176
     1
 40
1.0
176
     1
  0
VISUALSTYLE
  5
35
102
{ACAD_REACTORS
330
2A
102
}
330
2A
100
AcDbVisualStyle
  2
Dim
 70
    11
177
     3
291
     1
 70
    58
 90
        2
176
     1
 90
        2
176
     1
 90
        0
176
     1
 90
        0
176
     1
 40
0.6
176
     1
 40
30.0
176
     1
 62
     7
420
 16777215
176
     1
 90
        1
176
     1
 90
        4
176
     1
 62
     7
176
     1
 62
   257
176
     1
 90
        1
176
     1
 90
        1
176
     1
 40
1.0
176
     1
 90
        8
176
     1
 62
     7
176
     1
 40
1.0
176
     1
 90
        1
176
     1
 90
        6
176
     1
 90
        2
176
     1
 62
     7
176
     1
 90
        5
176
     1
 90
        0
176
     1
 90
        0
176
     1
290
     0
176
     1
 90
        1
176
     1
 40
-50.0
176
     1
 90
        0
176
     1
290
     0
176
     1
290
     1
176
     1
290
     1
176
     1
290
     0
176
     1
290
     0
176
     1
290
     0
176
     1
290
     0
176
     1
290
     0
176
     1
290
     0
176
     1
 90
       50
176
     1
 40
0.0
176
     1
 40
1.0
176
     1
 90
        0
176
     1
 62
    18
420
        0
176
     1
 90
       50
176
     1
 90
        3
176
     1
 62
     5
420
      255
176
     1
290
     0
176
     1
 90
       50
176
     1
 90
       50
176
     1
 90
       50
176
     1
290
     0
176
     1
 90
       50
176
     1
 62
   256
176
     0
 40
1.0
176
     0
 90
        2
176
     1
  1
strokes_ogs.tif
176
     1
290
     0
176
     1
 40
1.0
176
     1
 40
1.0
176
     1
  0
VISUALSTYLE
  5
3D
102
{ACAD_REACTORS
330
2A
102
}
330
2A
100
AcDbVisualStyle
  2
EdgeColorOff
 70
    22
177
     3
291
     1
 70
    58
 90
        2
176
     0
 90
        2
176
     0
 90
        0
176
     0
 90
        0
176
     0
 40
0.6
176
     0
 40
30.0
176
     0
 62
     7
420
 16777215
176
     0
 90
        1
176
     0
 90
        4
176
     0
 62
     7
176
     0
 62
   257
176
     0
 90
        1
176
     0
 90
        1
176
     0
 40
1.0
176
     0
 90
        8
176
     2
 62
     7
176
     0
 40
1.0
176
     0
 90
        1
176
     0
 90
        6
176
     0
 90
        2
176
     0
 62
     7
176
     0
 90
        5
176
     0
 90
        0
176
     0
 90
        0
176
     0
290
     0
176
     0
 90
        1
176
     0
 40
0.0
176
     0
 90
        0
176
     0
290
     0
176
     0
290
     1
176
     0
290
     1
176
     0
290
     0
176
     0
290
     0
176
     0
290
     0
176
     0
290
     0
176
     0
290
     0
176
     0
290
     0
176
     0
 90
       50
176
     0
 40
0.0
176
     0
 40
1.0
176
     0
 90
        0
176
     0
 62
    18
420
        0
176
     0
 90
       50
176
     0
 90
        3
176
     0
 62
     5
420
      255
176
     0
290
     0
176
     0
 90
       50
176
     0
 90
       50
176
     0
 90
       50
176
     0
290
     0
176
     0
 90
       50
176
     0
 62
   256
176
     0
 40
1.0
176
     0
 90
        2
176
     0
  1
strokes_ogs.tif
176
     0
290
     0
176
     0
 40
1.0
176
     0
 40
1.0
176
     0
  0
VISUALSTYLE
  5
39
102
{ACAD_REACTORS
330
2A
102
}
330
2A
100
AcDbVisualStyle
  2
Facepattern
 70
    15
177
     3
291
     1
 70
    58
 90
        2
176
     1
 90
        2
176
     1
 90
        0
176
     1
 90
        0
176
     1
 40
0.6
176
     1
 40
30.0
176
     1
 62
     7
420
 16777215
176
     1
 90
        1
176
     1
 90
        4
176
     1
 62
     7
176
     1
 62
   257
176
     1
 90
        1
176
     1
 90
        1
176
     1
 40
1.0
176
     1
 90
        8
176
     1
 62
     7
176
     1
 40
1.0
176
     1
 90
        1
176
     1
 90
        6
176
     1
 90
        2
176
     1
 62
     7
176
     1
 90
        5
176
     1
 90
        0
176
     1
 90
        0
176
     1
290
     0
176
     1
 90
        1
176
     1
 40
0.0
176
     1
 90
        0
176
     1
290
     0
176
     1
290
     1
176
     1
290
     1
176
     1
290
     0
176
     1
290
     0
176
     1
290
     0
176
     1
290
     0
176
     1
290
     0
176
     1
290
     0
176
     1
 90
       50
176
     1
 40
0.0
176
     1
 40
1.0
176
     1
 90
        0
176
     1
 62
    18
420
        0
176
     1
 90
       50
176
     1
 90
        3
176
     1
 62
     5
420
      255
176
     1
290
     0
176
     1
 90
       50
176
     1
 90
       50
176
     1
 90
       50
176
     1
290
     0
176
     1
 90
       50
176
     1
 62
   256
176
     0
 40
1.0
176
     0
 90
        2
176
     1
  1
strokes_ogs.tif
176
     1
290
     0
176
     1
 40
1.0
176
     1
 40
1.0
176
     1
  0
VISUALSTYLE
  5
2B
102
{ACAD_REACTORS
330
2A
102
}
330
2A
100
AcDbVisualStyle
  2
Flat
 70
     0
177
     3
291
     1
 70
    58
 90
        2
176
     1
 90
        1
176
     1
 90
        1
176
     1
 90
        2
176
     1
 40
0.6
176
     1
 40
30.0
176
     1
 62
     7
420
 16777215
176
     1
 90
        0
176
     1
 90
        0
176
     1
 62
     7
176
     1
 62
   257
176
     1
 90
        1
176
     1
 90
        1
176
     1
 40
1.0
176
     1
 90
        8
176
     1
 62
     7
176
     1
 40
1.0
176
     1
 90
        1
176
     1
 90
        6
176
     1
 90
        2
176
     1
 62
     7
176
     1
 90
        5
176
     1
 90
        0
176
     1
 90
        0
176
     1
290
     0
176
     1
 90
       13
176
     1
 40
0.0
176
     1
 90
        0
176
     1
290
     0
176
     1
290
     1
176
     1
290
     1
176
     1
290
     0
176
     1
290
     0
176
     1
290
     0
176
     1
290
     0
176
     1
290
     0
176
     1
290
     0
176
     1
 90
       50
176
     1
 40
0.0
176
     1
 40
1.0
176
     1
 90
        0
176
     1
 62
    18
420
        0
176
     1
 90
       50
176
     1
 90
        3
176
     1
 62
     5
420
      255
176
     1
290
     0
176
     1
 90
       50
176
     1
 90
       50
176
     1
 90
       50
176
     1
290
     0
176
     1
 90
       50
176
     1
 62
   256
176
     0
 40
1.0
176
     0
 90
        2
176
     1
  1
strokes_ogs.tif
176
     1
290
     0
176
     1
 40
1.0
176
     1
 40
1.0
176
     1
  0
VISUALSTYLE
  5
2C
102
{ACAD_REACTORS
330
2A
102
}
330
2A
100
AcDbVisualStyle
  2
FlatWithEdges
 70
     1
177
     3
291
     1
 70
    58
 90
        2
176
     1
 90
        1
176
     1
 90
        1
176
     1
 90
        2
176
     1
 40
0.6
176
     1
 40
30.0
176
     1
 62
     7
420
 16777215
176
     1
 90
        1
176
     1
 90
        0
176
     1
 62
     7
176
     1
 62
   257
176
     1
 90
        1
176
     1
 90
        1
176
     1
 40
1.0
176
     1
 90
        0
176
     1
 62
   257
176
     1
 40
1.0
176
     1
 90
        1
176
     1
 90
        6
176
     1
 90
        2
176
     1
 62
     7
176
     1
 90
        5
176
     1
 90
        0
176
     1
 90
        0
176
     1
290
     0
176
     1
 90
       13
176
     1
 40
0.0
176
     1
 90
        0
176
     1
290
     0
176
     1
290
     1
176
     1
290
     1
176
     1
290
     0
176
     1
290
     0
176
     1
290
     0
176
     1
290
     0
176
     1
290
     0
176
     1
290
     0
176
     1
 90
       50
176
     1
 40
0.0
176
     1
 40
1.0
176
     1
 90
        0
176
     1
 62
    18
420
        0
176
     1
 90
       50
176
     1
 90
        3
176
     1
 62
     5
420
      255
176
     1
290
     0
176
     1
 90
       50
176
     1
 90
       50
176
     1
 90
       50
176
     1
290
     0
176
     1
 90
       50
176
     1
 62
   256
176
     0
 40
1.0
176
     0
 90
        2
176
     1
  1
strokes_ogs.tif
176
     1
290
     0
176
     1
 40
1.0
176
     1
 40
1.0
176
     1
  0
VISUALSTYLE
  5
2D
102
{ACAD_REACTORS
330
2A
102
}
330
2A
100
AcDbVisualStyle
  2
Gouraud
 70
     2
177
     3
291
     1
 70
    58
 90
        2
176
     1
 90
        2
176
     1
 90
        1
176
     1
 90
        2
176
     1
 40
0.6
176
     1
 40
30.0
176
     1
 62
     7
420
 16777215
176
     1
 90
        0
176
     1
 90
        0
176
     1
 62
     7
176
     1
 62
   257
176
     1
 90
        1
176
     1
 90
        1
176
     1
 40
1.0
176
     1
 90
        0
176
     1
 62
     7
176
     1
 40
1.0
176
     1
 90
        1
176
     1
 90
        6
176
     1
 90
        2
176
     1
 62
     7
176
     1
 90
        5
176
     1
 90
        0
176
     1
 90
        0
176
     1
290
     0
176
     1
 90
       13
176
     1
 40
0.0
176
     1
 90
        0
176
     1
290
     0
176
     1
290
     1
176
     1
290
     1
176
     1
290
     0
176
     1
290
     0
176
     1
290
     0
176
     1
290
     0
176
     1
290
     0
176
     1
290
     0
176
     1
 90
       50
176
     1
 40
0.0
176
     1
 40
1.0
176
     1
 90
        0
176
     1
 62
    18
420
        0
176
     1
 90
       50
176
     1
 90
        3
176
     1
 62
     5
420
      255
176
     1
290
     0
176
     1
 90
       50
176
     1
 90
       50
176
     1
 90
       50
176
     1
290
     0
176
     1
 90
       50
176
     1
 62
   256
176
     0
 40
1.0
176
     0
 90
        2
176
     1
  1
strokes_ogs.tif
176
     1
290
     0
176
     1
 40
1.0
176
     1
 40
1.0
176
     1
  0
VISUALSTYLE
  5
2E
102
{ACAD_REACTORS
330
2A
102
}
330
2A
100
AcDbVisualStyle
  2
GouraudWithEdges
 70
     3
177
     3
291
     1
 70
    58
 90
        2
176
     1
 90
        2
176
     1
 90
        1
176
     1
 90
        2
176
     1
 40
0.6
176
     1
 40
30.0
176
     1
 62
     7
420
 16777215
176
     1
 90
        1
176
     1
 90
        0
176
     1
 62
     7
176
     1
 62
   257
176
     1
 90
        1
176
     1
 90
        1
176
     1
 40
1.0
176
     1
 90
        0
176
     1
 62
   257
176
     1
 40
1.0
176
     1
 90
        1
176
     1
 90
        6
176
     1
 90
        2
176
     1
 62
     7
176
     1
 90
        5
176
     1
 90
        0
176
     1
 90
        0
176
     1
290
     0
176
     1
 90
       13
176
     1
 40
0.0
176
     1
 90
        0
176
     1
290
     0
176
     1
290
     1
176
     1
290
     1
176
     1
290
     0
176
     1
290
     0
176
     1
290
     0
176
     1
290
     0
176
     1
290
     0
176
     1
290
     0
176
     1
 90
       50
176
     1
 40
0.0
176
     1
 40
1.0
176
     1
 90
        0
176
     1
 62
    18
420
        0
176
     1
 90
       50
176
     1
 90
        3
176
     1
 62
     5
420
      255
176
     1
290
     0
176
     1
 90
       50
176
     1
 90
       50
176
     1
 90
       50
176
     1
290
     0
176
     1
 90
       50
176
     1
 62
   256
176
     0
 40
1.0
176
     0
 90
        2
176
     1
  1
strokes_ogs.tif
176
     1
290
     0
176
     1
 40
1.0
176
     1
 40
1.0
176
     1
  0
VISUALSTYLE
  5
31
102
{ACAD_REACTORS
330
2A
102
}
330
2A
100
AcDbVisualStyle
  2
Hidden
 70
     6
177
     3
291
     0
 70
    58
 90
        1
176
     1
 90
        2
176
     1
 90
        2
176
     1
 90
        0
176
     1
 40
0.6
176
     1
 40
30.0
176
     1
 62
     7
420
 16777215
176
     1
 90
        2
176
     1
 90
        2
176
     1
 62
     7
176
     1
 62
   257
176
     1
 90
        2
176
     1
 90
        1
176
     1
 40
40.0
176
     1
 90
        0
176
     1
 62
   257
176
     1
 40
1.0
176
     1
 90
        1
176
     1
 90
        6
176
     1
 90
        2
176
     1
 62
     7
176
     1
 90
        3
176
     1
 90
        0
176
     1
 90
        0
176
     1
290
     0
176
     1
 90
        1
176
     1
 40
0.0
176
     1
 90
        0
176
     1
290
     0
176
     1
290
     1
176
     1
290
     1
176
     1
290
     0
176
     1
290
     0
176
     1
290
     0
176
     1
290
     0
176
     1
290
     0
176
     1
290
     0
176
     1
 90
       50
176
     1
 40
0.0
176
     1
 40
1.0
176
     1
 90
        0
176
     1
 62
    18
420
        0
176
     1
 90
       50
176
     1
 90
        3
176
     1
 62
     5
420
      255
176
     1
290
     0
176
     1
 90
       50
176
     1
 90
       50
176
     1
 90
       50
176
     1
290
     0
176
     1
 90
       50
176
     1
 62
   256
176
     0
 40
1.0
176
     0
 90
        2
176
     1
  1
strokes_ogs.tif
176
     1
290
     0
176
     1
 40
1.0
176
     1
 40
1.0
176
     1
  0
VISUALSTYLE
  5
3B
102
{ACAD_REACTORS
330
2A
102
}
330
2A
100
AcDbVisualStyle
  2
JitterOff
 70
    20
177
     3
291
     1
 70
    58
 90
        2
176
     0
 90
        2
176
     0
 90
        0
176
     0
 90
        0
176
     0
 40
0.6
176
     0
 40
30.0
176
     0
 62
     7
420
 16777215
176
     0
 90
        1
176
     0
 90
        4
176
     0
 62
     7
176
     0
 62
   257
176
     0
 90
        1
176
     0
 90
        1
176
     0
 40
1.0
176
     0
 90
       10
176
     2
 62
     7
176
     0
 40
1.0
176
     0
 90
        1
176
     0
 90
        6
176
     0
 90
        2
176
     0
 62
     7
176
     0
 90
        5
176
     0
 90
        0
176
     0
 90
        0
176
     0
290
     0
176
     0
 90
        1
176
     0
 40
0.0
176
     0
 90
        0
176
     0
290
     0
176
     0
290
     1
176
     0
290
     1
176
     0
290
     0
176
     0
290
     0
176
     0
290
     0
176
     0
290
     0
176
     0
290
     0
176
     0
290
     0
176
     0
 90
       50
176
     0
 40
0.0
176
     0
 40
1.0
176
     0
 90
        0
176
     0
 62
    18
420
        0
176
     0
 90
       50
176
     0
 90
        3
176
     0
 62
     5
420
      255
176
     0
290
     0
176
     0
 90
       50
176
     0
 90
       50
176
     0
 90
       50
176
     0
290
     0
176
     0
 90
       50
176
     0
 62
   256
176
     0
 40
1.0
176
     0
 90
        2
176
     0
  1
strokes_ogs.tif
176
     0
290
     0
176
     0
 40
1.0
176
     0
 40
1.0
176
     0
  0
VISUALSTYLE
  5
38
102
{ACAD_REACTORS
330
2A
102
}
330
2A
100
AcDbVisualStyle
  2
Linepattern
 70
    14
177
     3
291
     1
 70
    58
 90
        2
176
     1
 90
        2
176
     1
 90
        0
176
     1
 90
        0
176
     1
 40
0.6
176
     1
 40
30.0
176
     1
 62
     7
420
 16777215
176
     1
 90
        1
176
     1
 90
        4
176
     1
 62
     7
176
     1
 62
   257
176
     1
 90
        7
176
     1
 90
        7
176
     1
 40
1.0
176
     1
 90
        8
176
     1
 62
     7
176
     1
 40
1.0
176
     1
 90
        1
176
     1
 90
        6
176
     1
 90
        2
176
     1
 62
     7
176
     1
 90
        5
176
     1
 90
        0
176
     1
 90
        0
176
     1
290
     0
176
     1
 90
        1
176
     1
 40
0.0
176
     1
 90
        0
176
     1
290
     0
176
     1
290
     1
176
     1
290
     1
176
     1
290
     0
176
     1
290
     0
176
     1
290
     0
176
     1
290
     0
176
     1
290
     0
176
     1
290
     0
176
     1
 90
       50
176
     1
 40
0.0
176
     1
 40
1.0
176
     1
 90
        0
176
     1
 62
    18
420
        0
176
     1
 90
       50
176
     1
 90
        3
176
     1
 62
     5
420
      255
176
     1
290
     0
176
     1
 90
       50
176
     1
 90
       50
176
     1
 90
       50
176
     1
290
     0
176
     1
 90
       50
176
     1
 62
   256
176
     0
 40
1.0
176
     0
 90
        2
176
     1
  1
strokes_ogs.tif
176
     1
290
     0
176
     1
 40
1.0
176
     1
 40
1.0
176
     1
  0
VISUALSTYLE
  5
3C
102
{ACAD_REACTORS
330
2A
102
}
330
2A
100
AcDbVisualStyle
  2
OverhangOff
 70
    21
177
     3
291
     1
 70
    58
 90
        2
176
     0
 90
        2
176
     0
 90
        0
176
     0
 90
        0
176
     0
 40
0.6
176
     0
 40
30.0
176
     0
 62
     7
420
 16777215
176
     0
 90
        1
176
     0
 90
        4
176
     0
 62
     7
176
     0
 62
   257
176
     0
 90
        1
176
     0
 90
        1
176
     0
 40
1.0
176
     0
 90
        9
176
     2
 62
     7
176
     0
 40
1.0
176
     0
 90
        1
176
     0
 90
        6
176
     0
 90
        2
176
     0
 62
     7
176
     0
 90
        5
176
     0
 90
        0
176
     0
 90
        0
176
     0
290
     0
176
     0
 90
        1
176
     0
 40
0.0
176
     0
 90
        0
176
     0
290
     0
176
     0
290
     1
176
     0
290
     1
176
     0
290
     0
176
     0
290
     0
176
     0
290
     0
176
     0
290
     0
176
     0
290
     0
176
     0
290
     0
176
     0
 90
       50
176
     0
 40
0.0
176
     0
 40
1.0
176
     0
 90
        0
176
     0
 62
    18
420
        0
176
     0
 90
       50
176
     0
 90
        3
176
     0
 62
     5
420
      255
176
     0
290
     0
176
     0
 90
       50
176
     0
 90
       50
176
     0
 90
       50
176
     0
290
     0
176
     0
 90
       50
176
     0
 62
   256
176
     0
 40
1.0
176
     0
 90
        2
176
     0
  1
strokes_ogs.tif
176
     0
290
     0
176
     0
 40
1.0
176
     0
 40
1.0
176
     0
  0
VISUALSTYLE
  5
33
102
{ACAD_REACTORS
330
2A
102
}
330
2A
100
AcDbVisualStyle
  2
Realistic
 70
     8
177
     3
291
     0
 70
    58
 90
        2
176
     1
 90
        3
176
     1
 90
        0
176
     1
 90
        2
176
     1
 40
0.6
176
     1
 40
30.0
176
     1
 62
     7
420
 16777215
176
     1
 90
        0
176
     1
 90
        0
176
     1
 62
     7
176
     1
 62
   257
176
     1
 90
        1
176
     1
 90
        1
176
     1
 40
1.0
176
     1
 90
        8
176
     1
 62
   257
176
     1
 40
1.0
176
     1
 90
        1
176
     1
 90
        6
176
     1
 90
        2
176
     1
 62
     7
176
     1
 90
        3
176
     1
 90
        0
176
     1
 90
        0
176
     1
290
     0
176
     1
 90
       13
176
     1
 40
0.0
176
     1
 90
        0
176
     1
290
     0
176
     1
290
     1
176
     1
290
     1
176
     1
290
     0
176
     1
290
     0
176
     1
290
     0
176
     1
290
     0
176
     1
290
     0
176
     1
290
     0
176
     1
 90
       50
176
     1
 40
0.0
176
     1
 40
1.0
176
     1
 90
        0
176
     1
 62
    18
420
        0
176
     1
 90
       50
176
     1
 90
        3
176
     1
 62
     5
420
      255
176
     1
290
     0
176
     1
 90
       50
176
     1
 90
       50
176
     1
 90
       50
176
     1
290
     0
176
     1
 90
       50
176
     1
 62
   256
176
     0
 40
1.0
176
     0
 90
        2
176
     1
  1
strokes_ogs.tif
176
     1
290
     0
176
     1
 40
1.0
176
     1
 40
1.0
176
     1
  0
VISUALSTYLE
  5
42
102
{ACAD_REACTORS
330
2A
102
}
330
2A
100
AcDbVisualStyle
  2
Shaded
 70
    27
177
     3
291
     0
 70
    58
 90
        2
176
     1
 90
        2
176
     1
 90
        1
176
     1
 90
        2
176
     1
 40
0.6
176
     1
 40
30.0
176
     1
 62
     7
420
 16777215
176
     1
 90
        0
176
     1
 90
        4
176
     1
 62
     7
176
     1
 62
   257
176
     1
 90
        1
176
     1
 90
        1
176
     1
 40
1.0
176
     1
 90
        8
176
     1
 62
   257
176
     1
 40
1.0
176
     1
 90
        1
176
     1
 90
        6
176
     1
 90
        2
176
     1
 62
     8
420
  7895160
176
     1
 90
        3
176
     1
 90
        0
176
     1
 90
        0
176
     1
290
     0
176
     1
 90
        5
176
     1
 40
0.0
176
     1
 90
        0
176
     1
290
     0
176
     1
290
     1
176
     1
290
     1
176
     1
290
     0
176
     1
290
     0
176
     1
290
     0
176
     1
290
     0
176
     1
290
     0
176
     1
290
     0
176
     1
 90
       50
176
     1
 40
0.0
176
     1
 40
1.0
176
     1
 90
        0
176
     1
 62
    18
420
        0
176
     1
 90
       50
176
     1
 90
        3
176
     1
 62
     5
420
      255
176
     1
290
     0
176
     1
 90
       50
176
     1
 90
       50
176
     1
 90
       50
176
     1
290
     0
176
     1
 90
       50
176
     1
 62
   256
176
     0
 40
1.0
176
     0
 90
        2
176
     1
  1
strokes_ogs.tif
176
     1
290
     0
176
     1
 40
1.0
176
     1
 40
1.0
176
     1
  0
VISUALSTYLE
  5
41
102
{ACAD_REACTORS
330
2A
102
}
330
2A
100
AcDbVisualStyle
  2
Shaded with edges
 70
    26
177
     3
291
     0
 70
    58
 90
        2
176
     1
 90
        2
176
     1
 90
        1
176
     1
 90
        2
176
     1
 40
0.6
176
     1
 40
30.0
176
     1
 62
     7
420
 16777215
176
     1
 90
        1
176
     1
 90
       10
176
     1
 62
     7
176
     1
 62
   257
176
     1
 90
        2
176
     1
 90
        1
176
     1
 40
1.0
176
     1
 90
        8
176
     1
 62
   257
176
     1
 40
1.0
176
     1
 90
        1
176
     1
 90
        6
176
     1
 90
        2
176
     1
 62
     7
176
     1
 90
        3
176
     1
 90
        0
176
     1
 90
        0
176
     1
290
     0
176
     1
 90
        5
176
     1
 40
0.0
176
     1
 90
        0
176
     1
290
     0
176
     1
290
     1
176
     1
290
     1
176
     1
290
     0
176
     1
290
     0
176
     1
290
     0
176
     1
290
     0
176
     1
290
     0
176
     1
290
     0
176
     1
 90
       50
176
     1
 40
0.0
176
     1
 40
1.0
176
     1
 90
        0
176
     1
 62
    18
420
        0
176
     1
 90
       50
176
     1
 90
        3
176
     1
 62
     5
420
      255
176
     1
290
     0
176
     1
 90
       50
176
     1
 90
       50
176
     1
 90
       50
176
     1
290
     0
176
     1
 90
       50
176
     1
 62
   256
176
     0
 40
1.0
176
     0
 90
        2
176
     1
  1
strokes_ogs.tif
176
     1
290
     0
176
     1
 40
1.0
176
     1
 40
1.0
176
     1
  0
VISUALSTYLE
  5
3E
102
{ACAD_REACTORS
330
2A
102
}
330
2A
100
AcDbVisualStyle
  2
Shades of Gray
 70
    23
177
     3
291
     0
 70
    58
 90
        2
176
     1
 90
        2
176
     1
 90
        3
176
     1
 90
        0
176
     1
 40
0.6
176
     1
 40
30.0
176
     1
 62
     7
420
 16777215
176
     1
 90
        2
176
     1
 90
        2
176
     1
 62
     7
176
     1
 62
     7
176
     1
 90
        1
176
     1
 90
        1
176
     1
 40
40.0
176
     1
 90
        8
176
     1
 62
     7
176
     1
 40
1.0
176
     1
 90
        1
176
     1
 90
        6
176
     1
 90
        2
176
     1
 62
     7
176
     1
 90
        3
176
     1
 90
        0
176
     1
 90
        0
176
     1
290
     0
176
     1
 90
        1
176
     1
 40
0.0
176
     1
 90
        0
176
     1
290
     0
176
     1
290
     1
176
     1
290
     1
176
     1
290
     0
176
     1
290
     0
176
     1
290
     0
176
     1
290
     0
176
     1
290
     0
176
     1
290
     0
176
     1
 90
       50
176
     1
 40
0.0
176
     1
 40
1.0
176
     1
 90
        0
176
     1
 62
    18
420
        0
176
     1
 90
       50
176
     1
 90
        3
176
     1
 62
     5
420
      255
176
     1
290
     0
176
     1
 90
       50
176
     1
 90
       50
176
     1
 90
       50
176
     1
290
     0
176
     1
 90
       50
176
     1
 62
   256
176
     0
 40
1.0
176
     0
 90
        2
176
     1
  1
strokes_ogs.tif
176
     1
290
     0
176
     1
 40
1.0
176
     1
 40
1.0
176
     1
  0
VISUALSTYLE
  5
3F
102
{ACAD_REACTORS
330
2A
102
}
330
2A
100
AcDbVisualStyle
  2
Sketchy
 70
    24
177
     3
291
     0
 70
    58
 90
        1
176
     1
 90
        2
176
     1
 90
        2
176
     1
 90
        0
176
     1
 40
0.6
176
     1
 40
30.0
176
     1
 62
     7
420
 16777215
176
     1
 90
        2
176
     1
 90
        2
176
     1
 62
     7
176
     1
 62
     7
176
     1
 90
        1
176
     1
 90
        1
176
     1
 40
40.0
176
     1
 90
       11
176
     1
 62
     7
176
     1
 40
1.0
176
     1
 90
        1
176
     1
 90
        6
176
     1
 90
        2
176
     1
 62
     7
176
     1
 90
        6
176
     1
 90
        0
176
     1
 90
        0
176
     1
290
     0
176
     1
 90
        1
176
     1
 40
0.0
176
     1
 90
        0
176
     1
290
     0
176
     1
290
     1
176
     1
290
     1
176
     1
290
     0
176
     1
290
     0
176
     1
290
     0
176
     1
290
     0
176
     1
290
     0
176
     1
290
     0
176
     1
 90
       50
176
     1
 40
0.0
176
     1
 40
1.0
176
     1
 90
        0
176
     1
 62
    18
420
        0
176
     1
 90
       50
176
     1
 90
        3
176
     1
 62
     5
420
      255
176
     1
290
     0
176
     1
 90
       50
176
     1
 90
       50
176
     1
 90
       50
176
     1
290
     0
176
     1
 90
       50
176
     1
 62
   256
176
     0
 40
1.0
176
     0
 90
        2
176
     1
  1
strokes_ogs.tif
176
     1
290
     0
176
     1
 40
1.0
176
     1
 40
1.0
176
     1
  0
VISUALSTYLE
  5
37
102
{ACAD_REACTORS
330
2A
102
}
330
2A
100
AcDbVisualStyle
  2
Thicken
 70
    13
177
     3
291
     1
 70
    58
 90
        2
176
     1
 90
        2
176
     1
 90
        0
176
     1
 90
        0
176
     1
 40
0.6
176
     1
 40
30.0
176
     1
 62
     7
420
 16777215
176
     1
 90
        1
176
     1
 90
        4
176
     1
 62
     7
176
     1
 62
   257
176
     1
 90
        1
176
     1
 90
        1
176
     1
 40
1.0
176
     1
 90
       12
176
     1
 62
     7
176
     1
 40
1.0
176
     1
 90
        1
176
     1
 90
        6
176
     1
 90
        2
176
     1
 62
     7
176
     1
 90
        5
176
     1
 90
        0
176
     1
 90
        0
176
     1
290
     0
176
     1
 90
        1
176
     1
 40
0.0
176
     1
 90
        0
176
     1
290
     0
176
     1
290
     1
176
     1
290
     1
176
     1
290
     0
176
     1
290
     0
176
     1
290
     0
176
     1
290
     0
176
     1
290
     0
176
     1
290
     0
176
     1
 90
       50
176
     1
 40
0.0
176
     1
 40
1.0
176
     1
 90
        0
176
     1
 62
    18
420
        0
176
     1
 90
       50
176
     1
 90
        3
176
     1
 62
     5
420
      255
176
     1
290
     0
176
     1
 90
       50
176
     1
 90
       50
176
     1
 90
       50
176
     1
290
     0
176
     1
 90
       50
176
     1
 62
   256
176
     0
 40
1.0
176
     0
 90
        2
176
     1
  1
strokes_ogs.tif
176
     1
290
     0
176
     1
 40
1.0
176
     1
 40
1.0
176
     1
  0
VISUALSTYLE
  5
30
102
{ACAD_REACTORS
330
2A
102
}
330
2A
100
AcDbVisualStyle
  2
Wireframe
 70
     5
177
     3
291
     0
 70
    58
 90
        0
176
     1
 90
        2
176
     1
 90
        0
176
     1
 90
        0
176
     1
 40
0.6
176
     1
 40
30.0
176
     1
 62
     7
420
 16777215
176
     1
 90
        1
176
     1
 90
        4
176
     1
 62
     7
176
     1
 62
   257
176
     1
 90
        1
176
     1
 90
        1
176
     1
 40
1.0
176
     1
 90
        0
176
     1
 62
   257
176
     1
 40
1.0
176
     1
 90
        1
176
     1
 90
        6
176
     1
 90
        2
176
     1
 62
     7
176
     1
 90
        3
176
     1
 90
        0
176
     1
 90
        0
176
     1
290
     0
176
     1
 90
        1
176
     1
 40
0.0
176
     1
 90
        0
176
     1
290
     0
176
     1
290
     1
176
     1
290
     1
176
     1
290
     0
176
     1
290
     0
176
     1
290
     0
176
     1
290
     0
176
     1
290
     0
176
     1
290
     0
176
     1
 90
       50
176
     1
 40
0.0
176
     1
 40
1.0
176
     1
 90
        0
176
     1
 62
    18
420
        0
176
     1
 90
       50
176
     1
 90
        3
176
     1
 62
     5
420
      255
176
     1
290
     0
176
     1
 90
       50
176
     1
 90
       50
176
     1
 90
       50
176
     1
290
     0
176
     1
 90
       50
176
     1
 62
   256
176
     0
 40
1.0
176
     0
 90
        2
176
     1
  1
strokes_ogs.tif
176
     1
290
     0
176
     1
 40
1.0
176
     1
 40
1.0
176
     1
  0
VISUALSTYLE
  5
40
102
{ACAD_REACTORS
330
2A
102
}
330
2A
100
AcDbVisualStyle
  2
X-Ray
 70
    25
177
     3
291
     0
 70
    58
 90
        2
176
     1
 90
        2
176
     1
 90
        1
176
     1
 90
        1
176
     1
 40
0.5
176
     1
 40
30.0
176
     1
 62
     7
420
 16777215
176
     1
 90
        1
176
     1
 90
        0
176
     1
 62
     7
176
     1
 62
   257
176
     1
 90
        1
176
     1
 90
        1
176
     1
 40
1.0
176
     1
 90
        8
176
     1
 62
     7
176
     1
 40
1.0
176
     1
 90
        1
176
     1
 90
        6
176
     1
 90
        2
176
     1
 62
     7
176
     1
 90
        3
176
     1
 90
        0
176
     1
 90
        0
176
     1
290
     0
176
     1
 90
       13
176
     1
 40
0.0
176
     1
 90
        0
176
     1
290
     0
176
     1
290
     1
176
     1
290
     1
176
     1
290
     0
176
     1
290
     0
176
     1
290
     0
176
     1
290
     0
176
     1
290
     0
176
     1
290
     0
176
     1
 90
       50
176
     1
 40
0.0
176
     1
 40
1.0
176
     1
 90
        0
176
     1
 62
    18
420
        0
176
     1
 90
       50
176
     1
 90
        3
176
     1
 62
     5
420
      255
176
     1
290
     0
176
     1
 90
       50
176
     1
 90
       50
176
     1
 90
       50
176
     1
290
     0
176
     1
 90
       50
176
     1
 62
   256
176
     0
 40
1.0
176
     0
 90
        2
176
     1
  1
strokes_ogs.tif
176
     1
290
     0
176
     1
 40
1.0
176
     1
 40
1.0
176
     1
  0
DICTIONARYVAR
  5
40F
102
{ACAD_REACTORS
330
40E
102
}
330
40E
100
DictionaryVariables
280
     0
  1
1:1
  0
DICTIONARYVAR
  5
414
102
{ACAD_REACTORS
330
40E
102
}
330
40E
100
DictionaryVariables
280
     0
  1
Standard
  0
DICTIONARYVAR
  5
413
102
{ACAD_REACTORS
330
40E
102
}
330
40E
100
DictionaryVariables
280
     0
  1
Standard
  0
DICTIONARY
  5
410
330
6A
100
AcDbDictionary
280
     1
281
     1
  3
ACAD_ROUNDTRIP_2008_TABLESTYLE_CELLSTYLEMAP
360
411
  0
CELLSTYLEMAP
  5
411
102
{ACAD_REACTORS
330
410
102
}
330
410
100
AcDbCellStyleMap
 90
        3
300
CELLSTYLE
  1
TABLEFORMAT_BEGIN
 90
        5
170
     1
 91
        0
 92
    32768
 62
   257
 93
        1
300
CONTENTFORMAT
  1
CONTENTFORMAT_BEGIN
 90
        0
 91
        0
 92
        4
 93
        0
300

 40
0.0
140
1.0
 94
        5
 62
     0
340
11
144
0.25
309
CONTENTFORMAT_END
171
     1
301
MARGIN
  1
CELLMARGIN_BEGIN
 40
0.06
 40
0.06
 40
0.06
 40
0.06
 40
0.06
 40
0.06
309
CELLMARGIN_END
 94
        6
 95
        1
302
GRIDFORMAT
  1
GRIDFORMAT_BEGIN
 90
        0
 91
        1
 62
     0
 92
       -2
340
14
 93
        0
 40
0.045
309
GRIDFORMAT_END
 95
        2
302
GRIDFORMAT
  1
GRIDFORMAT_BEGIN
 90
        0
 91
        1
 62
     0
 92
       -2
340
14
 93
        0
 40
0.045
309
GRIDFORMAT_END
 95
        4
302
GRIDFORMAT
  1
GRIDFORMAT_BEGIN
 90
        0
 91
        1
 62
     0
 92
       -2
340
14
 93
        0
 40
0.045
309
GRIDFORMAT_END
 95
        8
302
GRIDFORMAT
  1
GRIDFORMAT_BEGIN
 90
        0
 91
        1
 62
     0
 92
       -2
340
14
 93
        0
 40
0.045
309
GRIDFORMAT_END
 95
       16
302
GRIDFORMAT
  1
GRIDFORMAT_BEGIN
 90
        0
 91
        1
 62
     0
 92
       -2
340
14
 93
        0
 40
0.045
309
GRIDFORMAT_END
 95
       32
302
GRIDFORMAT
  1
GRIDFORMAT_BEGIN
 90
        0
 91
        1
 62
     0
 92
       -2
340
14
 93
        0
 40
0.045
309
GRIDFORMAT_END
309
TABLEFORMAT_END
  1
CELLSTYLE_BEGIN
 90
        1
 91
        1
300
_TITLE
309
CELLSTYLE_END
300
CELLSTYLE
  1
TABLEFORMAT_BEGIN
 90
        5
170
     1
 91
        0
 92
        0
 62
   257
 93
        1
300
CONTENTFORMAT
  1
CONTENTFORMAT_BEGIN
 90
        0
 91
        0
 92
        4
 93
        0
300

 40
0.0
140
1.0
 94
        5
 62
     0
340
11
144
0.18
309
CONTENTFORMAT_END
171
     1
301
MARGIN
  1
CELLMARGIN_BEGIN
 40
0.06
 40
0.06
 40
0.06
 40
0.06
 40
0.06
 40
0.06
309
CELLMARGIN_END
 94
        6
 95
        1
302
GRIDFORMAT
  1
GRIDFORMAT_BEGIN
 90
        0
 91
        1
 62
     0
 92
       -2
340
14
 93
        0
 40
0.045
309
GRIDFORMAT_END
 95
        2
302
GRIDFORMAT
  1
GRIDFORMAT_BEGIN
 90
        0
 91
        1
 62
     0
 92
       -2
340
14
 93
        0
 40
0.045
309
GRIDFORMAT_END
 95
        4
302
GRIDFORMAT
  1
GRIDFORMAT_BEGIN
 90
        0
 91
        1
 62
     0
 92
       -2
340
14
 93
        0
 40
0.045
309
GRIDFORMAT_END
 95
        8
302
GRIDFORMAT
  1
GRIDFORMAT_BEGIN
 90
        0
 91
        1
 62
     0
 92
       -2
340
14
 93
        0
 40
0.045
309
GRIDFORMAT_END
 95
       16
302
GRIDFORMAT
  1
GRIDFORMAT_BEGIN
 90
        0
 91
        1
 62
     0
 92
       -2
340
14
 93
        0
 40
0.045
309
GRIDFORMAT_END
 95
       32
302
GRIDFORMAT
  1
GRIDFORMAT_BEGIN
 90
        0
 91
        1
 62
     0
 92
       -2
340
14
 93
        0
 40
0.045
309
GRIDFORMAT_END
309
TABLEFORMAT_END
  1
CELLSTYLE_BEGIN
 90
        2
 91
        1
300
_HEADER
309
CELLSTYLE_END
300
CELLSTYLE
  1
TABLEFORMAT_BEGIN
 90
        5
170
     1
 91
        0
 92
        0
 62
   257
 93
        1
300
CONTENTFORMAT
  1
CONTENTFORMAT_BEGIN
 90
        0
 91
        0
 92
        4
 93
        0
300

 40
0.0
140
1.0
 94
        2
 62
     0
340
11
144
0.18
309
CONTENTFORMAT_END
171
     1
301
MARGIN
  1
CELLMARGIN_BEGIN
 40
0.06
 40
0.06
 40
0.06
 40
0.06
 40
0.06
 40
0.06
309
CELLMARGIN_END
 94
        6
 95
        1
302
GRIDFORMAT
  1
GRIDFORMAT_BEGIN
 90
        0
 91
        1
 62
     0
 92
       -2
340
14
 93
        0
 40
0.045
309
GRIDFORMAT_END
 95
        2
302
GRIDFORMAT
  1
GRIDFORMAT_BEGIN
 90
        0
 91
        1
 62
     0
 92
       -2
340
14
 93
        0
 40
0.045
309
GRIDFORMAT_END
 95
        4
302
GRIDFORMAT
  1
GRIDFORMAT_BEGIN
 90
        0
 91
        1
 62
     0
 92
       -2
340
14
 93
        0
 40
0.045
309
GRIDFORMAT_END
 95
        8
302
GRIDFORMAT
  1
GRIDFORMAT_BEGIN
 90
        0
 91
        1
 62
     0
 92
       -2
340
14
 93
        0
 40
0.045
309
GRIDFORMAT_END
 95
       16
302
GRIDFORMAT
  1
GRIDFORMAT_BEGIN
 90
        0
 91
        1
 62
     0
 92
       -2
340
14
 93
        0
 40
0.045
309
GRIDFORMAT_END
 95
       32
302
GRIDFORMAT
  1
GRIDFORMAT_BEGIN
 90
        0
 91
        1
 62
     0
 92
       -2
340
14
 93
        0
 40
0.045
309
GRIDFORMAT_END
309
TABLEFORMAT_END
  1
CELLSTYLE_BEGIN
 90
        3
 91
        2
300
_DATA
309
CELLSTYLE_END
  0
ENDSEC
  0
EOF
